BluRayCD Forum

 找回密码
 立即注册【分享大片】
查看: 12|回复: 0
收起左侧

[经典影片] 刑法典 The Criminal Code 1930 720p BluRaycd x264-USURY 3.33GB

[复制链接]

1万

主题

387

回帖

12万

积分

Post Share

金币
3947 枚
体力
32369 点

卓越贡献勋章VIP蓝光勋章诚信会员勋章

mvods 发表于 2023-4-18 21:04:16 | 显示全部楼层 |阅读模式
; r1 N" d/ V8 }/ `0 o% v) m. P
0 H% x. d+ d* E- S0 E! D8 \
◎译  名 刑法典 # b1 C. ^' L& R6 C2 ?" q7 W
◎片  名 The Criminal Code6 h% e- u( t) q8 e) _
◎年  代 1931
, m& z; I- F8 b8 a4 p; x/ s◎产  地 美国
4 }& Z( K8 ^' K3 ?! S7 a4 ?) E◎类  别 剧情/犯罪0 ^! B8 k' g6 D/ F% T
◎语  言 英语8 g- f8 Z4 ^; z# ?; M
◎上映日期 1931-01-03(美国)8 W8 L; w6 j( b
◎IMDb评分  6.9/10 from 1,252 users
) ^4 I0 H& j( C, E1 j◎IMDb链接  https://www.imdb.com/title/tt0021770/
# H5 @: C. _) h3 a. H◎豆瓣评分 0/10 from 0 users
4 c6 H0 W. L" O+ F4 \1 T2 ]$ p◎豆瓣链接 https://movie.douban.com/subject/4318323/: a7 V, N  w5 a5 _
◎片  长 1 h 36 min
0 T4 j5 m: D; l5 X& H2 G◎导  演 霍华德·霍克斯 Howard Hawks" E  j0 ~$ z! D3 W! y" b
◎编  剧 小弗雷德·尼布洛 Fred Niblo Jr.
& U8 {# Q/ H( E       塞腾·艾·米勒 Seton I. Miller
# m# e; N0 X0 E# \. i1 T6 w1 H9 h       马丁·弗莱文 Martin Flavin5 V3 @; A% u6 a9 u6 d2 l- I9 L5 B
◎制  片  人 Frank Fouce
: j1 {/ W" |) e# @- `. F( @       哈里·考恩 Harry Cohn$ v+ f* }! n: f- E8 N
       霍华德·霍克斯 Howard Hawks
. A1 M- r; y/ H5 T! W1 h◎音  乐 Sam Perry ' p8 ]) ]% y. {/ n
◎摄  影 泰德·泰兹拉夫 Ted Tetzlaff0 u% ~! d4 }7 |+ d
       黄宗霑 James Wong Howe
+ ~) X$ Q/ g0 ?2 V8 r) }9 l◎剪  辑 爱德华·柯蒂斯 Edward Curtiss
0 H( D7 {9 Q9 c) L6 |0 a* ^  r0 e◎美  术 Edward C. Jewell 2 r5 `9 J2 I) D% T
◎演  员 沃尔特·休斯顿 Walter Huston
3 S( E7 v! ]- Y8 ?       德威特·詹宁斯 DeWitt Jennings7 [$ _3 ^9 t* o8 J4 K) n& t
       鲍勃·科特曼 Bob Kortman/ I4 i3 m4 Z) t$ q$ m: q
       Otto Hoffman
5 D- u4 C: ^! Y  j* ]/ [  E       Tetsu Komai 8 H& Q+ X- `0 S/ g( L! n( Q
       李·费尔普斯 Lee Phelps
9 n) _+ }1 q3 y# E* c* H       保罗·波尔卡西 Paul Porcasi0 V3 D8 K  w$ Z) ^6 x
       John Sheehan $ l8 {6 C9 R3 i! B- v9 A5 j  x
       约翰·圣波利斯 John St. Polis
. T/ k0 D" a# m: |       埃瑟尔·威尔士 Ethel Wales& k' D- f; x+ t8 \+ p# p) H5 @8 s( \
       艾尔·希尔 Al Hill) a3 i4 ~& f/ I$ ^7 X  C
       罗素·霍普顿 Russell Hopton+ n# L0 ?' a! V$ n: u1 c
       菲利浦·霍尔姆斯 Phillips Holmes
9 _# D, D  Z6 {6 o! n4 W% |       Nicholas Soussanin
6 Y/ z2 a* I- ^: U& O# l2 {       安迪·德怀恩 Andy Devine
. \1 L/ R+ V& @' m) S; n2 N3 I  `& m       波利斯·卡洛夫 Boris Karloff
8 V- f- x: \' h5 B- G- O0 `       玛丽·多兰 Mary Doran
- L' c0 _2 r  U+ r       康斯坦茨·卡明斯 Constance Cummings  i% t/ @# @. ^0 t, o' I
       弗兰克·哈格尼 Frank Hagney7 v( _# U8 o7 ?
       亚瑟·霍伊特 Arthur Hoyt
2 D0 h" L. R, S; q' G9 L       James Guilfoyle
1 p/ i1 U4 @7 o' i# [' q. _* \( G* V' Q. u4 u/ \
◎标  签 霍华德·霍克斯 | 美国 | Howard_Hawks | 1930s | 黄宗霑 | 的 | 奥斯卡最佳改编剧本 | 不是默片! S# n% z7 ]; A
9 V$ W% m4 y5 Q% z" n  o: E& r
◎简  介 
$ i3 q; N1 F, T3 y6 }( t- z: \: _; D0 i+ B
  After young Robert Graham commits a murder while drunk and defending his girlfriend, he is prosecuted by ambitious Mark Brady and sentenced to 10 years. Six years later, Brady becomes the prison warden and offers the beleaguered Robert a job as his chauffeur. Robert cleans up his act, but, on the eve of his pardon, his cellmate drags him back into the world of violence, and he faces a difficult choice that could return him to prison.
$ p2 v  b) T5 W7 n6 G+ _( I
& p+ j3 `. U/ _+ j1 S/ q◎获奖情况 
0 `3 F: ?% q+ K1 _, K2 G
7 D$ Z+ H+ b5 f  第4届奥斯卡金像奖 (1931)8 \: _  r- K2 k
  最佳改编剧本(提名) 塞腾·艾·米勒,小弗雷德·尼布洛
+ p/ \2 w+ Z$ J: Q
Video/ x7 Y2 ]- c$ R2 E0 h- A
ID : 1/ L) ^/ o) \  u+ k# c8 H# v
Format : AVC& m; L; Y8 j+ U+ R( p
Format/Info : Advanced Video Codec) ~/ c$ E- s. f" T! ~& Y
Format profile : High@L4.1
7 h, W7 \) D( t7 G: A4 L6 j: hFormat settings : CABAC / 12 Ref Frames$ T, O1 W5 K3 ~' S, c, |5 U7 c
Format settings, CABAC : Yes
& y5 D5 e9 B; _. u: DFormat settings, Reference frames : 12 frames; n8 C. A% B3 I2 y! [0 Z+ M
Codec ID : V_MPEG4/ISO/AVC
- ~7 ?5 ^% M7 T) yDuration : 1 h 36 min7 I; E$ S4 n7 Q& [7 u
Bit rate : 4 170 kb/s7 Y0 o% E1 e2 H2 N% Q: L" O
Width : 958 pixels
, k7 N2 o9 ^& OHeight : 720 pixels
$ _" |6 ~  R! o. s& a) S5 TDisplay aspect ratio : 4:3
1 |! I. c# C$ zFrame rate mode : Constant
6 t+ B4 P0 ]  [' N9 g; SFrame rate : 23.976 (24000/1001) FPS
$ }+ ^/ c; W, C! @2 fColor space : YUV7 j+ x5 p2 d8 C( z
Chroma subsampling : 4:2:0
0 u9 y( f2 \' h8 W" m4 c& ~+ G( BBit depth : 8 bits( c, K0 X1 |5 w! L6 {- A
Scan type : Progressive
7 Q# Y1 K, D8 T  cBits/(Pixel*Frame) : 0.252( N+ n" Q) B/ F3 g; V3 l
Stream size : 2.81 GiB (84%)
6 b& |0 u( I9 N1 O0 A- e" z" FWriting library : x264 core 164 r3106 eaa68fa/ H9 k! J8 @; Z3 Z$ U3 N% \
Encoding settings : cabac=1 / ref=12 / deblock=1:-3:-3 / analyse=0x3:0x133 / me=umh / subme=10 / psy=1 / psy_rd=1.00:0.15 / mixed_ref=1 / me_range=24 / chroma_me=1 / trellis=2 / 8x8dct=1 / cqm=0 / deadzone=21,11 / fast_pskip=1 / chroma_qp_offset=-3 / threads=18 / lookahead_threads=3 / sliced_threads=0 / nr=0 / decimate=1 / interlaced=0 / bluray_compat=0 / constrained_intra=0 / bframes=8 / b_pyramid=2 / b_adapt=2 / b_bias=0 / direct=3 / weightb=1 / open_gop=0 / weightp=2 / keyint=250 / keyint_min=23 / scenecut=40 / intra_refresh=0 / rc_lookahead=60 / rc=crf / mbtree=1 / crf=17.0 / qcomp=0.60 / qpmin=0 / qpmax=69 / qpstep=4 / ip_ratio=1.40 / aq=3:0.50
# k/ c& Y$ `5 F4 VLanguage : English- ?( C8 M3 Y; n& n" O
Default : Yes- K/ N% |( N1 y# v. i9 {( W
Forced : No
' e  _& g3 l3 {  WColor range : Limited
7 ~4 h4 m  @% _Matrix coefficients : BT.709
) p2 ]( u, Z8 }0 p+ ]9 E  s! Z4 I* g. e" R# n5 n" G1 p: a
Audio #1
* j; z% R2 i% ?7 d& t! S, vID : 2
& L& V- B4 y" [& J9 b- F& t# RFormat : FLAC, a) ?  c! ?) u8 w5 y5 s
Format/Info : Free Lossless Audio Codec) O7 b6 R, p+ e! b* f# z: i! ^. X/ \
Codec ID : A_FLAC
0 m8 z% T& v0 Q1 t$ h+ }Duration : 1 h 36 min
3 v  u$ \5 e) _# jBit rate mode : Variable
0 k0 K+ E# Y$ y' y* X) ~* F% Q; sBit rate : 656 kb/s
' A" _$ G" h6 ]% H& ~Channel(s) : 1 channel, U% @+ L$ G! M5 @
Channel layout : C3 |3 I$ z; |9 I8 ~3 D
Sampling rate : 48.0 kHz1 ~8 |/ E% G% p, }2 j+ N
Frame rate : 11.719 FPS (4096 SPF)2 m; Y" i! b' o$ o; }
Bit depth : 24 bits6 B6 h1 ?0 F" k# f) t2 E& b$ t; n+ L
Compression mode : Lossless4 m( F0 V1 P& x$ ^% M: k+ s
Stream size : 452 MiB (13%)
8 c9 X+ b1 F) L, PWriting library : libFLAC 1.2.1 (UTC 2007-09-17)
" V( f; C; Q3 x) N: BLanguage : English
4 z2 T8 J" G' h' o) tDefault : Yes
3 U$ }9 r* @7 @Forced : No1 O* n' }+ a5 a; V/ D

2 }5 |1 R; H* R5 p+ A& m) z( R! |Audio #2" s: c- @+ l+ P& T% [
ID : 3
, `  h0 Z- Y5 v& `5 S( pFormat : AAC LC
: \) E& u3 s# Z0 F+ s* c; QFormat/Info : Advanced Audio Codec Low Complexity4 w7 ^' q1 J! C; {$ H& u/ r8 o3 p' B
Codec ID : A_AAC-2+ g3 P) {, I( F8 @
Duration : 1 h 36 min
1 L2 S1 j" n& `5 l$ W1 ?Bit rate : 89.2 kb/s5 l) |. h2 Y- t* c. K
Channel(s) : 2 channels
" f- j2 S6 c: e/ n7 h% [Channel layout : L R2 _/ h, l& M, @, U
Sampling rate : 48.0 kHz% S' d2 I& c- x: l( y
Frame rate : 46.875 FPS (1024 SPF)* W, t7 \) X5 f! }2 w
Compression mode : Lossy
3 a; B5 v6 x. t) ]Delay relative to video : 9 ms7 }! x6 \$ Z1 u; D7 E
Stream size : 61.5 MiB (2%)
0 P0 @9 |& q6 U+ qTitle : English Commentary by Nora Fiore- C- m) l4 [; y1 N+ ^+ J" U, h
Language : English; g* h/ y! N' N8 m; v7 n3 V; c& w* e8 b
Default : No6 h& R8 Q/ _. X/ u. J  N8 `
Forced : No" n; a7 E) R2 o- n) B

, R+ V$ H, R! e8 Z2 rText #1
6 }4 @( [& u& d" |% L9 {ID : 4; I; |* M& U( l, s$ W, {7 z% ?- |
Format : UTF-8
4 Y6 r: C1 [- E6 x7 }2 b9 WCodec ID : S_TEXT/UTF86 U: _$ e2 I) d
Codec ID/Info : UTF-8 Plain Text! L7 G# w! z( b2 Q
Duration : 1 h 35 min' Z; J2 k& R0 m2 P* `
Bit rate : 72 b/s
) `& h  J/ n1 f: [: o9 ~Count of elements : 1528! e6 z( y+ ?  S& O
Stream size : 50.3 KiB (0%)
0 Y4 |9 `/ r* J  L) U$ j7 RTitle : English
6 \; J  Z# G6 o3 T% D5 sLanguage : English
0 W) R) B; S2 b- [! SDefault : No
5 Y+ f$ n9 E  S1 Z* c0 sForced : No
9 e5 ~% u' W  w3 R; e) ]) K3 X3 w0 G7 U& h
Text #2  F' t8 @3 s( g
ID : 54 Z: e% Y  ]$ j3 P) c9 q# V
Format : UTF-8
* j! s, S" N$ x4 D6 _& x( MCodec ID : S_TEXT/UTF8' B; \, O: `1 W" X5 I
Codec ID/Info : UTF-8 Plain Text  L. j5 v1 E% I! U; n
Duration : 1 h 35 min
* }( o8 t+ @: q5 _7 `Bit rate : 74 b/s/ f  ^3 H3 _( t  D: C8 G( v, C
Count of elements : 1589
8 I& r: G: K+ {- DStream size : 52.2 KiB (0%)
" H' ?7 u6 Q9 }$ qTitle : English SDH
% L& _+ s- R5 s. XLanguage : English% }6 ^- q5 z' v, X8 c2 v
Default : No
; r& }, S3 V- r0 A# ~# a& IForced : No
& v: r% i6 T$ [, i/ C5 R: i
: P! Y1 y3 Y* ]) J$ D/ |3 A9 ?) }Text #30 G1 \+ t+ b6 J' V0 z& ^
ID : 6. l# h7 e+ J' V# T6 f- ]7 o7 ]3 r# }
Format : PGS
0 \: {6 ~* h& dMuxing mode : zlib4 O4 T( L; n# k+ [3 c/ M0 x
Codec ID : S_HDMV/PGS
3 f3 [; Y  e" E# c6 _Codec ID/Info : Picture based subtitle format used on BDs/HD-DVDs8 w; d- `* u, u
Duration : 1 h 35 min5 z3 ], Q! Z, y6 L( y
Bit rate : 17.5 kb/s3 @  Y: ~: y- G! W  v
Count of elements : 3178
+ f# t& X- G+ d% ?" RStream size : 11.9 MiB (0%)
6 _' J" r- [5 c- q5 k" w% M7 V! mTitle : English SDH
8 e& c' m4 M$ X  [2 j9 TLanguage : English; B% X0 J6 b5 ?2 L4 }
Default : No
0 k# z: ?0 w+ n6 y" R, hForced : No
. V4 q# a3 @0 ~
' D! B$ K, ~, e3 v: zMenu) g0 l0 {) l. R4 P
00:00:00.000 : en:00:00:00.000" j7 ~' I8 g, q* W, G. V, J
00:09:02.792 : en:00:09:02.792
; @& y1 z; v0 f; Q  }00:16:15.641 : en:00:16:15.641
  w8 T) d9 y8 J& C" [/ g00:27:49.710 : en:00:27:49.710
/ y/ V2 I9 Y" T4 G) h7 g00:38:21.883 : en:00:38:21.883: }2 |* M6 j: W  `
00:48:09.970 : en:00:48:09.970- X+ X9 X# s4 P5 S, I1 v* `+ c* z
00:58:16.118 : en:00:58:16.118" S" E1 [  H* O2 b& h  B/ c
01:06:05.879 : en:01:06:05.879) S$ F8 G6 \, I& M$ C# j, U
01:15:47.084 : en:01:15:47.084! C& L6 l3 w7 W" ^
01:24:07.376 : en:01:24:07.376
0 |, x) o' u* T. b! ?+ F+ o. M8 p/ w
The.Criminal.Code.1930.720p.BluRayCD.x264-USURY 3.33 GB
6 v& q; a$ U- o9 t8 K! F! F% {) n. _+ b8 r6 }& v$ ]% i$ E
Video...: 958x720 4170kb/s @ crf17.0 23.976fps; N# T/ C# T' d; U$ a( D" Q
Audio1..: English 656kb/s 1ch FLAC' R$ D! u, v$ X" S+ \1 x
Audio2..: English Commentary by Nora Fiore 90kb/s 2ch AAC
" q2 ]1 x( b! G0 ISRT Subs: English regular/SDH
0 Y% k0 S. @: w. h: nPGS Subs: English SDH) L0 v6 I' N- q- M8 l
Size....: 3405.04mb (3570451873bytes)6 R. |: m+ u; f
Runtime.: 1h 36mn
( B- E" r. G$ ~' [4 o$ RIMDb....: https://www.imdb.com/title/tt00217701 J8 M2 E2 E! a/ Z- Q! v  H
# \5 U5 O% e: x
Source Bitrate: 19996kb/s

' \( l+ [% I9 P" {- D, ?; o
游客,查看本帖隐藏内容请回复 | 加入VIP可免积分免回复 了解详情 | 还不是会员:点击获取邀请码 Invitation Code

本版积分规则

小黑屋|手机版|Archiver|4K蓝光论坛

GMT+8, 2024-3-5 05:57

Copyright © 2001-2021, Gadaddy Cloud.

快速回复 返回顶部 返回列表