BluRayCD Forum

 找回密码
 立即注册【分享大片】
查看: 6|回复: 0
收起左侧

[动作战争] 大教头与骚娘子/铁手指 Shaolin Handlock 1979 DUBBED 720p BluRaycd x264-FREEMAN 4.21GB

[复制链接]

1万

主题

387

回帖

12万

积分

Post Share

金币
3947 枚
体力
32369 点

卓越贡献勋章VIP蓝光勋章诚信会员勋章

mvods 发表于 2023-4-18 22:58:07 | 显示全部楼层 |阅读模式

, z8 s4 m% u! Z! u8 I& j
0 ?0 H  s1 d6 g◎译  名 大教头与骚娘子/铁手指 # [9 b3 c6 I$ z% }( B
◎片  名 大教頭與騷娘子 / Bruce and the Iron Finger / Bruce Against Iron Hand / Iron Finger
& p' ]6 ]! E9 g; i# g0 [; n◎年  代 1979
: n$ M+ r1 d, b1 b, X7 ^◎产  地 中国香港/中国台湾
5 Q# \0 M) V7 a5 P6 ~◎类  别 动作/犯罪5 S. G3 ]' t! ?- m6 n5 S0 {! d6 O0 r
◎语  言 粤语/汉语普通话/英语2 n) U. T2 j( z; B' Y
◎上映日期 1979-01-19(中国香港)
1 k. b, r3 i7 U7 S' a8 X! Y' z◎IMDb评分  6.1/10 from 87 users3 Z/ D& n$ {/ m7 ]* ^' K  o
◎IMDb链接  https://www.imdb.com/title/tt0074246/
, a2 J" m, E) s1 Z/ d6 C◎豆瓣评分 0/10 from 0 users
2 m+ W% S  e. `0 h# z◎豆瓣链接 https://movie.douban.com/subject/3758874/+ i+ _) k: ~" u: S. q4 s  j2 |
◎片  长 1 h 24 min7 w( N# E& k6 I: ~
◎导  演 杜文波 Wenpo Tu3 {. I' c0 \3 x: k( w0 O9 F
◎副  导  演 梁小龙 Siu-Lung Leung- s5 W" v8 s$ l  R
◎制  片  人 刘尼 Ni Liu
5 J- ]* L  \* f$ s4 [7 c) U, S◎演  员 何宗道 Bruce Li
. c9 L5 G6 I, g# L; V       梁小龙 Siu-Lung Leung
9 o0 g7 p: ~" e$ `       谷峰 Feng Ku
3 N% }9 g' e/ n! Q" j& Q! a/ f5 M       李海生 Hoi Sang Lee% r  ~) x4 v7 |! q3 ~. a( _7 R
       袁曼姿 Man-Tzu Yuan
, T- ]1 N0 w9 ^$ J+ S: r       謝地 Che Dei, K- X2 y! l& l- M$ t( k; o
       刘尼 Ni Liu
- G0 }$ e4 N" R7 d+ ^& O       宋金来 Chin-Lai Sung
8 r) V$ p8 a) A2 x( C       王光裕 Kuang Yu Wang
6 [, W) k) j3 [8 g5 z$ E% X! j( f. k
◎简  介 
8 \( o  f$ W/ f) U2 X- e3 t: `, b& {' Y" @9 R2 k" U' b
  在香港接二连三的发生多起命案,死者脖子处均被锁喉功所伤,作案手法都是出自一人。何宗道所扮演的警探负责追查真凶,他探访多出武馆都没有查到线索,最后在小龙的武馆处获得相关线索,查得真正的凶手就是谷峰。一场真正的较量拉开了序幕,最后在小龙的帮助下一举铲除了真凶.....! [5 s1 u1 m' i3 N* g
3 ^8 ]! G3 g6 K! Y# k0 J- ~2 u
  After the murder of two kung fu experts, Bruce, a Police Inspector from New Zealand, decides to get involved in the case despite only being on vacation in Hong Kong. At the scene of the most recent murder, the victim managed to tear off a Buddha pendant from the killer. The link between the two murders is the strange markings on the victims neck. Bruce retraces the victims final footsteps and the search leads him to tracking down experts in Iron Finger Kung Fu.4 T% S" d  G) E' ~# K0 k
Video
6 V$ J) t7 Q8 ~: ?0 O5 {2 QID : 1
. R4 @: l: M, HFormat : AVC
2 w/ r+ ]; ]: z8 L* ~Format/Info : Advanced Video Codec9 x7 A; O; Z( m
Format profile : High@L4.1" X9 S. x8 {* N4 o3 K, n
Format settings : CABAC / 8 Ref Frames& F# @% a: P/ k+ l# K  n# P
Format settings, CABAC : Yes
# p8 W$ m6 h0 L% j: t) |! oFormat settings, Reference frames : 8 frames
9 [" c! `1 ?5 D* B5 Q' T) E9 YCodec ID : V_MPEG4/ISO/AVC3 q- h) M7 S6 k( A4 Y$ I6 N) y
Duration : 1 h 24 min4 E- Z. N, h5 a- e4 l( W. L
Bit rate : 6 936 kb/s
0 r8 U9 ]# [. L9 v& F* p- wWidth : 1 280 pixels
/ Q# h- \8 r% |' f6 q. OHeight : 506 pixels
( t. x% Z' o4 n- ]4 Q$ _Display aspect ratio : 2.530
  Z0 \: B. ~: r% kFrame rate mode : Constant
5 @  j. H- S9 WFrame rate : 24.000 FPS
6 R7 J/ B( X' e; _Color space : YUV
+ b) }2 U, g4 V- Y' n" _8 p' ^Chroma subsampling : 4:2:0
1 c5 v1 O; k% M9 ]4 l3 D7 dBit depth : 8 bits7 L  |, s/ I- S& V  w+ T% e5 {4 w% [
Scan type : Progressive
8 ~) }- W" h4 g7 v' Y+ y3 sBits/(Pixel*Frame) : 0.446
3 G3 C2 p9 k$ V! o7 `- P9 ZStream size : 4.10 GiB (97%)) ]/ d& P& V- k
Writing library : x264 core 164 r3106 eaa68fa
" Y4 U# K  Z; y1 hEncoding settings : cabac=1 / ref=8 / deblock=1:-3:-3 / analyse=0x3:0x133 / me=umh / subme=9 / psy=1 / psy_rd=1.00:0.00 / mixed_ref=1 / me_range=16 / chroma_me=1 / trellis=2 / 8x8dct=1 / cqm=0 / deadzone=21,11 / fast_pskip=0 / chroma_qp_offset=-2 / threads=16 / lookahead_threads=1 / sliced_threads=0 / nr=0 / decimate=1 / interlaced=0 / bluray_compat=0 / constrained_intra=0 / bframes=3 / b_pyramid=2 / b_adapt=2 / b_bias=0 / direct=3 / weightb=1 / open_gop=0 / weightp=2 / keyint=250 / keyint_min=24 / scenecut=40 / intra_refresh=0 / rc_lookahead=60 / rc=crf / mbtree=1 / crf=17.0 / qcomp=0.60 / qpmin=0 / qpmax=69 / qpstep=4 / ip_ratio=1.40 / aq=3:0.60( E, X: V) ^4 V1 @5 G
Default : Yes
9 `0 B0 {* n2 s9 i8 G/ WForced : No
( h5 b# Q  {; ~, G4 O* T) Q/ XColor range : Limited& {4 O  N& O2 D
Matrix coefficients : BT.709
! `7 u- L2 O5 I# A( f* {
& A3 R; f- ^) W. B, M- U3 h9 [Audio
" j$ P  U$ W! `* }& A9 X0 U% G8 H2 YID : 2
5 H* I+ N% u* v/ ?Format : AC-3
) T) d* x5 r+ i+ a# z- QFormat/Info : Audio Coding 34 V# n1 _4 L. L6 y/ _* U
Commercial name : Dolby Digital
/ ~+ o5 j4 B8 C, FCodec ID : A_AC3
( W( F- G9 k! E$ S7 \, _' I# U: ]' gDuration : 1 h 24 min4 U! L2 S. N& o: v* I+ P8 e
Bit rate mode : Constant0 l7 |2 ?! E- e, J2 p
Bit rate : 192 kb/s
2 {: N) o2 u! S: |! \4 {+ W! QChannel(s) : 2 channels9 F* g9 [' Q2 \  b1 r6 Y3 @1 w4 j
Channel layout : L R! O; q  ~7 x, B( K' b4 v, K( _- O" `) e
Sampling rate : 48.0 kHz
% B( C6 N+ ~, R3 M- D1 M$ w  L( O4 ^Frame rate : 31.250 FPS (1536 SPF)
# h* j& Z/ q! I6 F$ aCompression mode : Lossy
: T6 i/ F3 k0 S1 S. FStream size : 116 MiB (3%)4 k7 s" a/ U3 M8 r6 @
Language : English2 T  i3 l2 }3 r! u
Service kind : Complete Main% c4 A# b4 U: ~  e' c
Default : Yes! b. z+ B( F4 y# ?' D7 S
Forced : No# O) X6 X9 n0 ]. v4 U7 n

5 T, E2 D7 T" ~, S0 _4 SMenu
$ J5 B: I% \2 Z  _6 c1 |9 j' d* W; s00:00:00.000 : en:00:00:00.0004 \+ @$ Y- W2 w" c- h
00:08:27.500 : en:00:08:27.500
3 K3 r$ l( Q  ]6 S3 ]' J( X00:15:45.417 : en:00:15:45.417+ h, N& B& Q2 w
00:19:18.583 : en:00:19:18.583; z9 R% t9 }5 j* z9 i9 V  w$ O6 C. R/ _
00:23:42.375 : en:00:23:42.375  Q4 d" t& n0 c8 [# z. b* ?
00:28:08.083 : en:00:28:08.083
* Z2 R/ I2 C, S8 C0 F7 @( ^7 B00:33:06.583 : en:00:33:06.583& p- M4 F; c8 [8 `$ s
00:36:20.833 : en:00:36:20.833! H5 [  x: s; n0 f
00:41:23.292 : en:00:41:23.292; L3 S1 `! Z7 n, }0 {9 |8 D
00:48:38.792 : en:00:48:38.792/ m9 ^$ c0 \. _# {
00:54:27.208 : en:00:54:27.208
" N9 o  W& l) ~$ k; r7 q00:59:23.625 : en:00:59:23.6258 Y2 V0 ], f+ k* U: T& U
01:01:45.958 : en:01:01:45.958
4 ?! W9 Q! u' s. |+ h2 C8 B& S01:07:09.833 : en:01:07:09.8336 w' b3 Y" Z* d8 V7 G0 @) U
01:10:33.875 : en:01:10:33.875
2 D' p3 `, r. O( Q01:15:28.250 : en:01:15:28.250/ X. t) P+ q7 o6 K4 N
01:21:25.375 : en:01:21:25.375
- K- I: ?, X" m1 ~3 p
! N  m5 A5 A3 V6 r1 ^1 FShaolin.Handlock.1979.DUBBED.720p.BluRayCD.x264-FREEMAN 4.21 GB) K2 N$ h. N, }. T, S. Z
2 O1 f  j+ {8 f2 I1 r
RELEASE DATE.....: 14-04-2023+ [; j- b, U8 Q. P
SiZE.............: 4,21 GiB" c) c+ n) P9 P
ViDEO............: 1280x506 - 6936Kbps (CRF 17)
& h6 s5 n7 T  N* F1 @7 RSOURCE...........: 26,4 Mbps4 e1 F; Q% {0 T# T
AUDiO1...........: English AC3 2.0 - 192 kbps8 B- R: v: K4 d. S6 }/ @% E
AUDiO2...........: -) o* |8 w' D. R$ r% ~, ^2 v. t4 o
SUBS.............: -
8 m2 Q8 I! D* ?8 J5 m( ~; h" D& z2 ^6 P7 l$ O
https://www.imdb.com/title/tt0074246/
! v& x: L% l8 B" k
游客,查看本帖隐藏内容请回复 | 加入VIP可免积分免回复 了解详情 | 还不是会员:点击获取邀请码 Invitation Code

本版积分规则

小黑屋|手机版|Archiver|4K蓝光论坛

GMT+8, 2024-3-5 06:30

Copyright © 2001-2021, Gadaddy Cloud.

快速回复 返回顶部 返回列表