BluRayCD Forum

 找回密码
 立即注册【分享大片】
查看: 14|回复: 0
收起左侧

[剧情悬疑] 杀手的童贞/杀手的圣母/爱在此生终结时 Our Lady of the Assassins 2000 720p BluRaycd x264-USURY 7.02GB

[复制链接]

1万

主题

387

回帖

12万

积分

Post Share

金币
3947 枚
体力
32369 点

卓越贡献勋章VIP蓝光勋章诚信会员勋章

mvods 发表于 2023-4-19 20:09:08 | 显示全部楼层 |阅读模式
9 ?1 |9 V/ j$ U6 r6 V* e( ?- J* F

2 l8 [4 y, k3 R  [/ ?, {/ ]7 A◎译  名 杀手的童贞/杀手的圣母/爱在此生终结时. B7 Z3 {: o+ H( s" ~! `
◎片  名 La virgen de los sicarios / Our Lady of The Assassins5 A& v  _' \% w2 c
◎年  代 2000  B: K. K# D( u- U
◎产  地 西班牙/法国/哥伦比亚2 [0 c4 I1 N! S  z
◎类  别 剧情/同性/犯罪7 W! R3 P" w6 u8 Y8 {- X) o
◎语  言 西班牙语/英语
# e! |" H& `6 r8 |◎上映日期 2000-09-20(法国)
8 i' }0 x+ c6 k+ z: z2 h% r◎IMDb评分  6.8/10 from 4,145 users' C& d. F. [8 I+ ~4 ~) t, U. ]
◎IMDb链接  https://www.imdb.com/title/tt0250809/
& [* G8 k* `- D5 k  i# t! ]- f◎豆瓣评分 7.2/10 from 837 users, k; s' [& o2 P# }3 j% m! L5 m2 X5 r
◎豆瓣链接 https://movie.douban.com/subject/1306453/8 s6 T! T0 Y3 n/ k+ b
◎片  长 1 h 40 min2 @9 l7 C. m) K# F
◎导  演 巴贝特·施罗德 Barbet Schroeder 6 C* `; O4 j' K5 v- T% X5 |# E
◎编  剧 Fernando Vallejo- t6 J0 v4 q, t
◎制  片  人 玛格丽特·梅内格 Margaret Ménégoz
' _# @, ?" R, x9 n& B3 w' Y◎摄  影 Rodrigo Lalinde   Z1 D7 V+ }) I
◎视觉特效 Thomas Duval / C7 _- O! J3 o6 T) Z- V1 r5 L
◎演  员 Anderson Ballesteros ' x1 I3 d3 Y' L' X$ G  O
       Juan David Restrepo
, f/ v& I, V3 [) Z2 N0 Z; Y       玛格丽特·梅内格 Margaret Ménégoz
6 r5 ~; w4 K+ f0 S. s) l       Rodrigo Lalinde 6 S( @, L( ]4 F+ H9 b' O
       Thomas Duval
4 H' {4 o" p! E3 L; Q" b% t3 ]9 e6 j+ c% ?& d+ ^
◎简  介   
) y  _" ^7 k* A! j$ [3 C% j; m
- G$ a% j5 N9 O  一次偶然中,厌世的流亡作家费尔南多(Germán Jaramillo 饰)结识了名叫亚历山大(Anderson Ballesteros 饰)的年轻小伙,后者的青春与活力很快就让费尔南多放弃了轻生的念头。
- S2 c% H' V. f& W1 _0 T0 y8 J0 `9 c
  然而,亚历山大出身于梅德林最贫困的地区,那是哥伦比亚罪犯们的天堂,每天,都有无数的人在那里死去,无人问津。从小在那里长大的亚历山大自然习惯了梅德林的一套生存法则,尽管这让费尔南多十分无法接受,但两人还是跨越了年龄和性别的阻碍,走到了一起。遗憾的是,一次暴力事件中,为了保护费尔南多,亚历克斯身中数枪死亡,伤心的费尔南多第一次决定用暴力解决问题,他要提自己的爱人报仇。4 U# o# M4 P' Y/ n7 D! d( k. {7 s

% s% u0 Z8 v3 M% I3 ]  The writer F. Vallejo returns to Medellin after an absence of over 30 years. He meets 16-year-old Alexis. Alexis is the kind of killer who knocks people off on command. The two are immediately attracted to each other.9 R9 I4 A, E& A  K" }8 }3 V* o

+ q# a# G( m5 S" P◎获奖情况 4 G6 J& k* u9 V9 @' U

9 |6 J4 _# F6 k7 S4 `  D: j* G3 R  第57届威尼斯电影节 (2000)
/ }) f* Q8 N, \) B" ~8 A. }; N3 D  主竞赛单元 金狮奖 (提名) 巴贝特·施罗德6 Q5 R  @) ]4 Y$ D8 C( D0 r& h
  意大利参议院主席金质奖章 巴贝特·施罗德
% U0 M: a7 L% L. \/ v4 ^
Video
' W/ m8 n2 u3 \% g* sID : 1
# N, w) {7 N3 p1 QFormat : AVC
) ~8 b* {' i' o+ N9 g9 q! HFormat/Info : Advanced Video Codec' T4 q( i) J1 T8 Y: {$ q
Format profile : High@L4.1; k; ?( T" M1 W0 Q+ R" S4 F
Format settings : CABAC / 9 Ref Frames
$ f# J: z% _3 G$ ]* \( W5 k$ O7 D0 d% |Format settings, CABAC : Yes
9 j$ J% B9 g' J, \Format settings, Reference frames : 9 frames
/ ?( |5 A8 n) E  uCodec ID : V_MPEG4/ISO/AVC) H' u" r5 n: g% s6 _: a" n
Duration : 1 h 40 min: M. E4 [2 ]7 q, P8 Q4 h2 J: A
Bit rate : 9 319 kb/s- G# C9 t, c9 s8 \$ E' r% O. t8 {
Width : 1 280 pixels, ~) }6 u. V- I8 b
Height : 720 pixels
. \# v8 G5 d/ l! \1 vDisplay aspect ratio : 16:9
* J* D1 x9 \# ^; d3 R" WFrame rate mode : Constant
8 s- m4 e  I/ gFrame rate : 29.970 (30000/1001) FPS/ D. G& f$ I! z# i
Color space : YUV
8 y6 z# n1 h9 d4 S4 uChroma subsampling : 4:2:00 f4 B& D% x* B
Bit depth : 8 bits3 P, b* m8 w1 f0 w' G
Scan type : Progressive/ P' u( m' o8 x; U! B' d: Q) z* T
Bits/(Pixel*Frame) : 0.337
$ ~9 ^8 r) [9 [" K2 N) NStream size : 6.56 GiB (93%)6 K* B. x7 e+ z* s. n" a$ Y, Y
Writing library : x264 core 164 r3106 eaa68fa& Q# N# \0 i) e! F# Z1 _, G
Encoding settings : cabac=1 / ref=9 / deblock=1:-3:-3 / analyse=0x3:0x133 / me=umh / subme=10 / psy=1 / psy_rd=1.00:0.15 / mixed_ref=1 / me_range=24 / chroma_me=1 / trellis=2 / 8x8dct=1 / cqm=0 / deadzone=21,11 / fast_pskip=1 / chroma_qp_offset=-3 / threads=18 / lookahead_threads=3 / sliced_threads=0 / nr=0 / decimate=1 / interlaced=0 / bluray_compat=0 / constrained_intra=0 / bframes=8 / b_pyramid=2 / b_adapt=2 / b_bias=0 / direct=3 / weightb=1 / open_gop=0 / weightp=2 / keyint=250 / keyint_min=25 / scenecut=40 / intra_refresh=0 / rc_lookahead=60 / rc=crf / mbtree=1 / crf=17.0 / qcomp=0.60 / qpmin=0 / qpmax=69 / qpstep=4 / ip_ratio=1.40 / aq=3:0.50
, S2 ]8 {. e4 ]) R1 xLanguage : English
& x% ^4 F) m( D8 ^. k$ G9 H0 y* sDefault : Yes
7 g4 n2 \2 a, U; kForced : No  q' m9 [3 X& k
Color range : Limited5 V) {6 ~2 Y7 u
Matrix coefficients : BT.709
. w0 `& n) i% _7 b% t: h& y
$ `" U/ ~' E/ q: l; ]3 @/ e$ g  fAudio
4 {- e/ S5 h6 ~/ GID : 29 R5 u- Z- }: T
Format : AC-3& K+ ^! K3 ?+ \$ E
Format/Info : Audio Coding 3
+ s; z# {/ K% r) o% j/ V* {' PCommercial name : Dolby Digital
0 s. v) B3 J: qCodec ID : A_AC3
3 F6 k4 }& C  V- C, DDuration : 1 h 40 min
9 w7 r  A: u4 |! z: K3 MBit rate mode : Constant
& \" y2 l% c$ Z1 q3 ^5 sBit rate : 640 kb/s
/ y0 w  F8 P0 n5 d4 aChannel(s) : 6 channels
4 ^8 h# u, n# n) WChannel layout : L R C LFE Ls Rs/ @# T5 @5 O) V3 O+ z1 ~
Sampling rate : 48.0 kHz6 E; n  K2 }: U
Frame rate : 31.250 FPS (1536 SPF)6 V0 f9 }" Y) U. s
Compression mode : Lossy1 H! t" k8 ]' M+ {2 q& m3 i
Stream size : 461 MiB (6%)
/ x" U1 g: ?* M# N5 tLanguage : Spanish( Q+ _5 G( c" C! ~$ }$ X/ S$ P
Service kind : Complete Main
# r0 S+ [7 J. s9 N3 g, m/ q. XDefault : Yes
. u+ r3 R5 g/ s$ qForced : No% d, Q1 U9 Q9 W3 G9 L# P% e

% k9 b7 X# Y  N" ]' bText #1
9 ~! f  R3 z2 i4 `$ }ID : 3
' p, n. ^0 p" _8 a3 V% PFormat : UTF-8
# c# k& q8 j2 j. oCodec ID : S_TEXT/UTF89 \- p8 n- w8 a" A% O8 \
Codec ID/Info : UTF-8 Plain Text* U. |7 X. j! Z" b  S& w3 H
Duration : 1 h 36 min
& D' ]5 {' C0 y* Z4 vBit rate : 40 b/s
5 ?: |5 ?. A5 ~; M2 k  ?' HCount of elements : 1057/ D( v: Q0 L& X1 O5 X
Stream size : 28.8 KiB (0%)
; y  }4 I1 m1 d1 M$ nTitle : English. j/ n9 E5 |4 u$ |  f! j. s
Language : English* x0 e6 ~5 M* d! H/ V0 u' A4 Z
Default : Yes
7 t/ p, C/ W+ iForced : Yes$ w( @& |7 `* A' W' f

7 G. Y% S8 n6 D5 v% `, {Text #21 u4 t. W& [9 b+ L5 ^1 O- y! {
ID : 4% ~  m: N- x: K
Format : UTF-8, h8 h( j+ A/ M% x, e
Codec ID : S_TEXT/UTF8
1 M* v' z; Q) @* UCodec ID/Info : UTF-8 Plain Text6 F/ A5 C/ D. \/ P' t+ Y; J
Duration : 1 h 36 min; M/ k$ r( B7 i4 E0 z4 L
Bit rate : 46 b/s
, a) ^6 I. u1 X% b$ H- TCount of elements : 1057
' N# A( |& _( U# p8 dStream size : 32.7 KiB (0%)
4 l  t! g, Q- {5 u0 _Title : Dutch
+ c7 b2 }, Y& B9 ^4 ~Language : Dutch
' y0 K( `4 k2 e( J* W- b* {Default : No# A; Z& [: V) K( b! l$ \. r6 T2 d
Forced : No
0 g" Q" B8 {! V
! H/ ?) {) |: \' eText #3+ X& d1 [; Z, C1 c* ]
ID : 5
2 T& y! c# r- [9 Y$ x: F8 z& EFormat : UTF-8
- k+ a6 W1 p( R. u: k  [0 XCodec ID : S_TEXT/UTF8
) `. L8 q  U) g5 O1 CCodec ID/Info : UTF-8 Plain Text
* B6 b0 S. K: X; r+ Y/ x* W, KDuration : 1 h 40 min& V' Q  m" |( s# u+ F# \
Bit rate : 42 b/s
# o8 Y% m5 |& vCount of elements : 10663 i+ I$ k" D! Y
Stream size : 31.6 KiB (0%)
! \$ D  I5 h( G* a1 ]( E, FTitle : French: u1 k, V' Q: k- ^. }
Language : French
: L4 w- I& a6 xDefault : No7 v$ @7 W: f* L5 l
Forced : No
) ]# V$ w3 o% n0 u& w, `7 ^) [6 Q# R) v6 B' b) K
Text #4  n/ Y9 f# y  Y' t0 U% w. I
ID : 6
' z4 z# e6 k3 m/ hFormat : PGS
3 u. J6 \4 H9 n# u8 b# g# y5 C2 MMuxing mode : zlib
0 T1 R$ ]. Q/ ?: q0 j4 ^  jCodec ID : S_HDMV/PGS+ k! I  Y: c+ q; K
Codec ID/Info : Picture based subtitle format used on BDs/HD-DVDs
3 ?" R7 R( {' P2 a( |3 I  `; CDuration : 1 h 40 min
- K& @5 t5 Q" m9 r: PBit rate : 9 391 b/s; f$ c) N- W4 n% l+ l% h, x2 ?
Count of elements : 2132+ e. b& B3 ?5 y
Stream size : 6.75 MiB (0%)0 T2 z& _/ D# c1 d
Title : French9 Z$ Q' F8 H' T4 H7 Z8 v% v
Language : French
8 }% G8 W* w+ {* G8 K4 SDefault : No
0 v6 N( e' _! l9 O0 x+ KForced : No
* c% W5 R3 G8 @5 ^
& S9 q% t) g, ^Text #53 e  n1 d7 X: W! x' ^
ID : 7
3 e) |1 _. n+ m$ w6 s) G1 V# ]Format : UTF-8
+ d; s* }% A/ i) o+ B( j" N" oCodec ID : S_TEXT/UTF8
% i/ u' L' J2 b6 ?Codec ID/Info : UTF-8 Plain Text
/ d+ @* |& y# ^1 c% F0 tDuration : 1 h 37 min
: X& `  ^" @/ [! FBit rate : 42 b/s% d  j3 ^5 j7 F" c7 j2 b
Count of elements : 1058
0 n; D' d1 i* w6 \Stream size : 30.2 KiB (0%)
7 `/ Z2 B& L8 t( J. P* ]! e3 eTitle : Italian+ h1 b" u' V% H/ M3 {
Language : Italian
4 A0 V/ x# E1 M1 U- P1 wDefault : No
& Q" n+ s4 F8 J1 a" s; @; t, n  U+ DForced : No
8 O7 Y+ ^: G1 o% s5 b5 c6 Y1 g5 t4 ~1 a, U, M
Text #6
. F0 h# a6 P: D8 \ID : 8
0 p& Y  O' ~: k! b9 fFormat : UTF-88 U* y& e# s2 `  \% B. w
Codec ID : S_TEXT/UTF8
: S# v+ l/ t' W1 p# fCodec ID/Info : UTF-8 Plain Text
% C* \, _+ _( l6 c! K" K" e+ _Duration : 1 h 36 min
" Z9 X7 U  g/ e, f  ~' [; YBit rate : 44 b/s
3 G! m0 u9 e2 a" x/ yCount of elements : 1058
4 Q9 E5 A. W/ ?3 u8 ?8 {: L5 A; }Stream size : 31.4 KiB (0%)! P* w! D3 o6 ?8 m8 f3 C2 v3 a$ M
Title : Portuguese; z$ A: i( R9 ?9 }$ u
Language : Portuguese
8 C) n# q& C" K5 [+ DDefault : No
! G, }& }0 y+ H6 B! SForced : No
7 a0 t. B  L/ J0 W: J* d- T" |+ t# [3 H" S
Menu* P/ F4 v7 W" R* |8 `  b
00:00:00.000 : en:00:00:00.000# r7 S5 Z4 I. n0 z
00:08:06.986 : en:00:08:06.986
  F1 I* p# K% o0 N00:16:10.436 : en:00:16:10.4363 ~$ S# C! I( L5 k
00:26:05.130 : en:00:26:05.1305 W6 \7 p+ E6 H# j
00:35:13.678 : en:00:35:13.678& S2 D! O. p! B7 o3 a: ?8 p" b
00:46:38.529 : en:00:46:38.529) L( k* r6 v* j% X$ G
01:00:18.748 : en:01:00:18.748
/ s/ A9 u: \: a3 S- P! y& R, q/ v6 I! ?) v01:08:11.854 : en:01:08:11.854/ i* W$ i3 U3 l0 o; C
01:13:30.072 : en:01:13:30.0728 m, E5 x$ |( `) E
01:25:47.909 : en:01:25:47.909
1 d* x7 n+ D/ h1 H" e% r01:32:15.730 : en:01:32:15.730
( F: ~8 S5 n5 s  f: a( A01:38:11.285 : en:01:38:11.2852 d& e3 p' X- P# A
1 I$ z& k. d7 f  _2 l, c' j
Our.Lady.of.the.Assassins.2000.720p.BluRayCD.x264-USURY 7.02 GB7 ?  M! w% e4 Z* |& n  @: N* E( a
$ E9 V2 n: ^! {: i! y* y, S
Video...: 1280x720 9319kb/s @ crf17.0 29.970fps# {1 S1 [' m& Z7 c
Audio...: Spanish 640kb/s 6ch AC-3
! b% h* |  Q. L. B0 V4 ISRT Subs: English  Dutch  French  Italian  Portuguese2 m! T0 i, w. h
PGS Subs: French
8 i$ f0 v1 m2 Y) Z. \) t7 \Size....: 7191.09mb (7540413591bytes)
- b& Y: s; q/ rRuntime.: 1h 40mn
4 l4 H" w/ P) f8 M* s- `2 N/ uIMDb....: https://www.imdb.com/title/tt0250809
2 p% f9 Q% f+ N; o2 W$ s. \
7 ?+ S' s5 R  r3 z( S- eSource Bitrate: 31502kb/s
) h& @1 J4 i9 U4 g0 J- a7 `7 C% a% K9 _. ~! d& `' R9 c6 ~
English  Dutch  Italian and Portuguese subs from Mubi  everything else
) m. A. i; o% c- ^; `: H' X- s6 f4 zfrom FR BD.
$ J7 W- }7 E1 @3 q
游客,查看本帖隐藏内容请回复 | 加入VIP可免积分免回复 了解详情 | 还不是会员:点击获取邀请码 Invitation Code

本版积分规则

小黑屋|手机版|Archiver|4K蓝光论坛

GMT+8, 2024-3-5 06:18

Copyright © 2001-2021, Gadaddy Cloud.

快速回复 返回顶部 返回列表