BluRayCD Forum

 找回密码
 立即注册【分享大片】
查看: 419|回复: 13
收起左侧

[蓝光原盘] 碟中谍7:致命清算(上) [REMUX无损版 自带中字] Mission Impossible Dead Reckoning Part One 2023 1080p BluRaycd REMUX AVC TrueHD 7.1 Atmos-Asmo 32.72GB & 38.25GB

[复制链接]

9226

主题

172

回帖

9万

积分

Post Share

金币
3152 枚
体力
28292 点

卓越贡献勋章

黄金嫖客 发表于 2023-10-30 21:56:03 | 显示全部楼层 |阅读模式
Ethan Hunt and his IMF team must track down a dangerous weapon before it falls into the wrong hands.5 @2 G+ i6 G; H- v* X' i! N
9 l7 q; E" }& j2 C. z% @: }$ ^
01.jpg
  b' q/ |0 V+ U6 y& `% \/ v2 O0 s! Y7 y, k9 x
◎译  名 碟中谍7:致命清算(上)/不可能的任务:致命清算 第一章(台)/职业特工队:死亡清算上集(港)/碟中谍7
2 p2 l% Z- G  V" q; t. j: w  @3 m4 {5 n◎片  名 Mission: Impossible – Dead Reckoning Part One / Mission: Impossible 7 / MI7 / Mission: Impossible - Dead Reckoning Part One
& T1 R% o# y: @% ?3 d' T" M◎年  代 2023
# \4 g0 t5 I1 U- n◎产  地 美国7 f& M" Y! Y6 V; V7 _
◎类  别 动作/惊悚/冒险) z, l( |+ `! ^
◎语  言 英语! N& j0 i* p, z9 \7 G& S
◎上映日期 2023-07-12(美国)/2023-07-14(中国大陆)/2023-06-19(罗马首映)
. T& R% d2 l- r" |0 g3 p% B◎IMDb评分  7.8/10 from 173,528 users
  H: Y4 Y9 V) w8 ^9 R4 _7 I0 B4 M+ B◎IMDb链接  https://www.imdb.com/title/tt9603212/) ?! g! O0 j+ D& E! B
◎豆瓣评分 7.7/10 from 240,643 users
& x* E! @4 ~) ~$ g+ a/ e' R, f1 j4 u◎豆瓣链接 https://movie.douban.com/subject/30433455/+ M2 [9 b$ m' g& b9 s/ q( \& u
◎文件格式 x264 + TrueHD
5 S% V8 F# k  [# P4 {9 f) K◎视频尺寸 1920 x 10800 n9 v) L  f# m5 ^1 ^# B' j
◎文件大小 1DVD 32.72 GiB & 38.25 GiB
) {2 d, g% f! h; `( t◎片  长 2 h 43 min! n; o! r. @/ m+ a7 E. _  \
◎导  演 克里斯托弗·麦奎里 Christopher McQuarrie
- J; U4 C+ d3 o! v# E◎编  剧 克里斯托弗·麦奎里 Christopher McQuarrie
/ m) \& M4 `6 N* i       埃里克·延德雷森 Erik Jendresen1 ~0 y, P# v4 z- C3 O
       布鲁斯·盖勒 Bruce Geller8 @2 P7 I  o( H! @  R; [9 K/ H: C
◎音  乐 洛内·巴尔菲 Lorne Balfe9 d. N# o0 ?. Y) p4 {2 s" b
◎演  员 汤姆·克鲁斯 Tom Cruise * i' x& c2 T9 e, V: S
       海莉·阿特维尔 Hayley Atwell
7 d$ l; Q% g) r" F! C& p% ]# _! a       文·瑞姆斯 Ving Rhames & V' z( a, B% t8 Z$ A5 @" Y- e
       西蒙·佩吉 Simon Pegg 8 Q' j' \9 O2 \# B" A4 w7 o
       丽贝卡·弗格森 Rebecca Ferguson " _1 q/ z9 f# w# z% B+ |$ M
       凡妮莎·柯比 Vanessa Kirby : i4 V' |; x2 ?* J. u" z1 v" v
       埃塞·莫拉雷斯 Esai Morales   b  j6 B3 o5 F
       庞·克莱门捷夫 Pom Klementieff $ s4 }! Q5 }$ N3 n5 [$ F
       亨利·科泽尼 Henry Czerny 7 B/ s% g! y3 H6 e
       谢伊·惠格姆 Shea Whigham
6 @; t3 E" M! Z' t7 u5 |$ b       格雷格·泰山·戴维斯 Greg Tarzan Davis
% W$ s3 q1 z) L; P& c       费雷德里克·施密特 Frederick Schmidt
1 T7 X* J" }6 f       玛蕾拉·嘉里加 Mariela Garriga 2 l" o; P: d: a. N' R& E% C. [
       加利·艾尔维斯 Cary Elwes & V  D. c( V1 j; q7 F3 `( x( y/ q
       查尔斯·帕内尔 Charles Parnell ! m3 F. e+ r$ T1 p
       马克·加蒂斯 Mark Gatiss  
5 G( y& s$ I8 N       因迪拉·瓦玛 Indira Varma 9 S! T' n% M. m4 T3 z5 K
       罗伯·德兰尼 Rob Delaney 6 ^  K+ Z1 a& ~1 |+ y; K
       马辛·多洛辛斯基 Marcin Dorocinski 5 \( {' P8 r' i" u
       扎哈利·巴哈罗夫 Zachary Baharov $ D+ o2 n5 Y/ k4 ?5 c- i. ~& G. {+ u
       阿德里安·布薛特 Adrian Bouchet
6 S2 r5 F2 o; g* n; @* ?4 L" G       安东尼奥·巴斯托夫 Antonio Bustorff
0 V' \) |' O3 y2 q/ n2 k       约阿希姆·乔巴努 Ioachim Ciobanu
" R- G! j! W$ |  K       罗伯特·卢凯 Robert Luckay 
+ k! W* _0 A0 f9 w7 ^2 O) s       克里斯托弗·西埃雷夫 Christopher Sciueref * Y, f' s- g& c3 J% w
       安德烈·斯卡杜齐奥 Andrea Scarduzio
$ t5 b' G, {7 f& I6 U4 _7 Q       巴纳比·凯 Barnaby Kay , |0 {" I7 E  B* j
       格洛里亚·奥比安约 Gloria Obianyo 8 P! p3 p! x$ L0 D) u
       多洛提娅·托列娃 Doroteya Toleva $ S+ d1 s( d$ O+ [  Z/ Z  c
       张茵 Yennis Cheung
; V; A$ }% y4 A* v# G4 x       费卡尔·阿托古 Faycal Attougui 9 K, C7 j  n. k' _, _
       加埃塔诺·布鲁诺 Gaetano Bruno $ L) w+ B1 r8 a* n7 N
       西蒙·里佐尼 Simon Rizzoni
, \, ?3 _+ r  S2 G       拉普洛斯·卡伦福佐斯 Lampros Kalfuntzos 4 P' P( S! a' K3 W; k& V2 q
       恬伊·基 Tianyi Kiy  ( w; K% U" z+ N$ w1 }
       阿德南·昆迪 Adnan Kundi 7 b2 h% q  `7 d8 A0 [' g: Y
       蕾切尔·郭 Rachel Kwok
/ c/ l% p+ [, g) s! j( k. H3 U       安迪·M·米利根 Andy M Milligan  
9 j  {2 p5 r+ S- E+ Q       凯莉·里安·桑松 Kelly Rian Sanson
3 d; ^7 T# X( Y% d9 H" [# r7 s/ s" H       阿图尔·夏尔马 Atul Sharma   T% _. |- S, R9 E' L9 F+ Q) n
       尼科·托福利 Nico Toffoli  ! s7 F" X$ o& T9 E! j% G; C
       安东·桑德斯 Anton Saunders
& X& i+ M" p' k" O- z" j       格蕾丝·贾巴里 Grace Jabbari & r3 Y+ _" v4 ^+ u+ |
8 K. R3 I$ }( c- b! w: p
◎简  介 $ U  C4 \/ g  h& f
0 V! g( R) A# d% `
  大洋深处,一艘俄罗斯潜水艇正在执行常规任务,但是突发意外导致潜艇爆炸,全体机组人员无一幸免。而这个谜一样的事故,还隐藏着一个足以颠覆世界的大秘密。此后不久,特工伊森·亨特(汤姆·克鲁斯 Tom Cruise 饰)接到任务,要去寻找两把造型独特的钥匙。钥匙组合在一起后能够 控制不断进化并拥有独立思考能力的人工智能,从而可帮助政治家实现称霸世界的野心。不愿被政治家利用的伊森找到好搭档卢瑟·斯蒂克尔(文·瑞姆斯 Ving Rhames 饰)、班吉·邓(西蒙·佩吉 Simon Pegg 饰)恩和伊尔莎·浮士德(丽贝卡·弗格森 Rebecca Ferguson 饰),开始试图找到并摧毁钥匙,这也意味着他们将与全世界为敌。
2 h3 g3 W  j0 L- u8 W) b+ G4 @
  O+ C2 z2 y# [' z  而在行动过程中,性感女贼格蕾丝(海莉·阿特维尔 Hayley Atwell 饰)无意卷入其中,使这场危险游戏变得愈加扑朔迷离……
# e9 ^+ y7 z* [% n- F+ R1 R' h6 o, _* e6 C
  Ethan Hunt and his IMF team embark on their most dangerous mission yet: To track down a terrifying new weapon that threatens all of humanity before it falls into the wrong hands. With control of the future and the fate of the world at stake, and dark forces from Ethan's past closing in, a deadly race around the globe begins. Confronted by a mysterious, all-powerful enemy, Ethan is forced to consider that nothing can matter more than his mission – not even the lives of those he cares about most.
+ f; g( f( \% u& U, f
Mission.Impossible.Dead.Reckoning.Part.One.2023.1080p.BluRayCD.REMUX.AVC.TrueHD.7.1.Atmos-Asmo 32.72 GB
9 ~* y' C( f1 \% `& a/ @* V5 g2 T- Y
Video
( S0 z* B  n9 I) Q* wID                                       : 1
: r% h! e1 F4 W, c( V& \  JFormat                                   : AVC
& D: e, d% \. E- }Format/Info                              : Advanced Video Codec4 i, Z4 N: X7 ~8 z0 \" y
Format profile                           : High@L4.1- @; z  A2 `0 I! ]7 F, |5 ~
Format settings                          : CABAC / 4 Ref Frames" B! q7 ?; n) U+ K# r3 Y
Format settings, CABAC                   : Yes% k6 K. p' O0 x8 Y$ }. K1 N
Format settings, Reference frames        : 4 frames+ i  c# o. X  L7 U3 L: o
Codec ID                                 : V_MPEG4/ISO/AVC
( z6 z; [& Q0 W+ gDuration                                 : 2 h 43 min' b( H& M$ R5 N( W
Bit rate mode                            : Variable& e% g# w9 J& g2 f/ b' ]
Bit rate                                 : 25.5 Mb/s" D. E# B$ u. Z; K
Maximum bit rate                         : 33.5 Mb/s
4 i1 \8 Y7 M! r$ G& ZWidth                                    : 1 920 pixels
) o% w$ Y- ]7 Y! Y% qHeight                                   : 1 080 pixels4 t2 F4 c' t" X5 G+ d0 k8 L
Display aspect ratio                     : 16:9
5 j5 N. T0 ?( b+ O0 k, |Frame rate mode                          : Constant2 O7 m0 |4 F9 c0 q: n
Frame rate                               : 23.976 (24000/1001) FPS
1 J3 d0 I2 O, @# v$ h- w2 G: ^! oColor space                              : YUV( f3 c4 ~( A9 |, U
Chroma subsampling                       : 4:2:01 Z  Y& p4 G0 ^+ r
Bit depth                                : 8 bits
! @5 V# e$ x, {" z0 uScan type                                : Progressive
" c& P2 v* C3 c  c: c. VBits/(Pixel*Frame)                       : 0.512
# Z$ T3 }: Z( x$ m, X* W+ Y2 {  Z, JStream size                              : 29.1 GiB (89%)
/ c- l$ P7 o+ M$ ^2 e* qLanguage                                 : English
5 e9 y* z5 N3 |6 t4 J" S% m" aDefault                                  : Yes
" e+ _* X. n% V9 _4 jForced                                   : No
# b- q4 f$ Z* ~3 a: r3 d; Z
) X2 n4 X' l+ d' d5 W: e2 {Audio* ^* s: R3 `( s$ U, H0 f
ID                                       : 2) b1 B7 X0 c+ B' \) ]* N
Format                                   : MLP FBA 16-ch
+ C4 }" H# g' q; N  ~* r% yFormat/Info                              : Meridian Lossless Packing FBA with 16-channel presentation4 F# x6 l  @' z% \3 L' C1 ]
Commercial name                          : Dolby TrueHD with Dolby Atmos' B1 [) c5 ?# @4 e; \) N* W% n
Codec ID                                 : A_TRUEHD
8 S5 U$ @- Y* c: p5 vDuration                                 : 2 h 43 min
0 Z- Q" Z6 [6 n2 ~Bit rate mode                            : Variable
1 p- C$ C& L! z+ MBit rate                                 : 3 123 kb/s
( U/ Z9 D/ T, A" R- q" `Maximum bit rate                         : 5 211 kb/s
; v; S1 c7 C0 Q3 G1 PChannel(s)                               : 8 channels
  R0 N; w6 _: ^4 d2 \Channel layout                           : L R C LFE Ls Rs Lb Rb
7 k8 C5 d- R% M( ~4 R3 I* d$ fSampling rate                            : 48.0 kHz
9 O5 r0 W9 ^- Z/ V6 DFrame rate                               : 1 200.000 FPS (40 SPF)
% w6 U( x4 f9 m/ I9 D' U4 a0 sCompression mode                         : Lossless" V8 C- J$ l, Y
Stream size                              : 3.57 GiB (11%)+ C" C5 P% v0 M) w6 o
Language                                 : English
8 r: j! q& Y# @8 O  LDefault                                  : Yes6 Q+ c4 W8 v5 w: n/ f7 n- j
Forced                                   : No0 T4 v# K$ W( A0 ]8 v) G
Number of dynamic objects                : 11
! r) c9 ~- |# J) H8 IBed channel count                        : 1 channel
& s6 Q( K) N: C( Y3 {Bed channel configuration                : LFE
1 I$ S. j- Y2 ]; N/ N2 P
( J# ?+ t. o! tText #19 ~  N5 r3 ?* {$ h4 o( i
ID                                       : 3+ Q: y0 X2 w. j3 K& @! Z; H1 q" l
Format                                   : UTF-8! d$ X5 @, r- G- w' @4 z' m' u
Codec ID                                 : S_TEXT/UTF8
$ E5 G1 o$ H5 E2 I8 _: nCodec ID/Info                            : UTF-8 Plain Text4 A9 E& P, e" {; |" r
Duration                                 : 2 h 42 min! t& S' b) F2 v4 L: P9 X& {
Bit rate                                 : 46 b/s
  f2 m0 @3 P2 R  @: BCount of elements                        : 1843
8 C3 L/ v: d$ H2 ^, xStream size                              : 54.9 KiB (0%)
3 F+ t, k8 Q5 A- |# V% M6 KLanguage                                 : Polish' z  M" }) H$ q& d/ Z, }
Default                                  : No6 W4 F# j7 n1 U" P5 k5 X4 _
Forced                                   : No
' B6 r0 H! K1 w- L; u6 q( b
* s  R2 e  _# C' JText #2
0 s& B- c/ W+ x* ?ID                                       : 4: {: _5 O0 D3 ]( ^
Format                                   : UTF-8. k& O( T; a. ^% W# x+ M# i) y
Codec ID                                 : S_TEXT/UTF8
" |! @4 Y. U' t9 I" WCodec ID/Info                            : UTF-8 Plain Text. d$ i, ?# s( r6 X. ~! W7 H
Duration                                 : 2 h 42 min) X- A  G: D' F/ W. \, U& h7 J
Bit rate                                 : 49 b/s! l- _9 H/ v. p* h1 S7 j
Count of elements                        : 1971) f+ {; j( K# r
Stream size                              : 59.4 KiB (0%)4 Q: |2 _9 D+ b8 \( c( d! ?
Language                                 : English
7 D  l7 p6 }) b% W5 V$ t. BDefault                                  : No' M" P: ]/ d7 Y0 h+ I
Forced                                   : No
Mission.Impossible.Dead.Reckoning.Part.One.2023.1080p.RUMUX.ENG.RUS.ITA.HINDI.And.ESP.LATINO.TrueHD.7.1.DDP5.1.MKV-BEN 38.25 GB
! U7 B9 x3 s; O7 M
$ R. c+ y9 P$ r, w. KVideo9 I8 E% U1 m5 y# p
ID                                       : 18 b; r* [& k) n' V2 n
ID in the original source medium         : 4113 (0x1011)
3 D6 U) l- K" D. i1 P6 wFormat                                   : AVC
. T7 |6 J! L# j' G5 T2 \Format/Info                              : Advanced Video Codec5 h9 Q* y4 o' B. s+ r
Format profile                           : High@L4.1
. C+ |9 D% d+ l9 q6 Z0 dFormat settings                          : CABAC / 4 Ref Frames) R1 U) k$ y, H8 G! V5 a  i
Format settings, CABAC                   : Yes8 F5 z0 F7 m" |3 S$ V
Format settings, Reference frames        : 4 frames% O( J- I( C% a1 Y* i
Format settings, GOP                     : M=3, N=12
1 X& v" m6 _2 A5 jCodec ID                                 : V_MPEG4/ISO/AVC
/ _9 [6 i* B8 y- W3 Y' Q0 s' ?% vDuration                                 : 2 h 43 min& D* \1 o" N* G) B7 \3 l/ b
Bit rate mode                            : Variable
3 \2 \/ @& I3 n9 n$ w- gBit rate                                 : 25.5 Mb/s' l+ R% |4 ^+ _" B0 g
Maximum bit rate                         : 33.5 Mb/s
: b3 k: R  r) oWidth                                    : 1 920 pixels1 D7 b# H4 ]2 K
Height                                   : 1 080 pixels6 F! z. V/ v# E+ \
Display aspect ratio                     : 16:9
: U) P9 u2 H3 |. Y7 J4 XFrame rate mode                          : Constant
. P# y$ P% L2 {Frame rate                               : 23.976 (24000/1001) FPS. ~- n8 F/ ^2 }
Color space                              : YUV1 o# C6 C. f& i9 a' L7 W8 m
Chroma subsampling                       : 4:2:0
" D2 D& p6 V% W# ~Bit depth                                : 8 bits( K; g  S# n, Z" ?& v
Scan type                                : Progressive
% N" ]1 q+ {" w1 e' \  JBits/(Pixel*Frame)                       : 0.5128 D+ j( T5 [' e
Time code of first frame                 : 00:59:59:0000000000. t2 o$ _$ e: B& [! S5 I6 M, D
Stream size                              : 29.1 GiB (76%)8 q9 j" P  e, {/ p9 q
Title                                    : BEN.THE.MEN; |5 t% X8 W! T4 N
Language                                 : English
  W2 U* @' j( p. U) {  `Default                                  : No2 C, j. s7 C  i2 E" }/ `
Forced                                   : No
1 p4 T1 g7 a# c" A! VOriginal source medium                   : Blu-ray
4 q# [" F. i0 |/ K8 \( a$ n# F- W2 L/ |; z4 M
Audio #1
/ c6 X( u6 B1 b- G7 ?ID                                       : 2
1 D! d3 p1 [- Q- LID in the original source medium         : 4352 (0x1100)0 i1 s3 @7 c, b
Format                                   : MLP FBA 16-ch
6 e  v, d; R- o; @& B: p! c. DFormat/Info                              : Meridian Lossless Packing FBA with 16-channel presentation
; ^2 P7 q: T( N: V7 Y. U$ `1 ICommercial name                          : Dolby TrueHD with Dolby Atmos) ]0 ?% Y+ S/ w. W2 U9 X  x
Codec ID                                 : A_TRUEHD
$ j: u. i5 J. i" k. [0 JDuration                                 : 2 h 43 min: K# f! h6 T7 H4 X
Bit rate mode                            : Variable( L) N* J. D1 E% Z( G6 B* c
Bit rate                                 : 3 123 kb/s
0 J$ ?1 K0 m1 W; d' V) T3 ^Maximum bit rate                         : 5 211 kb/s
& r" ?* Y4 i# C9 G1 j' ~Channel(s)                               : 8 channels
4 u' @* d# Z0 |& \( EChannel layout                           : L R C LFE Ls Rs Lb Rb
& Q4 w+ }9 q! PSampling rate                            : 48.0 kHz
6 d7 m8 T: X( V  D! Q8 K) y- z# iFrame rate                               : 1 200.000 FPS (40 SPF)0 }; w1 Y# {# g- W  v
Bit depth                                : 24 bits
' S( S' Y* V- O0 P* gCompression mode                         : Lossless
6 @7 u2 v' b/ MStream size                              : 3.57 GiB (9%)% n# Z9 n: C' e2 q8 ]( q! e
Title                                    : BTM TrueHD.7.1' r1 f6 K' t& c/ O
Language                                 : English) t1 {7 [5 P$ M, |
Default                                  : No
/ u) M6 |2 X8 w1 Y- T; {Forced                                   : No
9 |: J* u/ u# M' c9 @. E1 y8 B6 OOriginal source medium                   : Blu-ray
  \/ W( g: P& n' S9 R( S" t+ lNumber of dynamic objects                : 11# N( M$ p- j( A7 g
Bed channel count                        : 1 channel
. j# _" U) K( C; B5 E. wBed channel configuration                : LFE6 t: E* s3 F; m+ ^# `+ b; V! Y

$ E8 e1 ~6 B" p7 Z( EAudio #2! ?, g' Y/ Z, R- r6 M5 P: ]+ U
ID                                       : 3' h+ e  e( C& O8 J! z
Format                                   : E-AC-3
6 s: Q4 X7 I" i0 t" x" A( S; j/ r6 aFormat/Info                              : Enhanced AC-32 s% W1 S; I  q* {+ A* M" r
Commercial name                          : Dolby Digital Plus8 f4 e0 }$ X$ H
Codec ID                                 : A_EAC35 z+ b& J  g% [9 }
Duration                                 : 2 h 43 min
0 s) `- s( c  K2 W5 _) ^Bit rate mode                            : Constant3 _$ [$ g, B0 j* m3 l1 H
Bit rate                                 : 960 kb/s8 M; f9 F& d) W( @. o
Channel(s)                               : 6 channels
$ V6 h$ C: k5 i9 p. J6 a# o5 B) C- zChannel layout                           : L R C LFE Ls Rs9 B) O& C5 {4 H
Sampling rate                            : 48.0 kHz
2 H" E2 d4 E, R8 vFrame rate                               : 31.250 FPS (1536 SPF)" [: J, m: @$ l* m$ [5 y( z
Compression mode                         : Lossy
5 X# v$ a+ ]( s" bStream size                              : 1.10 GiB (3%)
- e2 A; c* ~2 y3 X; JTitle                                    : BTM DDP5.1( `9 ^8 A& I) p" W  s9 x- |; r
Language                                 : English& K' F0 J$ v: z! y! I
Service kind                             : Complete Main
/ I6 [! \$ T$ [. l  vDefault                                  : Yes
  s" Q& B5 {, B/ jForced                                   : No/ l( c* H& V7 H7 M* o. f
+ O7 ^# X5 i2 \; p( `
Audio #3
$ B1 J- N: s) x! Q1 z; D8 p5 ZID                                       : 43 h# E* j: G5 T  f  J
Format                                   : E-AC-3  |# x) A' T3 A: J& L* U
Format/Info                              : Enhanced AC-3
. F) X/ X! s& jCommercial name                          : Dolby Digital Plus
7 Q6 Z8 U; n. ~# H: d# XCodec ID                                 : A_EAC3, |/ H: `, [* y& q$ S' Q
Duration                                 : 2 h 43 min
3 K$ p/ _+ u; G; N* y) S4 ^# jBit rate mode                            : Constant& ]4 K  e% g0 }: V7 b3 n
Bit rate                                 : 960 kb/s8 P- |) l' S  s
Channel(s)                               : 6 channels
# j1 E- A+ m# m2 h' Q8 i- G$ gChannel layout                           : L R C LFE Ls Rs! Q5 q# B3 ]' h1 ?1 g
Sampling rate                            : 48.0 kHz9 {. s( Z" m( x% _) R
Frame rate                               : 31.250 FPS (1536 SPF)
' F. m2 ?. {/ T. {* gCompression mode                         : Lossy4 I6 C) v6 o  g- ~
Stream size                              : 1.10 GiB (3%)
9 H& n" P1 }+ Z  @7 dTitle                                    : BTM DDP5.1( \) N2 A! `$ J; I. `8 G
Language                                 : Spanish/ y. y1 M8 S) Y6 k, }4 x
Service kind                             : Complete Main
' b$ j# I0 t4 C8 c3 |Default                                  : Yes
: _! d" e  ^# H2 gForced                                   : No
0 k% y6 s' t; R
1 T" |2 i8 _# r' [9 w: J  o/ ^Audio #4
1 Y6 u; K; L2 KID                                       : 5
' \& B  v# k; k' G0 @! J$ u/ AFormat                                   : E-AC-39 g, Y/ p- ]2 r0 F$ f, ~. u
Format/Info                              : Enhanced AC-3
- Y( q- T$ s1 YCommercial name                          : Dolby Digital Plus
  D+ b6 ]0 v5 Z2 ^" U% W1 I* ?Codec ID                                 : A_EAC3
9 c% ^4 G, g8 s, L# X6 K! nDuration                                 : 2 h 46 min7 R+ W/ J) P6 j1 R, |
Bit rate mode                            : Constant4 G4 I; m  z: y
Bit rate                                 : 960 kb/s
! T7 y# Z! e: o/ o, mChannel(s)                               : 6 channels
; {7 W% J6 ?- z: L8 j# MChannel layout                           : L R C LFE Ls Rs3 K5 L7 D# ?/ p- L. E3 e7 \5 F
Sampling rate                            : 48.0 kHz
8 G3 Q5 l% p* W+ u' K) N& WFrame rate                               : 31.250 FPS (1536 SPF)+ o8 n* K+ m7 j# u" f5 j
Compression mode                         : Lossy: `9 e0 I  X" I# w" k
Stream size                              : 1.12 GiB (3%)  I$ h) Y- i8 g: I# z) F+ T. j6 r+ O
Title                                    : BTM DDP5.1
0 A6 v/ ]) i8 DLanguage                                 : Hindi, |  k/ W) w( b/ x
Service kind                             : Complete Main
- p: ?" X/ n  d+ E% [Default                                  : Yes
, `( ^* q; S8 u" rForced                                   : No
9 P' C" [% i3 b2 [! B4 I7 Z3 [) C0 |+ @+ g3 B
Audio #5! s7 F6 ~* n* Y  A+ Q1 R
ID                                       : 6
0 x% x1 e3 _8 R! j! d5 aFormat                                   : E-AC-3
7 Q0 u$ k3 u& Z' t1 }  H  T- J* d" OFormat/Info                              : Enhanced AC-30 d6 M4 P. G; H8 K9 g, Y. c
Commercial name                          : Dolby Digital Plus
6 u. s8 W* y5 O5 W9 j* u( [Codec ID                                 : A_EAC3! T. i$ ?' f' j; l/ x/ H$ [
Duration                                 : 2 h 46 min
0 |4 G2 \5 o" b& }; ?- n7 r1 oBit rate mode                            : Constant
) z+ @3 t$ o9 V1 h, T! tBit rate                                 : 960 kb/s. M% I6 E8 A+ P: u) e7 u: w
Channel(s)                               : 6 channels0 Y5 d( d& P  I! g! B" W0 X
Channel layout                           : L R C LFE Ls Rs3 l5 W7 v9 U( J' o+ ~% I
Sampling rate                            : 48.0 kHz
6 T! C5 e7 m0 E/ h  RFrame rate                               : 31.250 FPS (1536 SPF)
+ c1 W3 n# }8 G5 o* J7 v+ a0 F3 c' NCompression mode                         : Lossy! ]- [* L+ B9 H/ A* d5 K* F1 F
Stream size                              : 1.12 GiB (3%)4 H+ j. ?' c- ~
Title                                    : BTM DDP5.1
; c6 r! z* E. Y. n9 rLanguage                                 : Italian
$ R+ [- m6 G) j/ C: PService kind                             : Complete Main
1 d9 R5 `9 N! Q' O: R7 u+ \, nDefault                                  : Yes
& H) h) W. {+ ]5 p& NForced                                   : No
0 x) J9 M$ i' h' ]( {
5 Q: L: |! Q: Z4 b, i+ h- R( S& YAudio #6
. @6 F0 H) }2 @; mID                                       : 7$ i. f' A0 @  p
Format                                   : E-AC-38 \; I# p1 z  h# X" M
Format/Info                              : Enhanced AC-3, J8 ~& ]: n  G* B, J
Commercial name                          : Dolby Digital Plus
9 {% p! c6 R( w% b, p# pCodec ID                                 : A_EAC3; D0 W9 x7 ]/ Y2 K9 [/ I" [
Duration                                 : 2 h 43 min3 m2 R. m" J+ o" I
Bit rate mode                            : Constant! @8 O" J  _7 n  g+ y
Bit rate                                 : 960 kb/s% N- |4 @$ G* y* A! C
Channel(s)                               : 6 channels
1 u4 {$ G: I3 hChannel layout                           : L R C LFE Ls Rs; ~) A. i4 C! Y9 C; V
Sampling rate                            : 48.0 kHz
! v6 l, @8 W% ]Frame rate                               : 31.250 FPS (1536 SPF)
8 k8 S7 v6 Q, I/ `7 E* KCompression mode                         : Lossy1 _# b' Z: o" d6 f. @% n1 b
Stream size                              : 1.10 GiB (3%)
8 a8 ~$ \4 H# [& f6 M" `9 k5 UTitle                                    : BTM DDP5.1
7 [1 x* t4 w8 b# x$ {Language                                 : Russian
7 }! i8 {. H1 K& g/ y7 t: nService kind                             : Complete Main
1 r, h" p  p5 Z  a1 G# y  sDefault                                  : Yes
& O0 I. c) w/ f& d" @! tForced                                   : No: g5 V# F* O, N8 e4 Q' R% m

4 {) G0 [8 W( r# fEnglish Subs3 `8 ]& _. v8 d" Y" {% f* t" [9 k
Arabic Subs
/ V! R# p6 R$ yChinese Subs
# F8 e0 C& ]/ j" ^- Q- z% k$ iCzech Subs1 Y( X2 i$ i! N9 ?6 k& [! F0 v
Danish Subs  a1 E4 b8 N  \) @
Duthc Subs
& L" N; [3 g$ t: |, vFrench Subs
3 p) t* B4 R% z7 x# ^; ]$ OIndonesian Subs) M' h( I9 R$ U4 \
Japanese Subs  t; Q6 `% Y& r1 o2 B& J' t* @
Macedonian Subs8 k1 b& m6 M$ ^1 }% u* c  m4 @+ p
Norwegain Subs
- m' a  p9 Y8 T, d( k! b/ gPersian Subs1 p5 G" }, Q$ q2 m( J) a* }
Polish Subs3 g8 J0 N$ x1 m+ W2 L" ~/ n6 ?/ s
Portuguese Subs" ~% G8 u; e: h  H. n
Romanisn Subs. c2 H" D% _6 C( P! X" k" z  V
Slovak Subs6 [1 I2 u0 {2 f9 u" s
Turkish Subs

3 E( @5 H0 X/ u1 a& a
& \( a  e. Q" s2 n% q3 r精彩片段预览:https://www.imdb.com/video/vi1599390745/?ref_=tt_vi_i_2.mkv* U9 V/ N# m% N9 m8 N& F* R( e1 S
游客,查看本帖隐藏内容请回复 | 加入VIP可免积分免回复 了解详情 | 还不是会员:点击获取邀请码 Invitation Code

31

主题

4288

回帖

2万

积分

Sponsor

金币
3217 枚
体力
10338 点
QQ
shiji1973 发表于 2023-11-20 08:56:15 | 显示全部楼层
看了LZ的帖子,我只想说一句很好很强大!""; E# {# ~/ t; H- t# i7 p3 i
Blu-ray Film Forum is now my home!
% `+ r# \" K5 y2 H+ e' t  l

4

主题

442

回帖

4213

积分

Sponsor

金币
24 枚
体力
3339 点
ALLisxxx 发表于 2023-10-30 22:30:18 | 显示全部楼层
啥也不说了,楼主就是给力!
# h: w, G: ?3 QAfter reading the posts have nothing to do I Amoy posts!
$ r8 o' O! Q, j% {8 v7 H$ n, g
蓝光论坛里 ...

0

主题

199

回帖

1621

积分

Sponsor

金币
9 枚
体力
1219 点
renz 发表于 2023-10-31 20:11:45 | 显示全部楼层
! [4 m6 q4 C- P( H: T% D: @
沙发是抢的而不是占的!
& d+ h% Q1 u1 p& l. Z3 bAfter reading the posts have nothing to do I Amoy posts!
' V" F  v4 e: D

0

主题

199

回帖

1621

积分

Sponsor

金币
9 枚
体力
1219 点
renz 发表于 2023-10-31 20:10:31 | 显示全部楼层
沙发是抢的而不是占的!1 q. P( Y# m- r; x; k5 I4 l4 W2 N
After reading the posts have nothing to do I Amoy posts!  C6 O- _$ \5 W. O$ W# i7 h

0

主题

199

回帖

1621

积分

Sponsor

金币
9 枚
体力
1219 点
renz 发表于 2023-10-31 20:11:12 | 显示全部楼层
这么好的帖子不回对不起自己!$ e; ^1 d: x  v% E* g% c
Your resources, well, I am very satisfied!
. L# _) \# ~$ p

0

主题

108

回帖

1384

积分

Sponsor

金币
955 枚
体力
197 点
zjm587119 发表于 2023-11-1 20:50:15 | 显示全部楼层
二战看一下,肯定好看

0

主题

184

回帖

2318

积分

Sponsor

金币
358 枚
体力
1511 点
marttn 发表于 2023-11-6 18:45:59 | 显示全部楼层
谢谢大神无私分享!!!!

0

主题

66

回帖

1941

积分

Sponsor

金币
431 枚
体力
1053 点
etime4212280 发表于 2023-11-7 00:18:07 | 显示全部楼层
谢谢分享1080P高清无损版,辛苦了!

0

主题

66

回帖

389

积分

Sponsor

金币
32 枚
体力
217 点
lzslyb0609 发表于 2023-11-13 20:32:14 | 显示全部楼层
下载来看看
. _: \- M* w9 H/ B7 E! ?4 Z9 ~1 |

本版积分规则

小黑屋|手机版|Archiver|4K蓝光论坛

GMT+8, 2024-7-14 06:01

Copyright © 2001-2021, Gadaddy Cloud.

快速回复 返回顶部 返回列表