BluRayCD Forum

 找回密码
 立即注册【分享大片】
查看: 74|回复: 7
收起左侧

[蓝光原盘] 57秒 [REMUX无损版] 57 Seconds 2023 1080p BluRaycd REMUX AVC DTS-HD MA 5.1-Asmo 23.11GB & 23.14GB

[复制链接]

8813

主题

172

回帖

9万

积分

Post Share

金币
2471 枚
体力
27163 点

卓越贡献勋章

黄金嫖客 发表于 2023-11-4 10:16:59 | 显示全部楼层 |阅读模式
01.jpg
8 p9 Z9 _( V- U7 F4 E( t9 w' E! w2 g( Z; d9 Q  E8 ^1 {6 M8 o, |
◎译  名 57秒
1 {, I: f3 Q& S6 T7 S8 Z◎片  名 57 Seconds
; l7 R( A: I+ p  |. d: _6 q◎年  代 2023! B& d3 [4 `% d+ E; h0 c
◎产  地 美国! n- R% b" u* t2 ]( I
◎类  别 科幻/惊悚* E: P/ z, ~/ X( B
◎语  言 英语
) ?8 @$ j, J  o; P◎上映日期 2023-09-29(美国)  Y3 O" J" T/ L3 ^/ \: b
◎IMDb评分  5.3/10 from 3,208 users
) S  D; R5 ?+ Q, ^( m, g# v; ^6 v◎IMDb链接  https://www.imdb.com/title/tt18083578/
; B% \' n3 f) k" u& q+ `◎豆瓣评分 4.8/10 from 228 users
, m% ]( r: O* p4 i◎豆瓣链接 https://movie.douban.com/subject/35769152// p. Z  r" O" H: e; }. w
◎文件格式 x264 + DTS
# |6 e* w  W8 h6 g2 `◎视频尺寸 1920 x 1080+ k1 D) l. a# [1 s/ Q
◎文件大小 1DVD 23.11 GiB & 23.14 GiB
. y/ d  h9 ~! l  c3 R2 a& [! W% M+ D◎片  长 1 h 39 min! n; j5 C8 M# X, _- k
◎导  演 拉斯提·坎蒂耶夫 Rusty Cundieff
* Q$ X5 a& o" j  O7 P, {. s4 S◎编  剧 E.C. Tubb % b( t8 u' v1 {) J! S' l
◎演  员 摩根·弗里曼 Morgan Freeman
) {" k9 l. g; {/ a       乔什·哈切森 Josh Hutcherson- E. Z/ y$ Y, }3 X, S
       格雷格·格曼 Greg Germann8 z' Z; P2 E6 f& V+ c4 V
       拉维·西蒙尼 Lovie Simone0 }2 l1 y3 D; R$ \9 r8 D7 L8 q" S1 O
       贝文·布茹 Bevin Bru
# }- W2 [  B: Q- u       格里夫·弗斯特 Griff Furst
0 x6 C% G! x& _/ N9 n/ P, B       萨米·罗蒂比 Sammi Rotibi; V1 N& T( K/ g. ^8 M
       艾伦·杰伊·罗姆 Aaron Jay Rome- P! i! A) \, G/ G8 H0 U+ o% _
       马库斯·布朗 Marcus Brown4 S8 E' K- t5 C% ?
       大卫·卡拉维 David Kallaway  w$ S4 Y: Z+ o
       卢修斯·巴斯顿 Lucius Baston/ F# `& c4 T( w% b. s$ x
       肯尼思·肯特·布赖恩 Kenneth Kynt Bryan# t& e/ a- V- ~
       马库斯·里尔·布朗 Marcus Lyle Brown+ {) R. D2 m4 d1 d6 R, u2 p
       玛丽·德鲁·阿伦斯 Mary Drew Ahrens
4 x3 K% w: Z; g       托马斯·P·维塔勒 Thomas P. Vitale, H- ]$ ]' ~* U( J
6 p" c" V, P5 }9 ^- K8 {) M# Q
◎简  介 ) K/ u* @# D. Q2 i
+ N" h- n+ m5 H# X: A
  当一位科技博主接受了一位科技大师的采访并停止了对他的攻击时,他发现了一枚神秘的戒指,可以将他带回到 57 秒的过去。; B, M. y3 N5 {1 q2 E  {; U1 u

4 h$ t, [- F& k  When a tech blogger lands an interview with a tech guru and stops an attack on him, he finds a mysterious ring that takes him back 57 seconds into the past.( s& ~% X# }, o7 L
57.Seconds.2023.1080p.BluRayCD.REMUX.AVC.DTS-HD.MA.5.1-Asmo 23.11 GB* d& b1 M( v1 e" A* H2 _6 q( f

3 G7 d; l7 F" ^' Z3 I+ o1 \) eVideo! O, U$ [5 N8 \9 v# g! j0 y6 Q& @
ID                                       : 15 o, s1 c) j* ?5 ?( p1 n1 J
Format                                   : AVC9 n" A- Y' c7 ?7 \
Format/Info                              : Advanced Video Codec
( [8 [  k& L  ~' BFormat profile                           : High@L4.1
( v+ S2 J) R) [- HFormat settings                          : CABAC / 4 Ref Frames2 y5 E6 Q# F7 B7 e1 P0 d6 _% K
Format settings, CABAC                   : Yes
+ c7 `( G5 w" e4 L, M1 G9 zFormat settings, Reference frames        : 4 frames
4 t; u' G( Y% J) c% B$ c& f8 l  D, _Codec ID                                 : V_MPEG4/ISO/AVC
6 M/ P" t5 U2 W+ yDuration                                 : 1 h 39 min, d1 J  d: X0 ]4 z! m
Bit rate mode                            : Variable
% w7 Z0 W, u* d7 X! OBit rate                                 : 29.2 Mb/s
4 |0 H, y" O9 O: n- RNominal bit rate                         : 32.0 Mb/s
# E: m7 a. ?8 dMaximum bit rate                         : 32.0 Mb/s
# R! E' ~/ f9 r  w( {% [6 R$ tWidth                                    : 1 920 pixels( i* j( j7 H0 n) z& i/ S% M9 d
Height                                   : 1 080 pixels
7 E; D$ U) [2 A+ ?& v" V- {Display aspect ratio                     : 16:9
* i$ O, y, d" |, A- Q+ vFrame rate mode                          : Constant  f! Y" P) H9 B6 B* h+ a. X
Frame rate                               : 23.976 (24000/1001) FPS6 I+ R4 G( C" j5 H8 Q0 x
Color space                              : YUV
& x& B0 W. p3 jChroma subsampling                       : 4:2:0
) }/ S' J4 {) ^% f) A! gBit depth                                : 8 bits
$ k; {9 _; C6 V1 @2 `  G9 bScan type                                : Progressive
! n3 K: a: g. |$ j4 Y+ r3 DBits/(Pixel*Frame)                       : 0.588
* K  Q0 s: B5 b3 s; QStream size                              : 20.3 GiB (88%)
. [) X% h! z7 c3 EWriting library                          : x264 core 164 r3107 a8b68eb
0 l6 ^* O# ]0 L7 vEncoding settings                        : cabac=1 / ref=4 / deblock=1:-1:-1 / analyse=0x3:0x113 / me=umh / subme=9 / psy=1 / psy_rd=1.00:0.15 / mixed_ref=1 / me_range=16 / chroma_me=1 / trellis=2 / 8x8dct=1 / cqm=1 / deadzone=21,11 / fast_pskip=1 / chroma_qp_offset=-3 / threads=24 / lookahead_threads=2 / sliced_threads=0 / slices=4 / nr=0 / decimate=1 / interlaced=0 / bluray_compat=1 / constrained_intra=0 / bframes=2 / b_pyramid=0 / b_adapt=2 / b_bias=0 / direct=3 / weightb=1 / open_gop=1 / weightp=1 / keyint=24 / keyint_min=1 / scenecut=40 / intra_refresh=0 / rc_lookahead=24 / rc=2pass / mbtree=1 / bitrate=32000 / ratetol=1.0 / qcomp=0.60 / qpmin=4 / qpmax=69 / qpstep=4 / cplxblur=20.0 / qblur=0.5 / vbv_maxrate=32000 / vbv_bufsize=30000 / nal_hrd=vbr / filler=0 / ip_ratio=1.40 / aq=1:1.006 Q3 [% t& E7 T; w5 q) T
Language                                 : English/ u7 G3 c( X. J* ~; V
Default                                  : Yes
$ B! f7 h( W$ J" dForced                                   : No
3 P& F: l$ V# SColor range                              : Limited7 e# p. A& @; H
Color primaries                          : BT.7091 O1 Z! m3 H7 y' k; ^: G
Transfer characteristics                 : BT.709
9 a) h: e6 N# z+ X: @% bMatrix coefficients                      : BT.709
6 H! u& c* j6 {* {' r3 L) \/ m/ z# B$ K; f5 ~
Audio) Q6 E4 m; V( l& v; i
ID                                       : 2# F7 P( m6 t7 U; F. I3 M; x
Format                                   : DTS XLL
4 y3 M" r8 M2 c, OFormat/Info                              : Digital Theater Systems! ?% a, t/ @; G" ~% l
Commercial name                          : DTS-HD Master Audio
) K1 @; {6 v- I5 i4 JCodec ID                                 : A_DTS
5 Q7 h! X: z6 [5 a0 a: ADuration                                 : 1 h 39 min9 X0 [" s. _9 S1 T
Bit rate mode                            : Variable8 F8 T' @, {- e1 k
Bit rate                                 : 4 035 kb/s. o0 }9 J) l  C8 P" ]) e
Channel(s)                               : 6 channels" [( [, y8 H' }! D
Channel layout                           : C L R Ls Rs LFE
; H1 S8 A9 ?3 H' i3 J; FSampling rate                            : 48.0 kHz
( i" g* G! X0 i4 G- |% D8 M6 H9 c! EFrame rate                               : 93.750 FPS (512 SPF)6 n5 H* F, X+ v3 p) m8 n4 A: N6 v
Bit depth                                : 24 bits
1 U$ l" X2 e+ w; X9 C, D5 n2 dCompression mode                         : Lossless
. L' L( `2 ?! A7 M0 H: HStream size                              : 2.80 GiB (12%)5 o9 \+ \) G# {0 F3 g! A: r
Language                                 : English: X$ B9 ]" p* |# a* i( w4 B
Default                                  : No
& s: k/ b( O6 a) `  R2 d5 aForced                                   : No
/ i/ ]" }; @( J; r7 s. i: L5 u+ ?2 L4 ^
Text #1
8 Y' ]! F5 v, {( {! MID                                       : 3: K0 f+ c2 D5 |6 ^  w2 u+ a
Format                                   : UTF-8
2 F. m: H( N: q! vCodec ID                                 : S_TEXT/UTF8$ ]9 c! C& Z  Z% n3 s  u4 C
Codec ID/Info                            : UTF-8 Plain Text  H/ a. j. \/ y# Z
Duration                                 : 1 h 29 min  D' U6 o6 g2 N  J. G! C. B
Bit rate                                 : 84 b/s+ S  Y) o" ^2 X
Count of elements                        : 1663
/ H  w5 E$ ?: @/ V6 o. tStream size                              : 55.4 KiB (0%)
7 ]: Q. |7 U6 ]6 E# _Title                                    : AI translator
  g6 v- q. C  y" P/ y# LLanguage                                 : Polish+ K" M( V7 @0 |/ s
Default                                  : No9 w- V( t* E! y! ?0 `# k
Forced                                   : No
- p+ [! j. Z: I# X) R+ Q
- u: D. v! I3 O! @# GText #2
$ B+ b9 f- Q8 f% s; U) BID                                       : 4
+ _% f+ F) }8 u& ~5 ^/ T  ?Format                                   : UTF-8
& J4 I$ F+ f: ]( OCodec ID                                 : S_TEXT/UTF8
4 V4 }' v9 V1 s6 p4 G9 i# E, ACodec ID/Info                            : UTF-8 Plain Text# j; `  ~. v  E6 M% W" P: @
Duration                                 : 1 h 29 min
4 M" v2 w; H. z  fBit rate                                 : 78 b/s8 T: u5 B% F3 d/ H' W, f6 p" {  ~
Count of elements                        : 16672 B( H4 S' ]$ d. t" `3 ?0 K' j
Stream size                              : 51.2 KiB (0%)1 \$ Q3 s8 J$ o4 ^- B
Language                                 : English1 k" t# g+ \, i7 @) s
Default                                  : No
. F$ W( v5 ~( D& C: T# EForced                                   : No
57.Seconds.2023.1080p.BluRaycd.REMUX.AVC.DTS-HD.MA.5.1-TRiToN 23.14 GB6 n; H, M. U4 K. l
& o  s8 R- p" E! [
Video& J) X7 [4 k3 J# T. J, c5 a
ID                                       : 1. {9 K2 ]- W! ?, \% x. _
Format                                   : AVC
( v& ^! B0 P5 dFormat/Info                              : Advanced Video Codec8 Y- n( a8 u" j: z$ y0 }
Format profile                           : High@L4.1" S1 n: I& `6 W- A, o5 d0 n; y
Format settings                          : CABAC / 4 Ref Frames/ D# D" p; G- N0 K- X2 n6 N
Format settings, CABAC                   : Yes
! T, x4 A$ m7 @0 {! ?, kFormat settings, Reference frames        : 4 frames; L6 Z6 K9 n/ Y
Codec ID                                 : V_MPEG4/ISO/AVC
+ Q. m+ ]5 A5 i4 `Duration                                 : 1 h 39 min
- O  V' h# E( }! @# v2 P" U+ H9 PBit rate mode                            : Variable: h8 ^5 o" o. A4 l
Bit rate                                 : 29.2 Mb/s5 Y- c0 Y, R: F/ `' ^7 x3 ]
Nominal bit rate                         : 32.0 Mb/s( b: T/ L6 t5 z1 U4 s
Maximum bit rate                         : 32.0 Mb/s; C0 P4 U) m/ ]
Width                                    : 1 920 pixels
. b+ }! r) P6 ^3 }! IHeight                                   : 1 080 pixels7 S$ i: ?" |; S
Display aspect ratio                     : 16:9+ r: X$ s& m: }# M5 W
Frame rate mode                          : Constant
  I9 V1 A; W8 m5 X. T* T7 ~Frame rate                               : 23.976 (24000/1001) FPS
' O* Y+ t# w: x& AColor space                              : YUV; P6 O/ B+ Y0 c
Chroma subsampling                       : 4:2:0. u. D  |$ [& c- e$ D( |" u$ E6 d( P
Bit depth                                : 8 bits
. L) E5 g- j5 e3 d: I* w, X" A9 ZScan type                                : Progressive
  O" \' t2 e5 j1 Q; t' s. n9 iBits/(Pixel*Frame)                       : 0.588
' c( U5 ]+ X# [1 K  F3 A4 s% @Stream size                              : 20.3 GiB (88%)# k! V6 ]6 W( x% o- F/ o" l# E
Title                                    : MPEG-4 AVC Video / 29230 kbps / 1080p / 23.976 fps / 16:9 / High Profile 4.1$ M( {: I6 u- J3 \: C+ b* v
Writing library                          : x264 core 164 r3107 a8b68eb1 n# Z  d( j3 |& h$ @& t
Encoding settings                        : cabac=1 / ref=4 / deblock=1:-1:-1 / analyse=0x3:0x113 / me=umh / subme=9 / psy=1 / psy_rd=1.00:0.15 / mixed_ref=1 / me_range=16 / chroma_me=1 / trellis=2 / 8x8dct=1 / cqm=1 / deadzone=21,11 / fast_pskip=1 / chroma_qp_offset=-3 / threads=24 / lookahead_threads=2 / sliced_threads=0 / slices=4 / nr=0 / decimate=1 / interlaced=0 / bluray_compat=1 / constrained_intra=0 / bframes=2 / b_pyramid=0 / b_adapt=2 / b_bias=0 / direct=3 / weightb=1 / open_gop=1 / weightp=1 / keyint=24 / keyint_min=1 / scenecut=40 / intra_refresh=0 / rc_lookahead=24 / rc=2pass / mbtree=1 / bitrate=32000 / ratetol=1.0 / qcomp=0.60 / qpmin=4 / qpmax=69 / qpstep=4 / cplxblur=20.0 / qblur=0.5 / vbv_maxrate=32000 / vbv_bufsize=30000 / nal_hrd=vbr / filler=0 / ip_ratio=1.40 / aq=1:1.00
. _4 F7 j' T* V, ?3 pLanguage                                 : zxx/ l- k) x+ `/ O4 }( c# D: V
Default                                  : Yes
. A' ?- u  r% E( _6 _" S1 P, kForced                                   : No
0 N# O+ B& N2 YColor range                              : Limited4 A! l# `1 L/ K: o& a" |& d
Color primaries                          : BT.7097 m1 |* c" k, R3 R; M" G) k
Transfer characteristics                 : BT.709
8 t4 ^/ [* @' x/ V: i& \Matrix coefficients                      : BT.709/ r& R* l3 [7 o8 S7 e- d5 ^" V7 t
% }1 F3 y( m6 _0 v- Y
Audio
+ q4 ~1 k. I) [/ ^) d, P$ hID                                       : 2. `# C! z4 k8 I. W0 I0 E
Format                                   : DTS XLL! T8 w9 G8 A% J! V4 N' l7 z+ i
Format/Info                              : Digital Theater Systems' t$ ?% ^9 Q# m/ S8 o
Commercial name                          : DTS-HD Master Audio
2 K1 M0 j! r* Z% R' YCodec ID                                 : A_DTS! ^2 L3 z2 g3 H9 O/ {7 s; x
Duration                                 : 1 h 39 min" a& c: j0 `8 `. \/ {- W
Bit rate mode                            : Variable, `3 g. D! Z& Y) I, U
Bit rate                                 : 4 035 kb/s* P9 s  S' S7 k- e. B/ ?8 z! \+ }. O
Channel(s)                               : 6 channels
& b! @7 d; G/ q( o$ AChannel layout                           : C L R Ls Rs LFE
0 `% D, [0 G! h% CSampling rate                            : 48.0 kHz
$ x, A* J* p/ Y0 M4 J8 _Frame rate                               : 93.750 FPS (512 SPF)
5 l) X" g2 p9 i# }- `/ r. }9 {* gBit depth                                : 24 bits
3 Y& z6 Q/ J4 q6 hCompression mode                         : Lossless3 o7 Q3 j% A* `* Q( R
Stream size                              : 2.80 GiB (12%)3 z$ N* U/ e, Z' W1 D- q" E
Title                                    : DTS-HD Master Audio / 5.1 / 48 kHz / 4035 kbps / 24-bit
7 |6 ?/ M- j7 c. LLanguage                                 : English
* r( o; u$ R; j4 I* ]$ f0 _& YDefault                                  : Yes, g. r- I1 m7 [( S9 h. W% q3 }
Forced                                   : No
+ x* o  L( Y7 j1 ~; n) L5 ?* _3 i) i* u) U& p: H8 Z
Text #1
" y- [3 F" M2 P8 }- nID                                       : 3' ]" s. S7 o1 s  H& i6 z
Format                                   : UTF-8
- c( ]3 W+ }- \6 H$ G0 kCodec ID                                 : S_TEXT/UTF8( }: Y% W9 O: \& L' M/ F8 l; O8 {
Codec ID/Info                            : UTF-8 Plain Text
2 P$ \$ {' M1 M' _+ R! x) HDuration                                 : 1 h 34 min7 ?" x7 u. e/ I/ v8 C/ r0 C
Bit rate                                 : 74 b/s9 t# I% [+ t) C0 }8 M5 q4 b
Frame rate                               : 0.302 FPS, W7 @: w8 A% y* d7 F
Count of elements                        : 17043 w6 w+ c( y1 K( u) }
Stream size                              : 51.2 KiB (0%)
4 V6 O4 S3 T5 _, c/ jLanguage                                 : English% v7 M. j3 z* e9 [. M
Default                                  : No
8 t( d& a! y4 o% LForced                                   : No
6 `, R) r; Y" @1 Y6 |! d8 E' f$ c3 t) H( r( [
Text #2
5 W. k; ^; r9 t3 L7 P! A) PID                                       : 4
; [  ]1 W! K' A0 b+ r% g; SFormat                                   : UTF-8" S% n1 g6 E/ T& v2 {3 z
Codec ID                                 : S_TEXT/UTF86 W& N  N/ {1 M4 Q( T# j% u
Codec ID/Info                            : UTF-8 Plain Text
0 O9 c0 I+ _' J, ~Duration                                 : 1 h 38 min
: M, B  {* M. cBit rate                                 : 80 b/s
+ b. M) G1 I5 w& u- i; e; YFrame rate                               : 0.332 FPS) |0 W! U% O; b+ N& v
Count of elements                        : 1967$ A. p! y1 ~  R( q) K* J. R
Stream size                              : 58.1 KiB (0%)
$ L- I1 @5 |+ j  @Title                                    : SDH
& h9 n5 j1 b! i& F7 O3 ]6 {Language                                 : English  [; m! h" k  [
Default                                  : No$ k6 t, P5 T" A- j% `9 @
Forced                                   : No. u' E5 l. l( O8 g
/ M, w7 U5 P4 Z
Text #3
* p8 Q! u/ \" [& g- B1 h9 EID                                       : 5
+ l  n  a( N- |; Z4 iFormat                                   : PGS
! b& i8 E0 w, CCodec ID                                 : S_HDMV/PGS
6 D4 ^1 }8 O' Q1 O  z: A. aCodec ID/Info                            : Picture based subtitle format used on BDs/HD-DVDs; T6 `9 J( z% z( h) M: T
Duration                                 : 1 h 29 min
" W3 A3 \% L0 K# q0 G+ QBit rate                                 : 45.5 kb/s/ c% o. E9 [8 h) g
Frame rate                               : 0.494 FPS) Y: l1 f8 n4 m/ i+ }! `
Count of elements                        : 2648# e" Q8 f8 D. n  D. c0 J1 j% j
Stream size                              : 29.1 MiB (0%)
! B8 _" `. u7 \# ALanguage                                 : German
6 |$ F; i" {- H$ d1 B/ HDefault                                  : No. e0 N4 @( `& D: \
Forced                                   : No2 p6 H% d/ L7 P0 i5 j3 X

9 S6 |  X3 h: J$ DMenu
. A) {! B1 H; j* a7 I( ^00:00:00.000                             : en:Chapter 01
! g. U. J% P$ I. n. |0 V00:06:25.552                             : en:Chapter 022 n6 \. \! _# Q; J. N9 a) ~- D4 Z
00:13:16.754                             : en:Chapter 03
; X- M$ I/ I0 \, x2 o00:20:05.996                             : en:Chapter 045 W8 v7 F+ I+ g. B
00:25:34.658                             : en:Chapter 05# M( |4 p) O) x$ `  y6 D$ x+ e; m7 C
00:32:09.469                             : en:Chapter 06$ N; Z6 c- \* N3 h9 x& k- l% f
00:41:54.512                             : en:Chapter 077 a8 D. F2 l# }' n+ m8 R
00:47:59.919                             : en:Chapter 08
& H3 A1 Z# ?- u- r00:52:55.547                             : en:Chapter 09
& h, w- E# \+ a/ {6 \  g00:59:29.399                             : en:Chapter 10) b4 e( s4 d6 T% y6 L0 G
01:04:12.474                             : en:Chapter 11
+ X* M1 E1 @; W! Z. j9 q4 k/ L: l01:11:44.967                             : en:Chapter 12
; X, j5 N1 X) ?6 `2 v01:17:32.940                             : en:Chapter 13# n& g- ^* f7 D7 X) U. G
01:21:59.414                             : en:Chapter 14; r+ s  z% j6 u- c4 b
01:26:26.181                             : en:Chapter 15
. f0 G  f  ~4 F; N01:30:29.924                             : en:Chapter 16

! U% @2 w7 O$ i' u
游客,查看本帖隐藏内容请回复 | 加入VIP可免积分免回复 了解详情 | 还不是会员:点击获取邀请码 Invitation Code

0

主题

1140

回帖

5099

积分

Sponsor

金币
19 枚
体力
2749 点
sclzywxl 发表于 2023-11-4 10:20:56 | 显示全部楼层
啥也不说了,楼主就是给力!" X) j5 r5 ^( _0 w% l
Bluraycd.com movie updates really fast, also did not release issued, whether you believe it or not, anyway, I believed!

0

主题

848

回帖

4235

积分

Sponsor

金币
70 枚
体力
2496 点
QQ
一见哈哈笑 发表于 2023-11-4 11:37:33 | 显示全部楼层
感谢楼主,感谢!

31

主题

4039

回帖

2万

积分

Sponsor

金币
3038 枚
体力
9696 点
QQ
shiji1973 发表于 2023-11-5 08:42:53 | 显示全部楼层
哥顶的不是帖子,是孤独!
8 z5 d' R4 }+ Y6 f# t* i% uBluraycd.com movie updates really fast, also did not release issued, whether you believe it or not, anyway, I believed!

0

主题

1679

回帖

6810

积分

Sponsor

金币
3 枚
体力
2994 点

VIP蓝光勋章

QQ
jiyugen8180 发表于 2023-11-5 14:55:10 | 显示全部楼层
每天都来蓝光论坛看看,我爱蓝光电影。
8 b& |0 U/ c8 G; y! b% Nbluraycd forum, a lot of Blu-ray movies!
9 o; u, \# @3 ^* e- q" L' B+ ?: q7 p

0

主题

1439

回帖

5431

积分

Sponsor

金币
262 枚
体力
2283 点
lfvvzc 发表于 2023-11-8 16:06:32 | 显示全部楼层
这么好的帖子不回对不起自己!& X8 v7 Z% u2 D( |5 C4 L8 q% X
Blu-ray Film Forum: I will always support you!
6 Z. S* ~$ h5 s. }3 ^1 U. I% r

31

主题

4039

回帖

2万

积分

Sponsor

金币
3038 枚
体力
9696 点
QQ
shiji1973 发表于 2023-11-27 16:38:43 | 显示全部楼层
Bluraycd又有新电影发布了,激动中……!2 Y& S, v2 m: A& R/ A8 x; x
Blu-ray Film Forum: I will always support you!
) g) r& @$ Q# B5 c6 l; `3 V

0

主题

106

回帖

1369

积分

Sponsor

金币
958 枚
体力
183 点
zjm587119 发表于 2023-11-28 18:02:17 | 显示全部楼层
顶起 顶起 顶起

本版积分规则

小黑屋|手机版|Archiver|4K蓝光论坛

GMT+8, 2024-3-2 21:05

Copyright © 2001-2021, Gadaddy Cloud.

快速回复 返回顶部 返回列表