BluRayCD Forum

 找回密码
 立即注册【分享大片】
查看: 82|回复: 6
收起左侧

[蓝光原盘] 施赖弗 [REMUX无损版] A Little White Lie 2023 1080p BluRaycd REMUX AVC DTS-HD MA 5.1-Asmo 19.09GB

[复制链接]

9152

主题

172

回帖

9万

积分

Post Share

金币
3036 枚
体力
28084 点

卓越贡献勋章

黄金嫖客 发表于 2023-11-19 18:12:08 | 显示全部楼层 |阅读模式

" n  F+ U8 y% x& T* V
7 a: v2 w5 l+ \; b# M* Q% q$ [: s◎译  名 施赖弗
& j$ n7 M; V6 E: B. H1 c7 G& h◎片  名 Shriver / A Little White Lie
4 H/ V2 @. H; _8 P5 J# l◎年  代 2023. n2 o9 B7 ~. R! N
◎产  地 美国
$ Q8 {7 O& i# y7 L9 ]* P5 ]$ q1 r◎类  别 喜剧
, ~  Z: L$ k2 h* i# l/ x◎语  言 英语  X/ t* r# G. M. \; H
◎上映日期 2023-03-03(美国)& l/ s9 o: G5 C6 i0 W. A5 @0 O. _
◎IMDb评分  5.9/10 from 1,668 users7 O" A/ d1 e  ^/ S6 B: ]  {4 l
◎IMDb链接  https://www.imdb.com/title/tt4225012/
/ T6 |- w8 [* m◎豆瓣评分 0/10 from 0 users
0 I* s5 m( I( }. |; e◎豆瓣链接 https://movie.douban.com/subject/27043485/9 J! O" t8 f* Y1 w7 ^! A
◎文件格式 x264 + DTS ' i" ~  Y, L7 J7 |( T2 B8 j
◎视频尺寸 1920 x 1080- M8 W5 [+ L) s3 x9 F4 Q
◎文件大小 1DVD 19.09 GiB" S( W3 h6 X4 }0 p$ e4 H
◎片  长 1 h 41 min
; x& Y, l" d% c; o◎导  演 Michael Maren
: L4 T: z7 x; J( N: P; }2 w◎编  剧 Michael Maren& g4 q7 F1 X2 B7 |5 ~$ g
       Chris Belden
: Z9 g$ H! J% K7 a7 K! z2 I◎演  员 迈克尔·珊农 Michael Shannon6 m6 ]$ [) Y+ u7 J5 E
       唐·约翰逊 Don Johnson
2 I4 Z) @4 \6 X7 h# ~, a. L3 J       吉米·辛普森 Jimmi Simpson
& e1 h8 a" A( G  m       凯特·哈德森 Kate Hudson' [3 J4 n# k0 c0 Z- ]
       吉安卡罗·埃斯波西托 Giancarlo Esposito' K2 E! o" q% D0 e2 d. L8 l( n
       乌比·戈德堡 Whoopi Goldberg
, S% r* p% r0 \( }" ^       达明·乔伊·伦道夫 Da'Vine Joy Randolph% ]: r/ e* K/ P5 C4 g
       阿雅·娜奥米·金 Aja Naomi King8 J5 u6 A2 T. h
       小马克·布恩 Mark Boone Junior
) f, }( w% o# r% k' H  R       扎克·布拉夫 Zach Braff$ y6 S) b% K2 U% [1 p2 X/ K7 K5 n6 i
       帕芮·马费尔德 Perry Mattfeld
& |0 F; i  Z3 K) S0 l) f       乔琪亚·惠格姆 Giorgia Whigham
0 T& s) \( `* a0 g0 `+ K6 K& N) y  ~, ~0 N- X) B
◎简  介 9 W( }3 ?' I8 M2 P# t
" ]7 z7 v6 v9 l' p
  乌比·戈德堡和吉安卡罗·埃斯波西托确认加盟迈克尔·马伦([衰变简史])自编自导的喜剧片[施赖弗](Shriver,暂译)。该片根据同名小说改编,故事主人公施赖弗孤家寡人一个,他在庆祝一本书出版二十周年的派对上被误认为是该书的唯一作者。当真正的作者出现时,将错就错的他只能仓皇而逃。
1 e' _" Y4 h# Z9 v! g0 W  N9 B" s1 s, Z& l9 d4 z3 h
  When a handyman living in New York City is mistaken for a famous and famously reclusive writer, he's brought to a university where he is to deliver a keynote address to save the school's literary festival., \/ _) y( Q! s' s8 V3 }
A.Little.White.Lie.2023.1080p.BluRayCD.REMUX.AVC.DTS-HD.MA.5.1-Asmo 19.09 GB7 x  }; l6 ?. k  v! B
4 ?9 V: o; ~  [+ }2 X$ ?9 Y% V) q
Video
$ }# J0 Y- r# F* L: w4 D; |ID                                       : 1
* W6 ^! W5 |6 ^* H8 m" I7 T: ^0 hFormat                                   : AVC3 w: \1 _7 w1 @
Format/Info                              : Advanced Video Codec* B- M$ _  i9 h/ c8 n6 v$ B! {
Format profile                           : Main@L4.1
7 c! }1 N1 C8 p- _9 a; T& q) sFormat settings                          : CABAC / 4 Ref Frames
1 D3 J! O- z: |# ^Format settings, CABAC                   : Yes
0 {. G( T2 D# h9 dFormat settings, Reference frames        : 4 frames/ g' g2 I5 Y* _$ ^: J* T( `$ Q- T
Codec ID                                 : V_MPEG4/ISO/AVC
. H; @7 Y! L1 A& Z) F  iDuration                                 : 1 h 41 min' f# y: V5 p$ c, Z4 k  z; v
Bit rate mode                            : Variable: R9 D4 Q- ?% E! U/ K* y# b
Bit rate                                 : 25.1 Mb/s0 r, n) M) w3 r8 n  z1 P
Maximum bit rate                         : 30.0 Mb/s2 }$ F$ Q- o6 u* E4 L* Q) S
Width                                    : 1 920 pixels. x% W9 D: ~. m* o
Height                                   : 1 080 pixels
0 e! D# p' s: v) r9 n+ L- jDisplay aspect ratio                     : 16:92 k- I; b$ _7 P" n& h- X: O. p# ]- n
Frame rate mode                          : Constant" _$ A4 n0 N6 l: w7 @( O# x8 m
Frame rate                               : 23.976 (24000/1001) FPS
. M5 T3 V2 ?1 z: H3 _- i" `Color space                              : YUV
  y  W2 ~) c2 m/ I4 e/ N0 gChroma subsampling                       : 4:2:0! }/ X6 ]+ N" {4 l4 }
Bit depth                                : 8 bits7 j+ s$ O- G2 [. u$ a9 v+ f: L* [' c( @
Scan type                                : Progressive* Y1 q- c  p7 F9 v9 f2 |$ J5 M0 A
Bits/(Pixel*Frame)                       : 0.505
" |. q3 G+ H6 I+ Y; R5 [Stream size                              : 17.7 GiB (93%)
( ~% F& l9 L- |; e/ j# S; M6 D, `; BLanguage                                 : English& D( U0 a3 e0 U5 h2 E
Default                                  : Yes
3 _4 q2 A$ ]5 uForced                                   : No
9 @# ]3 w. d' Z8 |8 M2 BColor range                              : Limited
0 ?: D  N7 N- f8 @  a' BColor primaries                          : BT.709
5 J: Z% i+ q: I. _8 ~Transfer characteristics                 : BT.7096 }9 y+ b3 A- u) f3 h: P
Matrix coefficients                      : BT.7096 B* l2 ^) @) C, [

0 y! l6 I; Y. w" n* h. L- p! IAudio9 }: r, }+ V( O% b# Z. t
ID                                       : 21 x. H( b( V3 V' |0 X2 j
Format                                   : DTS XLL
& y* M$ c2 A* f' G; ?. z$ \Format/Info                              : Digital Theater Systems- ^) T& H3 f# H9 ^$ k5 Q. K( W) m
Commercial name                          : DTS-HD Master Audio  X; ?8 }: B2 l$ @* F
Codec ID                                 : A_DTS
/ m3 ~$ W2 Y4 \2 o- D, ADuration                                 : 1 h 41 min
4 v5 e. J1 b( P$ wBit rate mode                            : Variable$ M( I+ p9 ]. M4 \! m  |, \
Bit rate                                 : 1 915 kb/s, }& k" ]; Y) G3 O- A9 z
Channel(s)                               : 6 channels
3 j4 H' I' a2 b8 \* ]Channel layout                           : C L R Ls Rs LFE
7 T, O# k" J0 a' k( w) P: K+ ~Sampling rate                            : 48.0 kHz
  ]5 S: w$ P9 h; DFrame rate                               : 93.750 FPS (512 SPF)
3 V' P* b* Z1 [Bit depth                                : 16 bits/ }6 a9 l# v3 d2 Z  e' U) `
Compression mode                         : Lossless  I7 u: W/ I. J+ }. u& z. a
Stream size                              : 1.35 GiB (7%)
1 x  a  e" r  B' c) u8 M9 o% n7 L5 A! LLanguage                                 : English
1 t: ]3 s$ j8 l$ w2 MDefault                                  : Yes) p0 q# {; l2 U7 D& R+ k9 Q
Forced                                   : No
" s( b" e5 `' |# a, L
( p7 z  S( v( A$ f' uText #1+ ^5 q% v% T$ D9 ^2 p3 M3 W
ID                                       : 3
& \9 ~5 ?8 ?0 s8 _9 j) Y* }8 dFormat                                   : UTF-8
% ?8 r* W+ u3 w7 Q; N4 Z0 `, ZCodec ID                                 : S_TEXT/UTF8& T9 k- U+ V0 I* }
Codec ID/Info                            : UTF-8 Plain Text/ N0 U) m2 [, Q1 a) U6 `
Duration                                 : 1 h 35 min
% U0 \2 L6 z6 b# R# P1 l! w9 GBit rate                                 : 48 b/s, C/ v! H3 z, D7 L( V' i% I
Count of elements                        : 10680 S# F* h" i! [
Stream size                              : 33.7 KiB (0%)
* J2 V% M' _: C9 R; pLanguage                                 : Polish
" u8 Z" O& l# J- Y& |" mDefault                                  : No# Y+ n  L5 V/ C9 \2 B- ]
Forced                                   : No
. N1 _) q4 A$ Z' B( [1 Q7 `% H7 G) I5 F7 Z. U6 N2 v: h
Text #2) M9 \$ [0 D* W+ }( Q% T# n; n
ID                                       : 4
8 b8 H, w# |: S8 G( I/ [) IFormat                                   : UTF-8! _$ i$ f- n9 q) [
Codec ID                                 : S_TEXT/UTF8
) Z3 i2 C; O& c& f, x4 f5 SCodec ID/Info                            : UTF-8 Plain Text
8 |1 t- n+ t% dDuration                                 : 1 h 35 min
2 K- {- r* E7 g4 |1 D! XBit rate                                 : 67 b/s
0 r7 f+ A5 |$ m7 f! q, J; p* ~Count of elements                        : 1464
+ w  L/ C0 J2 H3 U5 eStream size                              : 47.3 KiB (0%)  Y5 D. Q4 R# }9 l7 ~* R2 i
Language                                 : English$ G4 H! E2 H: M6 h
Default                                  : No
) U4 |! N- ~& f! T2 B2 N  TForced                                   : No
# Y. h5 O7 o4 l. E
游客,查看本帖隐藏内容请回复 | 加入VIP可免积分免回复 了解详情 | 还不是会员:点击获取邀请码 Invitation Code

0

主题

253

回帖

2118

积分

Sponsor

金币
0 枚
体力
1576 点
tjzfyybbb 发表于 2023-11-19 20:44:55 | 显示全部楼层
但是发生大幅度发给的说法干撒代发给

0

主题

1992

回帖

8222

积分

Sponsor

金币
700 枚
体力
3607 点
zzk980220 发表于 2023-11-20 11:27:07 | 显示全部楼层
啥也不说了,楼主就是给力!- a" G9 ^5 |/ p( _0 d' G9 s
要想蓝光电影论坛发展好,资源多,就靠你我他!To the development of Blu-ray movies forum, resources and more depend on you and me!  s1 q& o5 {3 ]4 J) M4 X/ [  P

0

主题

1467

回帖

5608

积分

Sponsor

金币
275 枚
体力
2385 点
lfvvzc 发表于 2023-11-20 19:47:10 | 显示全部楼层
这么好的帖子不回对不起自己!
4 D3 t* n* [3 k( M/ ^+ _  ZThe decisive Replies sink is I get the sinking feeling great sense of accomplishment!
$ B) b; P# M+ O) S) `6 Q

0

主题

800

回帖

3667

积分

Sponsor

金币
26 枚
体力
2100 点
QQ
sunday_119 发表于 2023-11-21 12:46:42 | 显示全部楼层
啥也不说了,楼主就是给力!, \; p3 d4 z, [
The decisive Replies sink is I get the sinking feeling great sense of accomplishment!
: Q3 w. g) T  w: {

0

主题

1857

回帖

7684

积分

Sponsor

金币
20 枚
体力
3415 点

VIP蓝光勋章

QQ
jiyugen8180 发表于 2023-11-21 23:36:56 | 显示全部楼层
啥也不说了,楼主就是给力!
4 Z( e* u' I- t+ l, K3 B祝愿蓝光社区越办越好!I wish Blu-ray communities better and better!
2 {( o6 B3 Q6 f0 x5 Y2 A' e

31

主题

4222

回帖

2万

积分

Sponsor

金币
3171 枚
体力
10208 点
QQ
shiji1973 发表于 2023-11-22 08:55:20 | 显示全部楼层
Bluraycd又有新电影发布了,激动中……!
8 c, q; n$ }- x3 Z! R6 ?) A9 tYour resources, well, I am very satisfied!
& l; s( h* M& c% y: Q4 U. b. }3 a

本版积分规则

小黑屋|手机版|Archiver|4K蓝光论坛

GMT+8, 2024-6-21 09:49

Copyright © 2001-2021, Gadaddy Cloud.

快速回复 返回顶部 返回列表