BluRayCD Forum

 找回密码
 立即注册【分享大片】
查看: 33|回复: 2
收起左侧

[动作战争] 坎大哈/坎大哈陷落/坎达哈行动/杀出坎大哈 Kandahar 2023 1080p BluRaycd x264 DTS-WiKi 11.97GB & 14.73GB

[复制链接]

1万

主题

387

回帖

12万

积分

Post Share

金币
3947 枚
体力
32369 点

卓越贡献勋章VIP蓝光勋章诚信会员勋章

mvods 发表于 2023-12-4 01:35:08 | 显示全部楼层 |阅读模式

; D+ D- }8 |( ]8 t+ _' M8 S! B! }; J& }8 }; L! e
◎译  名 坎大哈/坎大哈陷落/坎达哈行动(台)/杀出坎大哈(港)
5 H! P' a- \) M) X" g( \◎片  名 Kandahar / Burn Run , E/ `) e; e3 C
◎年  代 2023
# g% I( U! x; H7 l  a0 J& v! o◎产  地 美国/沙特阿拉伯
! l. s3 x3 W7 @! M◎类  别 动作/惊悚& v' R% Y. E: `5 z& Q( J
◎语  言 英语
2 f: U2 E+ e7 b8 k% S/ |6 Q◎上映日期 2023-05-26(美国)/ q9 L. y: f) Y+ X5 d
◎IMDb评分  6.1/10 from 27,148 users+ [! l! c+ c0 y3 s; |# Q
◎IMDb链接  https://www.imdb.com/title/tt5761544/
+ c* ~+ N( n/ Y◎豆瓣评分 5.4/10 from 5,524 users
: }% M) _8 i* j, K◎豆瓣链接 https://movie.douban.com/subject/35115260/8 R0 H- G/ n' j/ G- `
◎片  长 1 h 59 min" l8 A% m: O0 G5 [. N3 e( |9 q
◎导  演 里克·罗曼·沃夫 Ric Roman Waugh
& J( L) r- T/ I& l◎编  剧 米切尔·拉福纳 Mitchell LaFortune+ k' I9 e1 q8 Y! O* I7 t
       里克·罗曼·沃夫 Ric Roman Waugh1 O, N) o/ u9 b: o3 O  v
◎演  员 杰拉德·巴特勒 Gerard Butler
1 ~* U& o  }1 @2 l& h       纳维德·内加班 Navid Negahban
: U5 j- t9 C; W       阿里·法扎勒 Ali Fazal
/ i, h" r% s3 H, @' T1 Q7 I       巴哈多尔·福拉迪 Bahador Foladi
9 M4 i: c, l/ v0 }       奥莉维亚·米娅·贝瑞特 Olivia-Mai Barrett/ g8 b2 v+ n% j6 a/ r% w% Z+ E8 H
       妮娜图森特怀特 Nina Toussaint-White+ X6 Z0 [+ I% Z( Y: Z, |
       蕾贝卡·卡尔德 Rebecca Calder
  Y' f+ m& H3 @+ @- }9 F" |6 R9 u3 d       罗斯·伯克利·辛普森 Ross Berkeley Simpson
9 G2 }/ ~* o; n: B  y       瓦西利斯·科卡拉尼 Vassilis Koukalani
* l+ S5 Y1 T+ j2 s: p- ~       哈基姆·卓马 Hakeem Jomah& i8 Q6 R& N3 a  d% k6 y* Y
       汤姆·里斯·哈里斯 Tom Rhys Harries
/ l- j% s! {. j- [$ V3 x0 \       雷·哈拉提安 Ray Haratian
7 I  I" j2 H  o& z8 I& R+ Z; n       法哈德·巴盖里 Farhad Bagheri
( P2 R$ P) ^6 k. p8 W       法希姆·法兹利 Fahim Fazli, ?( q2 `, U0 {- _! ^  W
       李·科姆利 Lee Comley- r$ x4 N6 Y4 ~4 R. z
       马克·阿诺德 Mark Arnold
( R; r- z7 N! @. |       拉维·奥拉 Ravi Aujla
, T* M+ S6 V  O& R0 Z$ Z8 r       崔维斯·费米尔 Travis Fimmel7 o7 ]& i9 [; |# ]2 `& v
       泰勒·格雷 Tyler Grey
& |: A3 P) r9 C, c1 j       克里·约翰逊 Corey Johnson- L- W+ Z0 O7 j1 q6 R2 y' k$ z
+ Q, R4 {5 I  R
◎简  介   
- }( K+ ?0 a# ~3 p1 X, x% {. j
( ~; y2 z; c: W  I& s; r  杰拉德·巴特勒将与《天使陷落》导演里克·罗曼·沃夫再度合作,出演后者执导的新片《坎大哈陷落》(Kandahar)。前美军军事情报官员Mitchell LaFortune撰写剧本,根据其真实经历改编,讲述汤姆·哈里斯(巴特勒饰)是一名在中东工作的CIA秘密特工。一份情报的泄露让他秘密执行的任务及身份有暴露的风险。哈里斯被困在敌方的心脏地带,他和他的翻译必须逃离沙漠,前往坎大哈的一个撤离点,同时还要躲避精锐的特种部队的追捕。1 F* \$ V( C( J5 \- t- L
: P, Q# k, D8 `+ r/ ], `9 z& h3 r) N
  A CIA operative and his translator flee from special forces in Afghanistan after exposing a covert mission.
8 _, ]! r$ i& d7 g8 k
Kandahar.2023.1080p.BluRayCD.x264.DTS-WiKi 11.97 GB
/ `  \( M4 o6 x8 @, i) ~
& A2 v# X8 N6 W; S, gVideo
. ^! T6 w# F4 }0 JID                                       : 1& S  T0 j& ~( G3 @2 S6 N! _% _$ k
Format                                   : AVC
& Z8 \9 x; F' }Format/Info                              : Advanced Video Codec7 Q/ m9 a& I! }: M4 p
Format profile                           : High@L4.1% r9 B% x! U( o7 q  c
Format settings                          : CABAC / 5 Ref Frames# o7 x8 G2 v0 t; \' C! f
Format settings, CABAC                   : Yes  v" k7 m* \; J9 I. E. O. Q
Format settings, Reference frames        : 5 frames
3 R* K$ x) t5 ICodec ID                                 : V_MPEG4/ISO/AVC' p$ S- t2 H  c5 n
Duration                                 : 1 h 59 min
  ~$ N# y9 u' V% J! P0 bBit rate                                 : 12.8 Mb/s) C7 U2 |( g# X; o) u6 N6 p
Width                                    : 1 920 pixels
5 Q( T* A6 h0 n7 c6 T& [2 zHeight                                   : 804 pixels
! O! a& j6 i& h  n" ~( LDisplay aspect ratio                     : 2.40:1
# a) A) [: T) |9 |Frame rate mode                          : Constant- y  l* J' b5 f6 \# Z; b4 O
Frame rate                               : 24.000 FPS8 v. s0 U, n6 c( h0 B9 F
Color space                              : YUV
% E# i$ d) O6 H( U5 e# hChroma subsampling                       : 4:2:08 s/ Y, d  {1 q8 g- Q+ c: o+ |$ ?( q
Bit depth                                : 8 bits
  m4 c8 \3 j0 i: FScan type                                : Progressive
3 @/ s0 a5 `4 ~$ I, fBits/(Pixel*Frame)                       : 0.346: J& l" Z/ m0 t: b3 L/ P- e0 n
Stream size                              : 10.7 GiB (89%)- J; x- L3 C) w
Writing library                          : x264 core 129 r2245 bc13772
- m! ^5 A3 m( b/ I+ v' l# A% zEncoding settings                        : cabac=1 / ref=5 / deblock=1:-3:-3 / analyse=0x3:0x133 / me=umh / subme=11 / psy=1 / psy_rd=1.05:0.05 / mixed_ref=1 / me_range=64 / chroma_me=1 / trellis=2 / 8x8dct=1 / cqm=0 / deadzone=21,11 / fast_pskip=0 / chroma_qp_offset=-3 / threads=24 / lookahead_threads=4 / sliced_threads=0 / nr=0 / decimate=1 / interlaced=0 / bluray_compat=0 / constrained_intra=0 / bframes=10 / b_pyramid=2 / b_adapt=2 / b_bias=0 / direct=3 / weightb=1 / open_gop=0 / weightp=2 / keyint=250 / keyint_min=24 / scenecut=40 / intra_refresh=0 / rc_lookahead=60 / rc=2pass / mbtree=1 / bitrate=12834 / ratetol=1.0 / qcomp=0.60 / qpmin=0 / qpmax=69 / qpstep=4 / cplxblur=20.0 / qblur=0.5 / vbv_maxrate=40000 / vbv_bufsize=30000 / nal_hrd=none / ip_ratio=1.40 / aq=1:0.802 m- P' s$ P& X, j
Language                                 : English
* ^) i( @; g4 p5 `* {/ o( gDefault                                  : Yes
. C* B$ _0 }! i( bForced                                   : No" d; Z5 c+ B0 h1 h
+ ^4 {" w) Q; s# n
Audio
) }- Z  G2 d4 |2 L) i% T5 VID                                       : 2
5 B) P, s+ W9 V: n5 d0 S. j+ C, KFormat                                   : DTS. k3 y( C/ x! ?6 Z3 s
Format/Info                              : Digital Theater Systems3 ~) ?- ?) m! Z0 L9 Y6 S& d
Codec ID                                 : A_DTS% {  o; B; Q* G5 E+ p3 i/ m; ~
Duration                                 : 1 h 59 min+ a# t8 a; v- E7 Z# R
Bit rate mode                            : Constant
8 W5 {* g1 n: k$ fBit rate                                 : 1 509 kb/s' c$ s, O) j' f7 u& @4 B
Channel(s)                               : 6 channels; ~% v6 L! s% c. X
Channel layout                           : C L R Ls Rs LFE
: K6 n. O4 ?4 I0 P- e- VSampling rate                            : 48.0 kHz
. s. u- p' w/ l1 S! s" F6 FFrame rate                               : 93.750 FPS (512 SPF)4 `* u6 T% H. H2 h
Bit depth                                : 24 bits" q) \5 L( j& x. w  ]
Compression mode                         : Lossy+ Y$ L: u/ P' g9 D5 ]+ ?- ]0 S
Stream size                              : 1.26 GiB (11%)
8 Q' l0 a: V- H8 W7 \+ V, T! Y3 z* ?Language                                 : English. M3 g" i8 r) X+ q$ @
Default                                  : Yes- h) ?0 @) K& J  V
Forced                                   : No
0 Y2 p- I. |7 y4 `4 A! ]5 F2 F) ^) Z+ F) h# M0 p
Text #1
' T9 z/ s4 c: s5 J2 k! E8 wID                                       : 3
0 Q0 I" m5 L3 J7 `, rFormat                                   : UTF-8
% p- @2 r) n4 u! m1 Z1 {  xCodec ID                                 : S_TEXT/UTF88 S3 |1 K5 I" @; J+ d
Codec ID/Info                            : UTF-8 Plain Text; h( I) c/ C" i( t- A8 q* X: f: S
Duration                                 : 1 h 50 min5 {' Q: z0 o3 _' c+ L- t
Bit rate                                 : 37 b/s8 w0 o/ n& W7 @8 K. f
Frame rate                               : 0.181 FPS* E! P+ i2 p2 f' n: A+ I/ ~/ V( l
Count of elements                        : 1208$ M6 J' U0 A" p3 b& ?4 C
Stream size                              : 30.4 KiB (0%)
1 |. v9 C0 T6 D& p3 F: z3 T& [3 kTitle                                    : 繁体
& j* Y4 E% O; F8 Y& [Language                                 : Chinese
! Y5 ^9 |, i& SDefault                                  : Yes
$ Q) V4 H% }, |- BForced                                   : No8 Q% D7 \' b9 n3 x; c! b' s5 M3 N
: e# z5 n. @1 t- I
Text #20 Y2 u' \. V; E1 A4 H
ID                                       : 4
' ~; \9 V$ r% PFormat                                   : UTF-8
1 b& `) o* ]) \9 k% \5 n4 SCodec ID                                 : S_TEXT/UTF88 K7 x) }+ G  \. @
Codec ID/Info                            : UTF-8 Plain Text
: }) Z# Q0 |) wDuration                                 : 1 h 50 min. s2 m/ D" A# h; t
Bit rate                                 : 37 b/s
2 ~( Q2 C2 g/ TFrame rate                               : 0.181 FPS
! H: D5 H6 V% M  v8 X9 mCount of elements                        : 1208
7 d  B2 P) j$ r+ J/ v* VStream size                              : 30.4 KiB (0%)
+ \0 h% Y' J# k1 [; E- sTitle                                    : 简体
+ S; Y6 b3 s6 ~! L* J$ Q9 ZLanguage                                 : Chinese
7 F2 _5 Q* D& Z! M9 eDefault                                  : Yes6 B6 D$ s% Y+ T& |
Forced                                   : No
  1. Kandahar.2023.SPANiSH.LATiNO.1080p.BluRaycd.x264-dem3nt3 14.73 GB& ~1 \" O! H( D% b" y, ^" P
  2. 4 I6 z7 O; K: ]# o+ {
  3. General           : kandahar.2023.spanish.latino.1080p.bluray.x264-dem3nt3.mkv
    ; |7 j. R$ W/ s# I/ e
  4. Format            : Matroska at 17.6 Mb/s
    1 t$ @/ i3 t; O" z) J
  5. Length            : 14.7 GiB for 1 h 59 min 56 s 882 ms
    6 F' P* z. \0 Q3 `
  6. 5 q0 A, {1 c7 _2 _& M
  7. Video #0          : AVC at 17.0 Mb/s7 m9 p6 T) e0 j- p
  8. Aspect            : 1920 x 804 (2.388) at 23.976 fps8 v- k  s+ J* F
  9. ( |4 b  P6 N. O
  10. Audio #0          : AC-3 at 384 kb/s
    % p' Q6 B+ y1 s; q4 Y/ Q8 d6 ?
  11. Infos             : 6 channels, 48.0 kHz
    & Y+ f$ ]1 Y  G
  12. Language          : spanish latino" S, S+ g7 ]0 `. U5 q

  13. # i$ x- N5 B& q# N5 ~
  14. Audio #1          : AC-3 at 640 kb/s0 N+ ]+ F! F" }1 [! S9 g
  15. Infos             : 6 channels, 48.0 kHz
    , ?9 C. m- M  Z0 r) e
  16. Language          : english
    . S" G6 ]$ L& F  O7 @+ H

  17. * B3 d* i$ c/ y, N$ f5 Z; M
  18. Text #0           : UTF-8
    9 H5 x! G  X( W$ p
  19. Language          : spanish latino9 l! G4 u5 k5 _. z4 a: d8 }" r
  20. , G% T8 K% ^- p
  21. Text #1           : UTF-8
    5 e! J, c# F- x& }* w, e
  22. Language          : spanish latino
复制代码

5 M3 K* H9 c. ~
游客,查看本帖隐藏内容请回复 | 加入VIP可免积分免回复 了解详情 | 还不是会员:点击获取邀请码 Invitation Code

0

主题

1679

回帖

6810

积分

Sponsor

金币
3 枚
体力
2994 点

VIP蓝光勋章

QQ
jiyugen8180 发表于 2023-12-4 19:24:38 | 显示全部楼层
每天都来蓝光论坛看看,我爱蓝光电影。
% q5 a" R5 u/ e, F1 }; T- iBluraycd.com movie updates really fast, also did not release issued, whether you believe it or not, anyway, I believed!

0

主题

106

回帖

1369

积分

Sponsor

金币
958 枚
体力
183 点
zjm587119 发表于 2023-12-18 18:06:56 | 显示全部楼层
我爱蓝光电影

本版积分规则

小黑屋|手机版|Archiver|4K蓝光论坛

GMT+8, 2024-3-2 22:09

Copyright © 2001-2021, Gadaddy Cloud.

快速回复 返回顶部 返回列表