BluRayCD Forum

 找回密码
 立即注册【分享大片】
查看: 21|回复: 4
收起左侧

[蓝光原盘] 剑鱼行动/极速爆劫 [REMUX无损版] Swordfish 2001 1080p BluRaycd REMUX VC1 DD5.1-Asmo 14.78GB & 15.97GB

[复制链接]

9152

主题

172

回帖

9万

积分

Post Share

金币
3036 枚
体力
28084 点

卓越贡献勋章

黄金嫖客 发表于 2024-6-11 01:45:51 | 显示全部楼层 |阅读模式
A covert counter-terrorist unit called Black Cell led by Gabriel Shear wants the money to help finance their war against international terrorism, but it's all locked away. Gabriel brings in convicted hacker Stanley Jobson to help him.
! {* e" J: A4 J- p, W
: K; i: A4 h$ ~. }0 D 1.jpg
# j$ X1 e7 }8 _* |3 i' y. k; b- Y
) p2 w2 J, r4 {: t3 w; o◎译  名 剑鱼行动/剑鱼(台)/极速爆劫(港)/旗鱼行动
! U# u: G' n$ G- _% ?- e& e  [# ^◎片  名 Swordfish
0 F, a: a% E5 T* f7 q◎年  代 2001
: j3 G5 X3 q  v  W* g+ [◎产  地 美国/澳大利亚( t7 J% C& T2 a+ K! Q3 H0 Q2 [# n
◎类  别 动作/惊悚/犯罪# N$ O; b: i% [
◎语  言 英语/德语
2 ]! }& _  \& N8 R3 K( l7 A& i◎上映日期 2001-06-08(美国)
0 G, e9 `, H* P8 m7 [5 M◎IMDb评分  6.5/10 from 197,168 users/ i& C3 O8 H9 E, _3 h& W! V9 [
◎IMDb链接  https://www.imdb.com/title/tt0244244// k" |: f% h( E8 W& q& E. F
◎豆瓣评分 7.5/10 from 70,793 users
  C- ^- F' A' E# u. [( T◎豆瓣链接 https://movie.douban.com/subject/1304608/2 k' @1 P+ ~3 H. ?
◎文件格式 x264 + DD5.1
' k9 r1 f' O) k3 S, a! y, U1 k- H$ p◎视频尺寸 1920 x 1080
7 o3 ^! H1 G. W! b◎文件大小 1DVD 14.78 GiB & 15.97 GiB9 f- ]% G! v+ i
◎片  长 1:39:15.699 (h:m:s.ms)
# E, V! E# i1 i0 i  @◎导  演 多米尼克·塞纳 Dominic Sena" B/ z) ~1 |. u; n# |$ u
◎副  导  演 Lisa C. Satriano 1 t7 T% \6 u; i+ w( g7 j
       丹·布莱德利 Dan Bradley1 W, ?* a; [; C4 N' _3 F' _
       Katie Carroll
* t) Z7 |% L1 z' n) }◎编  剧 斯基普·伍兹 Skip Woods
1 c) N# N$ C! b; G- `& x" T7 [. @◎制  片  人 乔纳森·D.克兰 Jonathan D. Krane9 T9 _2 O) z" W4 |
       斯基普·伍兹 Skip Woods1 R" r0 x/ l  L& O) v
◎演  员 约翰·特拉沃尔塔 John Travolta
$ D4 U: Y+ D8 a0 Q       休·杰克曼 Hugh Jackman
. o8 I* C: v/ e  K, Y( f& r3 U       哈莉·贝瑞 Halle Berry
2 O- a% A; J. \/ a) [) m8 `" a       唐·钱德尔 Don Cheadle
. s& Q% [! P" O& y$ r       山姆·夏普德 Sam Shepard
5 k: v5 ^, J$ Z( _" v       维尼·琼斯 Vinnie Jones
+ D3 j7 S4 d% a3 k- B6 U+ d       德瑞·德·玛泰 Drea de Matteo7 m) I0 P5 m1 V
       鲁道夫·马丁 Rudolf Martin
" @# K( T4 U7 q" _       扎克·格雷尼尔 Zach Grenier, r" B  A( R1 t
       卡姆林·格里梅斯 Camryn Grimes | 饰 Holly Jobson
$ D! _8 x( j$ {$ h       Angelo Pagan
+ x1 {' b1 c/ L$ P9 e% |6 U) x       克里克·B·R·沃勒尔 Kirk B.R. Woller0 B( q( I- e; _1 ]% j# F
       卡门·阿尔根齐亚诺 Carmen Argenziano9 m% Y: V% |" k! g3 Z* k  P
       蒂姆·迪凯 Tim DeKay$ U  Y  n1 R2 s+ M
       Laura Lane - \# X1 H8 Z5 \6 e$ T5 U
       Craig Braun 2 c( w  A3 d) @/ U; z0 b, f
       威廉·麦鲍瑟 William Mapother
+ m& t# C) C: g       伊利亚·沃里克 Ilia Volok( S* [! O- K" x5 C2 f" b4 C/ i
       乔纳森·弗垃泽 Jonathan Fraser
% \0 ]1 s* r! ?  ~       Shawn Woods 7 q+ |! B8 U6 Z
       达娜·喜 Dana Hee% p, L3 b) @' d2 G: ^' r) t
       丹尼·皮尔斯 Denney Pierce
/ k; O/ N- t( L) e8 W6 Y. f       Joey Box
; @# w$ {, C* b# @( `" j! i       Debbie Evans
5 }0 h$ B& v9 R9 s" }' ?       Tim Storms 0 @, z7 R9 M: O$ X1 u
       马克·索珀 Mark Soper
  Z6 d5 w# T9 q1 n5 Q       纳塔丽·索科洛娃 Natalia Sokolova" e3 r- J; m. G) h
       Anika Poitier / R/ f8 D$ ~7 q8 m  A7 `
       尼克·罗兰 Nick Loren3 y( [3 m' n0 v2 Z8 H- o# f
       蒂莫西·奥门德森 Timothy Omundson3 U& ~$ S" d8 h0 D! u0 O$ Z3 v
       Astrid Veillon 2 s( l9 _, p% V3 x8 k3 a
       Dean Rader-Duval  
9 Y# z. Z  T3 |" i2 _& X: W' z       Shane Brock
3 [" w# ^5 ]. @) C+ }3 Z. h       Russ Cootey
0 o( D$ R# \4 x) }- F       泰特·多诺万 Tate Donovan
9 _9 ?1 ]+ @" e( r' W0 j' `% K       塞拉·法伯 Sierra Farber
$ N+ s3 }+ f( h       咪咪·弗莱彻 Mimi Fletcher+ T6 K- `7 E0 z; D/ u
       Cory Parella
+ d9 M& i+ {. Z4 f- d7 }       盖瑞·罗德里格斯 Gary Rodriguez
, Y. z0 A# Y" Z- ~+ t. z       Travis Rosario
, o+ X& L: \% K2 z2 B: X4 E6 w' G       George Marshall Ruge 6 J1 v1 V3 Q+ }% W
       唐·耶索 Don Yesso
/ j( ^4 C- T8 F+ }! t: n2 M, }# S1 j       童自荣 Zirong Tong) t- O8 g* }5 C# A3 K0 L$ C& g
       沈晓谦 Xiaoqian Shen
( C) S+ ^' B; B9 ~% W9 K" B  o% W# b5 A, @: z
◎简  介 , c: D* J3 {3 a, l/ o
) k& k( ?0 x5 U  t
  间谍加布利尔(约翰·特拉沃塔 John Travolta)在多年特工生涯中,获知政府多年非法收敛了一笔公款。而加布利尔若想实现自己心中的梦想,钱是最关键的因素。正因如此,机智狡猾的加布利尔决定向这笔赃款下手。
2 T& t  ?- N) w1 Q7 O& C5 G+ F+ v9 f: j2 r8 {- b2 g: @9 p. J& c- e
  要想计划能顺利进行,加布利尔需要一名顶尖的电脑黑客。斯坦利(休·杰克曼 Hugh Jackman)正是地球上最顶级的黑客之一,多年前他就把FBI引以为豪的安全系统搞得天翻地覆,亦因此的引来牢狱之灾,妻子带着女儿远走他乡。出狱后一直被禁止使用电脑和其他电子产品。+ a/ x! R# ^. ?5 C; X; i

$ L* s1 B5 E  }/ Y  加布利尔派他的女搭档金吉尔(哈莉·贝瑞 Halle Berry)游说斯坦利出山,承诺成功后帮斯坦利取回女儿的抚养权并安排其远走高飞享受新生活。经不住诱惑,斯坦利再度出山。然而,事情并没有像预想中顺利……
+ @( u# f" E. f# o
0 N- I6 N1 k5 m2 q8 k  When the DEA shut down its dummy corporation operation codenamed Swordfish in 1986, they had generated $400 million which they let sit around; fifteen years of compound interest has swelled it to $9.5 billion. A covert counter-terrorist unit called Black Cell, headed by the duplicitious and suave Gabriel Shear, wants the money to help finance their raise-the-stakes vengeance war against international terrorism, but it's all locked away behind super-encryption. He brings in convicted hacker Stanley Jobson, who only wants to see his daughter Holly again but can't afford the legal fees, to slice into the government mainframes and get the money.
  G% P) ]4 U% }3 O9 [4 g  ?" `0 |, E& X. y! r1 W
Swordfish.2001.1080p.BluRayCD.REMUX.VC1.DD5.1-Asmo! A, o8 B7 D. X6 D5 D+ {! E4 g9 h
. ^& N5 ^/ @# H! {! y3 N
Video
0 @- n6 x; j3 |2 B- D% E$ T7 [4 QID                                       : 1
4 [" ~: i6 E5 xFormat                                   : VC-1; S! e, W; r) x3 }
Format profile                           : Advanced@L3% T  P$ j1 N/ s: m, L
Codec ID                                 : V_MS/VFW/FOURCC / WVC1
' a2 @) T; M  _( T+ U5 KCodec ID/Hint                            : Microsoft
; ?2 {& `7 c3 T1 H& ^! l) HDuration                                 : 1 h 39 min7 S) _$ O9 D1 J# r) R
Bit rate                                 : 20.0 Mb/s3 `6 N5 J/ b1 A
Width                                    : 1 920 pixels* m2 L+ o$ ]5 E- M, P- R# c2 _2 }
Height                                   : 1 080 pixels
: I# ?; Y  \, ]) yDisplay aspect ratio                     : 16:9
7 Y5 X; {; e' V2 HFrame rate mode                          : Constant
; U* G, c0 D% ?4 z& HFrame rate                               : 23.976 (24000/1001) FPS. p3 {( f2 X* Q2 U) `+ I
Color space                              : YUV2 t) G* y0 ?0 h# b9 X$ f
Chroma subsampling                       : 4:2:0
; X3 P: G6 U# _! t! U0 r; F! bBit depth                                : 8 bits5 m( y  ?* X( E% \" B
Scan type                                : Progressive
# A0 I4 a9 `" ~1 q& ^Compression mode                         : Lossy/ h. `0 U6 Q$ M8 @
Bits/(Pixel*Frame)                       : 0.403+ x- o& |: {4 t) q8 g% o
Stream size                              : 13.9 GiB (94%)
0 ^, S* O4 r- O) i& H/ xLanguage                                 : English
/ B; n8 h$ J* t4 I- L2 W+ hDefault                                  : Yes
8 u. R0 `/ I% PForced                                   : No
; i  K& X# I6 H: G$ A. g  x! R8 ?6 z+ K2 R5 ?
Audio #1
* ~4 l- G) a/ K0 Y8 BID                                       : 2
5 X4 _2 W. N  @2 m  E1 ~6 e$ sFormat                                   : AC-3
' d5 e/ i3 R7 K% yFormat/Info                              : Audio Coding 3. h) n% ^" W$ _( m' o, E
Commercial name                          : Dolby Digital
/ s' T) J3 s" N8 T% aCodec ID                                 : A_AC3+ _' F9 n- g6 p6 V2 j! c
Duration                                 : 1 h 39 min
( b/ K4 `& T- F+ GBit rate mode                            : Constant
# Y/ s9 X: h  u8 d( l" PBit rate                                 : 640 kb/s5 O( c& ^' e1 b+ u
Channel(s)                               : 6 channels3 Q$ r  N* G$ M: v( s8 l, J
Channel layout                           : L R C LFE Ls Rs
1 X+ f* i( E& U: v! V" a6 KSampling rate                            : 48.0 kHz
5 ?1 a4 f1 d, ~( SFrame rate                               : 31.250 FPS (1536 SPF)
4 a+ {+ x  `9 k5 i7 `$ oCompression mode                         : Lossy
; K: Y0 X: R5 _Stream size                              : 454 MiB (3%)
5 D( y$ q$ f2 ELanguage                                 : English
/ J$ d( v! ?8 q2 e8 y/ BService kind                             : Complete Main
3 Q( @  \; [4 [2 \# g- X0 jDefault                                  : Yes; c9 r1 H, S& c; S& F& R6 ]/ U4 d$ X
Forced                                   : No: |9 V! D: g9 A4 S. r2 \. V

' V5 A* r4 _* N7 [Audio #2
& |' y& J  ~7 r* f1 `. k1 ~6 x. I" ]ID                                       : 3) E$ J2 K' e% c( z$ j/ |9 r6 Z
Format                                   : AC-35 h& B7 ?0 n  v" d1 _
Format/Info                              : Audio Coding 3+ n; ?' \( d6 j" X# O
Commercial name                          : Dolby Digital1 @! T! m) K5 ~; W, {$ S* e
Codec ID                                 : A_AC3% f0 {: `5 }  @: H' l
Duration                                 : 1 h 39 min
& U' b+ B) s9 _5 M0 i4 e% SBit rate mode                            : Constant
& P* t" _( {. g8 qBit rate                                 : 384 kb/s' j) x: x3 c5 y
Channel(s)                               : 6 channels
8 L* N% v4 O) v) |Channel layout                           : L R C LFE Ls Rs* D" l( a$ x3 t% n: j: Q9 p& C' Q. W
Sampling rate                            : 48.0 kHz
. a8 D: g/ R  ^( i- h$ KFrame rate                               : 31.250 FPS (1536 SPF)9 S* q0 I. F9 C  D5 }4 D( }5 e: L
Compression mode                         : Lossy
, ~1 u# i. W6 D2 ]( t  }1 pStream size                              : 273 MiB (2%)) i9 h. k( R" i) \6 W
Language                                 : Polish
$ L# Q% K" u  p% ]. E, l" H) UService kind                             : Complete Main
6 o, ]% S4 O) V: rDefault                                  : No
/ m7 |: W) ^, d% H* bForced                                   : No
9 y0 j; G# B3 R8 H6 E4 t. i* g
9 D; m! |4 x+ N$ i/ c, J1 k! w7 HText #1& i' e7 ^$ [4 A8 `+ j! L
ID                                       : 44 @3 P( v: i% F0 u, K
Format                                   : PGS3 N* ?% g$ M& R7 g% m* t
Muxing mode                              : zlib
8 ]0 ^& l& k0 ]Codec ID                                 : S_HDMV/PGS. L. Q2 F8 o: g  s3 t' ~
Codec ID/Info                            : Picture based subtitle format used on BDs/HD-DVDs
3 V: v4 ~; w2 b- j8 D, \( [Duration                                 : 1 h 38 min9 F) q$ P9 P/ _/ v$ _. e
Bit rate                                 : 42.5 kb/s3 M) ?0 L" R7 z( D
Count of elements                        : 1804' z; l  M  b$ F5 f: P3 U& n, y  S
Stream size                              : 30.0 MiB (0%)) S4 J9 r; j  [* m1 W
Language                                 : English
& g1 L4 X- [; {3 Z4 |, d2 o0 b% PDefault                                  : No
$ D; H& {7 _* I; w4 N, K! BForced                                   : No3 {) v& k6 b$ z* Y, z$ m7 Q0 Y! j

0 Y0 W) X# A3 S3 @/ g4 e9 RText #2
5 {3 L$ U6 O! T5 B( t* f( x; NID                                       : 5
5 u+ o# P- d3 m0 [- N/ q3 DFormat                                   : PGS/ L. G# m% y* v( F$ Y
Muxing mode                              : zlib
( Z; o7 j& }+ w" K, aCodec ID                                 : S_HDMV/PGS! Y2 l8 M, m4 f" }! e
Codec ID/Info                            : Picture based subtitle format used on BDs/HD-DVDs5 ]+ K+ B- h3 w9 H3 n( q
Duration                                 : 1 h 38 min
0 J# m' L- u$ X  Y5 p# pBit rate                                 : 45.1 kb/s
# |9 `( C5 V3 u, Y8 UCount of elements                        : 1930
( D) n; b; ^- T5 DStream size                              : 31.9 MiB (0%)6 V9 o% N' u' m
Language                                 : Italian
+ y4 W3 o0 `# oDefault                                  : No3 x! W: ]- M1 c- ]0 ~
Forced                                   : No
6 X6 I. {0 I6 ^( H7 N
6 S7 P# r6 s; GText #3
0 h/ g  }" k" y5 f0 F# O/ }5 G! v7 cID                                       : 6+ V  V+ N3 l) j4 D% x
Format                                   : PGS
0 c7 c* q  a1 ^- rMuxing mode                              : zlib
( R! s3 u7 g  h1 M; `5 w+ aCodec ID                                 : S_HDMV/PGS. n; {% H' m0 v+ J/ i# f: D+ k
Codec ID/Info                            : Picture based subtitle format used on BDs/HD-DVDs
, @$ [. r/ H. U. s6 NDuration                                 : 1 h 38 min8 A- E4 Z5 u/ u* {  i' R
Bit rate                                 : 42.3 kb/s+ |( ^% O1 N0 _1 k" q
Count of elements                        : 1846
7 Z. d5 ?  P' l- KStream size                              : 29.9 MiB (0%)
2 |& ^0 S" L8 ^8 `$ A4 aLanguage                                 : Spanish; s5 l& h( m. p) Z+ K5 ?6 q: \
Default                                  : No( Q3 l) s- ?" K5 Y  C4 S
Forced                                   : No/ Z$ w- y  C0 d* W
9 V5 ~  h2 p7 f% T# ?
Text #4
( P0 y  n+ Z6 sID                                       : 7
) x4 C! ?# J  c- Q3 xFormat                                   : PGS9 [4 n! O" I& X' x
Muxing mode                              : zlib
6 o+ O! y' f% g$ g, ?$ U7 G1 v7 `Codec ID                                 : S_HDMV/PGS) b! }% i( P6 P
Codec ID/Info                            : Picture based subtitle format used on BDs/HD-DVDs$ q# ~/ X0 |& S. R: ~7 D& S
Duration                                 : 1 h 32 min
# {( ?1 o1 I5 GBit rate                                 : 51.9 kb/s
# T8 I7 J2 w8 {& Q# z+ WCount of elements                        : 1838: {  i, Q8 Y0 [* u5 s
Stream size                              : 34.5 MiB (0%)
( O" h9 v/ E4 T/ X8 T) s; ULanguage                                 : Bulgarian. h( O0 x6 U1 d
Default                                  : No* M) }2 g8 h0 R5 g
Forced                                   : No4 A/ q% D" M0 @) W. [- A% b
0 ^. b7 _8 @; T. v" F
Text #5
( q( F5 g" }& E/ s( b2 g: EID                                       : 8
( }! F1 K+ u! X1 C/ ^Format                                   : PGS+ e& u0 N* F6 H% |3 g
Muxing mode                              : zlib1 r: e) M  |( n* y/ c2 h
Codec ID                                 : S_HDMV/PGS
! Q* @& e4 F1 ~/ D, J8 m1 TCodec ID/Info                            : Picture based subtitle format used on BDs/HD-DVDs+ D9 A! p0 W' }; e% m5 O
Duration                                 : 1 h 38 min- q; \% ~* B- o5 T3 s2 u
Bit rate                                 : 36.2 kb/s& n1 t8 ], l0 ^# ]9 M
Count of elements                        : 1868
3 f6 K6 V; i% Q! ~Stream size                              : 25.5 MiB (0%)
3 z  E# t- _; B5 vLanguage                                 : Czech
  O$ W2 @* E( KDefault                                  : No: S! A0 j0 z$ R9 {; u& t
Forced                                   : No8 Y! O5 e7 [% Y+ I6 h( Y! v. F

5 D7 v( `* x( C! K6 r$ KText #61 X: h2 D9 \. x6 U7 ~9 c3 I
ID                                       : 9% [5 y7 ^# v1 s" \% i9 F1 B
Format                                   : PGS
+ R; m' Z2 O( t! ~Muxing mode                              : zlib# b) H9 g8 Z5 ?/ _6 }# h
Codec ID                                 : S_HDMV/PGS! g& O7 S# B* T: o1 I, i: |$ ~
Codec ID/Info                            : Picture based subtitle format used on BDs/HD-DVDs8 D- y; [. W8 I/ C/ A+ d: I
Duration                                 : 1 h 38 min1 H. r/ w& S9 {: D
Bit rate                                 : 40.5 kb/s! Z2 O. m% T5 K
Count of elements                        : 1506
! f3 R5 U; n" R1 c2 d- bStream size                              : 28.4 MiB (0%), {' o1 N2 j) g0 r7 \
Language                                 : Danish8 |) x. M, T9 Z8 J) J+ I
Default                                  : No( c  }0 s) z( U9 `9 Y! K
Forced                                   : No
: c. c! i8 g4 u. Q) R7 }  h4 U$ \
Text #7
* f! i  F5 w% _/ jID                                       : 105 }5 }3 V3 \. F
Format                                   : PGS  u& {, o/ k* d/ B0 V. I) z; s
Muxing mode                              : zlib
1 A* Y3 J4 i& y6 C  TCodec ID                                 : S_HDMV/PGS) ^5 t0 [; E- p! l# c' X
Codec ID/Info                            : Picture based subtitle format used on BDs/HD-DVDs
0 a9 \9 s5 ^3 k$ Q# @. QDuration                                 : 1 h 32 min& D5 b) `; h- C% S# ?( {* J: v! R
Bit rate                                 : 40.8 kb/s
/ L! m2 |; d1 }  @* aCount of elements                        : 1570
7 l' @- |1 z% cStream size                              : 27.1 MiB (0%)
' B) s: M. d) r$ B4 P( K8 `0 q, ?Language                                 : Dutch* H  t* `) \0 \* _! @/ @9 J6 i
Default                                  : No" q2 y% Z# K$ `  S7 h, W4 P
Forced                                   : No1 X( j5 I& O0 e2 \

- \/ t0 j! Y" l9 M" CText #8
, y- j( O6 [7 p. ZID                                       : 11
% H. N  }- X, E0 uFormat                                   : PGS, O- h$ [% {; h
Muxing mode                              : zlib
1 d( K1 r2 x- h! qCodec ID                                 : S_HDMV/PGS
9 I* J  V( R8 d8 z: o& G2 LCodec ID/Info                            : Picture based subtitle format used on BDs/HD-DVDs
0 U& X" j; \3 N4 c; O1 b9 XDuration                                 : 1 h 32 min
$ D6 g1 a+ c$ l" Z1 Q5 |Bit rate                                 : 48.4 kb/s
# a0 I2 Z/ k0 L3 XCount of elements                        : 1798
  e8 `- L! d( S0 A) q& G' AStream size                              : 32.1 MiB (0%)( J5 B8 \" S9 j
Language                                 : Finnish
# k  f; Q/ C2 c  S1 H! ^Default                                  : No1 W: W: x  t% v# H& c
Forced                                   : No
4 y4 N( C/ Q7 V. H* H7 o
2 g- C9 r0 @' N: C9 JText #9
5 I1 C1 t: ]! G: K7 V7 r/ WID                                       : 12$ E% ?8 L7 K# `; x& q% L8 q
Format                                   : PGS7 G0 H+ X5 S5 I' X
Muxing mode                              : zlib+ f3 F$ j/ B$ Q: X1 ~' X
Codec ID                                 : S_HDMV/PGS  B3 s) y  d/ }. g% V0 W& N9 x
Codec ID/Info                            : Picture based subtitle format used on BDs/HD-DVDs
) C" a  Q: X; k* o/ MDuration                                 : 1 h 38 min
  }' m& t9 q9 R5 L- j  K, X5 NBit rate                                 : 37.2 kb/s
9 y9 p% H) [0 v1 b$ V7 H. eCount of elements                        : 1622
. H0 B" o5 j( Q1 U1 p* M3 @Stream size                              : 26.2 MiB (0%)
$ H8 p* |* j3 xLanguage                                 : French
& o# E. [/ S/ J  e; [Default                                  : No
! j3 ^$ x6 G2 X( b8 |- @* O/ S- RForced                                   : No
$ U) w9 v/ N5 e! j' C0 D9 l( y" q9 N1 W$ ]# m
Text #103 f' o7 i' C& o4 _* Q
ID                                       : 13
( g( [. G9 E# Q2 e9 Y8 V# ~( CFormat                                   : PGS
7 {- Q1 l+ K% \6 D) G1 ~2 |Muxing mode                              : zlib
, c0 ^0 T* {% u6 \& LCodec ID                                 : S_HDMV/PGS, C4 o7 \& ]* |0 ~0 A
Codec ID/Info                            : Picture based subtitle format used on BDs/HD-DVDs
& x& h( A0 W- l5 Q) W2 zDuration                                 : 1 h 38 min. E5 h' j& d, s; o
Bit rate                                 : 51.2 kb/s
9 i$ a6 u9 Z6 m1 `; XCount of elements                        : 1902, p/ ~" q2 ~2 e1 [
Stream size                              : 36.2 MiB (0%)
, r0 h5 t7 S3 _Language                                 : German3 N% k1 a' D8 m9 O+ i
Default                                  : No
  ?7 ^& d/ G/ }3 sForced                                   : No" p9 y) R, L, v3 v  |0 E, e0 W

; |, [& t' _' @" G, OText #11
6 s& D. l0 c: w: s9 P. sID                                       : 14
- Q4 Q  G( l2 S  x3 R9 D1 Z. qFormat                                   : PGS
+ m! Z" D. @& H, qMuxing mode                              : zlib
6 D/ K& [, h" W6 W' RCodec ID                                 : S_HDMV/PGS1 B. u6 o2 s' t3 Q3 E' }
Codec ID/Info                            : Picture based subtitle format used on BDs/HD-DVDs
! S) i- T' E! ?2 a! q4 Y% YDuration                                 : 1 h 32 min  J" }4 j6 I: @' S( v0 z8 ?: f
Bit rate                                 : 50.8 kb/s+ B' Y6 X% M6 N; N0 A
Count of elements                        : 1862
6 L  v3 P' {! \3 G" G( ?! G* q/ zStream size                              : 33.7 MiB (0%)6 \; a5 Y7 O3 @8 @
Language                                 : Hungarian/ m2 i  Y. T) _0 K3 P
Default                                  : No
. D6 y! m9 M; h$ VForced                                   : No
( A, `1 {4 D" U1 D1 f7 F: [6 f- ]5 C# h
Text #12) m; p- }8 k# I+ |, s
ID                                       : 15
2 i, k0 s  q) u) kFormat                                   : PGS
1 _; B1 [7 A7 ^. t3 Q7 H% H  YMuxing mode                              : zlib- ]% P# y. d0 r3 T2 ^0 s
Codec ID                                 : S_HDMV/PGS
  t; w, d" P0 d: bCodec ID/Info                            : Picture based subtitle format used on BDs/HD-DVDs% {( L% b  Q- l5 v& v1 Z! T$ O
Duration                                 : 1 h 38 min- k7 R; o" V' Y! _( ]
Bit rate                                 : 52.5 kb/s
  K' [+ i2 a: B6 A# A/ QCount of elements                        : 1910
5 h- i! }& p7 a2 f: t2 h& PStream size                              : 37.0 MiB (0%)" f# l9 m+ ?# n- u. Q* C% j2 F
Language                                 : Indonesian4 E" y& H: x1 e, W
Default                                  : No
; y/ K6 V6 b+ x) ~; c5 m' _Forced                                   : No+ Y3 ~7 {# O! y1 j8 ^& u3 C

' x! q) S6 _6 E: h2 u- u9 tText #13
) C9 A/ E0 z; r5 }0 d, AID                                       : 16
0 Q/ r4 {# \4 z* c" tFormat                                   : PGS8 X2 d4 W0 y! {/ r3 s8 K7 _" _7 n( l8 i
Muxing mode                              : zlib
- Q: ?; x/ h2 @/ J7 TCodec ID                                 : S_HDMV/PGS' ?+ u9 v4 o  A7 M' T0 s+ C) w
Codec ID/Info                            : Picture based subtitle format used on BDs/HD-DVDs
) ^; b0 D  H) v' aDuration                                 : 1 h 38 min
9 X% Y' z: e3 i5 _! G+ ?" |- r* HBit rate                                 : 45.4 kb/s
1 X3 r4 }6 Z2 K3 i! Z* T7 aCount of elements                        : 1864& X: W. W/ t8 o
Stream size                              : 31.9 MiB (0%)
# T' F" L! Y' a1 WLanguage                                 : Norwegian' T0 U1 g8 P. S6 J! v& R* D
Default                                  : No
- B! ?& Q/ G$ g8 [" N2 o* \, xForced                                   : No. ^( C; g# d. K* k! a

3 _8 G1 D# B: ~1 v9 ?Text #14
: x; S: N" g8 I8 K5 c. ~+ O/ _- OID                                       : 17, S2 Z* C1 L! W' I" k
Format                                   : PGS
2 y, Y/ }/ a) Y. _3 o+ GMuxing mode                              : zlib
: c# U( j3 i; r9 v: FCodec ID                                 : S_HDMV/PGS9 X/ K2 g8 r4 g) j& Z
Codec ID/Info                            : Picture based subtitle format used on BDs/HD-DVDs
! u. c: s: [5 \# u+ FDuration                                 : 1 h 32 min/ ]5 L  ~# i. V) }3 `" b  Y
Bit rate                                 : 36.3 kb/s
/ [0 z  z9 ^- z4 c7 ]8 Y* O9 ]Count of elements                        : 1546
  @( a' F& I& {  IStream size                              : 24.1 MiB (0%)) s: a4 o: _1 F2 W6 d; T1 C" t
Language                                 : Polish8 g1 x6 c4 U; L' j( i  d
Default                                  : No
1 W# v5 ^( K" h* z( ?" n: t" I) @Forced                                   : No" n( C; }4 L  U
' h& {; m/ K& }$ h% o( a
Text #15
2 R  f0 K- n) U+ x# w" ?ID                                       : 18: F8 I  L* j) p7 W* ]3 A# b
Format                                   : PGS
& r* T& b1 s( E/ T2 S! J: S4 ^Muxing mode                              : zlib
" e1 ~! K8 P+ |9 g+ uCodec ID                                 : S_HDMV/PGS
) ]) v5 v% g/ d# VCodec ID/Info                            : Picture based subtitle format used on BDs/HD-DVDs0 W7 t1 q/ c: G! A- D1 {9 s
Duration                                 : 1 h 32 min3 T; c' d5 j2 U. g3 _/ V' V
Bit rate                                 : 49.1 kb/s
1 y5 ?5 ?# m8 O2 n" lCount of elements                        : 1816( L/ f9 r1 A; y
Stream size                              : 32.6 MiB (0%)( m: }8 N) z' i) y) V3 h1 a
Language                                 : Portuguese
. p' {  s6 r/ i4 S% P$ BDefault                                  : No7 c9 Q  x* {5 O; g. `, N
Forced                                   : No. f# _6 u3 X7 ]3 M, ^7 m

5 R6 G  Z; ]& l$ v% R) B' u, }" K: }Text #16% j/ [2 V' y) ?0 U! o7 H. }0 P# b
ID                                       : 19
9 z5 k/ R% @& qFormat                                   : PGS
- Y4 S& b# o. ~' F. z7 ZMuxing mode                              : zlib6 R! A, x4 `  |% @) b
Codec ID                                 : S_HDMV/PGS. t. w+ {3 {( h! v8 {" k
Codec ID/Info                            : Picture based subtitle format used on BDs/HD-DVDs4 i( }& ]/ K0 n# n( D5 C
Duration                                 : 1 h 32 min
9 c3 a8 \9 d% YBit rate                                 : 36.6 kb/s
9 D: ]; j; t+ A+ |; ^# O2 {Count of elements                        : 1258
2 b' r9 r+ u4 sStream size                              : 24.3 MiB (0%)
% J! f2 d! @' ?; ?Language                                 : Swedish
" L4 ^, t$ d" Q. ?Default                                  : No3 k. Z" \6 _5 l2 U. e' P. h! a
Forced                                   : No1 M+ y. U/ l) k. o$ t, [! `3 V2 K6 V

( P- y4 T# ~9 W! N( i1 ZText #17
9 b1 l& U; v" b  j5 v& wID                                       : 207 q: x4 I: h/ [) t) ]9 R
Format                                   : PGS( e) r5 C; J. Q' V
Muxing mode                              : zlib
3 u5 j& P4 D( [Codec ID                                 : S_HDMV/PGS# \" T- ?1 R& a! m
Codec ID/Info                            : Picture based subtitle format used on BDs/HD-DVDs. y1 W1 Y3 p$ [
Duration                                 : 1 h 38 min
* O" B/ A% n$ c) DBit rate                                 : 44.7 kb/s- \4 `- M+ n, t/ x& D. Y) J7 d9 S
Count of elements                        : 1846/ t2 u: Y1 L; s% p. |
Stream size                              : 31.5 MiB (0%)
5 Q( n- ~  @+ g5 i. U3 t9 x5 kLanguage                                 : Turkish
7 ~# _) X' W, S2 A9 `! f( hDefault                                  : No, y- Q7 r" u  l
Forced                                   : No
$ g) m' w( u' r
游客,查看本帖隐藏内容请回复 | 加入VIP可免积分免回复 了解详情 | 还不是会员:点击获取邀请码 Invitation Code

0

主题

1857

回帖

7684

积分

Sponsor

金币
20 枚
体力
3415 点

VIP蓝光勋章

QQ
jiyugen8180 发表于 2024-6-11 12:01:46 | 显示全部楼层
每天都来蓝光论坛看看,我爱蓝光电影。
# Y3 H) O" T; E' T) L& e5 J2 HBluraycd.com movie updates really fast, also did not release issued, whether you believe it or not, anyway, I believed!

31

主题

4222

回帖

2万

积分

Sponsor

金币
3171 枚
体力
10208 点
QQ
shiji1973 发表于 2024-6-11 15:03:27 | 显示全部楼层
看了LZ的帖子,我只想说一句很好很强大!""
, N% o2 R8 i2 J' F1 R' I& L9 e; I祝愿蓝光社区越办越好!I wish Blu-ray communities better and better!$ T# \# Y! u" Y

31

主题

4222

回帖

2万

积分

Sponsor

金币
3171 枚
体力
10208 点
QQ
shiji1973 发表于 2024-6-12 10:05:35 | 显示全部楼层
看了LZ的帖子,我只想说一句很好很强大!""
% |6 E8 q4 a' m2 g# TBlu-ray movies Community: my favorite!
  o* k' \) }: m& @2 [' b  b. i

0

主题

1857

回帖

7684

积分

Sponsor

金币
20 枚
体力
3415 点

VIP蓝光勋章

QQ
jiyugen8180 发表于 2024-6-12 11:50:13 | 显示全部楼层
啥也不说了,楼主就是给力!
/ t) y  i5 f6 T( _& ^Thank you for sharing such a good resource polite reply, very sorry for myself!
# K' Y7 j9 i6 D- @

本版积分规则

小黑屋|手机版|Archiver|4K蓝光论坛

GMT+8, 2024-6-21 09:46

Copyright © 2001-2021, Gadaddy Cloud.

快速回复 返回顶部 返回列表