BluRayCD Forum

 找回密码
 立即注册【分享大片】
查看: 16|回复: 2
收起左侧

[喜剧爱情] 飞驰人生2 [国语音轨 中文字幕] Pegasus 2 2024 1080p WEB-DL H264 AAC-TAG 6.03GB

[复制链接]

1万

主题

387

回帖

13万

积分

Post Share

金币
4477 枚
体力
33166 点

卓越贡献勋章VIP蓝光勋章诚信会员勋章

mvods 发表于 2024-6-15 01:41:07 | 显示全部楼层 |阅读模式
$ u  P2 A1 t% J  _

2 S& D: _$ Y) ~8 F! Q* e8 |7 _4 A◎片  名 飞驰人生2
' d4 _! D" Q: I) N◎译  名 Pegasus 2
" c5 l2 ~0 \9 h8 ?: Q' c◎年  代 2024
3 C2 O8 ~7 S: E9 N" M: Z' s* K& H◎产  地 中国大陆) x! ]8 ^- z! h  @: a
◎类  别 剧情/喜剧/运动
% L, Z& n9 Y& ~; W7 T◎语  言 汉语普通话
9 \" \7 l4 @) \8 F. i8 q◎上映日期 2024-02-10(中国大陆)0 ~% [: ?0 X4 Q
◎IMDb评分  7.0/10 from 866 users
5 u5 M% w5 D9 C9 Z# o% I◎IMDb链接  https://www.imdb.com/title/tt30829309/
0 k& t2 e' P# k  f. Q' f0 g( o$ J8 j◎豆瓣评分 7.6/10 from 646,227 users2 U# W2 o2 [/ W, B# ?, N0 N
◎豆瓣链接 https://movie.douban.com/subject/36369452/
; \( Q0 @4 b9 u. F◎片  长 2 h 1 min" N8 l& c8 }) q2 q
◎导  演 韩寒 Han Han4 i. g. x. Y- }: w3 |
◎编  剧 韩寒 Han Han
: n2 d' v! i& `: l◎演  员 沈腾 Teng Shen7 P/ P. q; c4 Q* N0 `; ^0 h  {
       范丞丞 Chengcheng Fan* ?0 ]  h( ?( m
       尹正 Zheng Yin
5 F( p) `9 Q* G& T       张本煜 Benyu Zhang1 ^- ^3 S- x% k: W! v+ O* P
       孙艺洲 Yizhou Sun; t4 U* T6 K' r- V$ e4 ^
       魏翔 Xiang Wei
2 k" u; j( j7 |7 Z       贾冰 Bing Jia
6 l1 G) _1 D: g2 \       郑恺 Kai Zheng3 c4 J: o$ Y5 i% ]
       冯绍峰 Shaofeng Feng! c9 M& i9 j+ h; u- P& Z& @
       黄景瑜 Johnny Huang
3 k0 \) `% l) N8 R6 ?       刘昊然 Haoran Liu
2 ]2 k& M+ |) k: D$ N4 R2 h; p       于适 Yosh Yu! B; ]  p9 \+ S
       胡先煦 Xianxu Hu
5 i' [2 Y' E: q" w; N       阎鹤祥 Hexiang Yan
+ n6 L6 L1 a" X8 |) y2 u       周野芒 Yemang Zhou
0 P. @* {' @9 i, ?) x! D$ L       高华阳 Zack Gao
1 t+ u8 F9 m8 j( o7 I# K  P- v       孙强 Qiang Sun) w. @. ?2 {) C2 d! p$ |* B
       范高翔 Gaoxiang Fan4 C' U8 y" B. \2 p6 G+ M
       郝瀚 Han Hao9 I5 q+ b2 j1 O* R. z5 ]

/ u# f' R9 ^/ m3 J3 o/ F5 W8 [◎简  介   / v* J. Y/ @: \3 I0 {

/ U( H' Q3 g2 l6 e1 W  昔日冠军车手张驰(沈腾 饰)沦为落魄驾校教练,过着靠脸吃饭勉强度日的生活。不料天上掉馅饼,濒临停产的老头乐车厂厂长(贾冰 饰)主动提出赞助张驰组建车队再闯最后一届巴音布鲁克拉力赛。面对这泼天的富贵,张驰蠢蠢欲动,而厂长背后真实的目的无人知晓……带资进队的车手厉小海(范丞丞 饰),看似单纯善良却为何有着与之身份毫不相符的超强天赋?张驰召集老朋友孙宇强(尹正 饰)和记星(张本煜 饰),与天才车手厉小海和总是考不过科目二的菜鸟驾校学员刘显德(孙艺洲 饰)组成了一个苦中作乐、鸡飞狗跳的草台班子,克服重重困难,笑料百出地奔赴赛场。这一次他将超越无数次出现在梦中的终点线……
/ [& d7 x- d/ A3 g$ ]
! r( @  H. @9 Y4 w& v& w4 ^$ m  A former rally driving champion, now down on his luck, finds new partners to re-enter a famed rally race.
2 R- c, f" V. G: U& ^
飞驰人生2[国语音轨/中文字幕].Pegasus.2.2024.1080p.WEB-DL.H264.AAC-TAG 6.03 GB6 @; `9 [! Z/ g. J+ l! ~
) U% E: Q6 S2 U; F- R) b' `
##### MediaInfo ######1 Q  q: m9 P2 G2 f
General
3 `8 V2 A( `( y  CComplete name : [飞驰人生2].Pegasus.2.2024.1080p.WEB-DL.H264.AAC-TAG.mp43 d# F  i) A0 E( L9 u/ B
Duration : 2 h 1 min1 p1 m3 W. ~; `* \7 |
Overall bit rate mode : Variable1 b* S1 |5 W/ G; J
Overall bit rate : 7 134 kb/s6 ]* j/ D8 m2 g6 R

6 z0 M6 y) c; T3 Q; H' r, X5 v2 uVideo' L0 b# l- f0 f2 a- U2 v( L+ B* j& X* A
ID : 1
$ K, I* r. P' GFormat : AVC
9 A2 U& K/ ?- Q, b: i: ?! `$ cFormat/Info : Advanced Video Codec
) A+ ?; z4 r5 B! R; n) _Format profile : High@L4
# S% _- [, c+ A8 i2 [" u/ EFormat settings : CABAC / 3 Ref Frames/ ]7 a, S% H2 t4 Q4 F+ q
Format settings, CABAC : Yes
0 `2 V8 s( {& f2 k# I% z8 BFormat settings, Reference frames : 3 frames+ N5 V- i" b/ m. y4 _* z& i: C
Format settings, GOP : M=3, N=50* {" F( F' s/ _) Q
Codec ID : avc1( R7 l6 K. L6 F
Codec ID/Info : Advanced Video Coding1 ^" t. h: ^' r0 c% M7 l% h
Duration : 2 h 1 min! k# b% S( M4 }
Source duration : 2 h 0 min7 ~1 _+ b* M) K  [! i1 s
Bit rate mode : Constant
0 f1 N0 R) Q+ Q5 MBit rate : 7 001 kb/s+ j  q7 X* t, D" T
Width : 1 920 pixels
, E- z% _$ e+ _' |0 n$ M' B  BHeight : 1 080 pixels
- M! r% f! ?" u: B- e( b5 {1 j) DDisplay aspect ratio : 16:9, S! }: z! n( A  A7 c, o
Frame rate mode : Constant8 y5 C1 u. p" t
Frame rate : 25.000 FPS* C* o: H, n5 T2 ~8 t9 ]3 D
Color space : YUV
( ~& b6 Y7 K4 ~( \* M( cChroma subsampling : 4:2:0$ X/ p# Q/ E( x4 |# J
Bit depth : 8 bits
6 X: q% j7 f) o% V. o9 U) BScan type : Progressive
4 a% X1 T  H9 [& O: R# O$ F' N% _; ]2 _Bits/(Pixel*Frame) : 0.135
- W! r9 w( @( |0 fStream size : 5.68 GiB (94%)% A: I2 E% L1 [3 A# w9 ^
Source stream size : 5.92 GiB (98%)
$ Z  b3 ~  v! Y: G+ nColor range : Limited. U9 s; o0 J! F: F. E7 T
Color primaries : BT.709
3 Z) N) y) y" Q% V6 H2 RTransfer characteristics : BT.709
5 m# P4 `# {3 L, gMatrix coefficients : BT.709
/ l% e1 K5 b: Y7 u: v$ n' W1 Q4 [Codec configuration box : avcC
/ g" C/ _4 A. z0 F0 O9 r
5 ^. O0 P1 G3 Q( }1 LAudio# O' N5 g, Q/ E5 C, S8 E
ID : 2$ \2 b, Q. p4 X1 s
Format : AAC LC. o, g( {, t" r
Format/Info : Advanced Audio Codec Low Complexity
# b: x6 o# J3 D. N& j7 uCodec ID : mp4a-40-23 M' Y9 o2 R& Q# O; l- z
Duration : 2 h 0 min
9 n* ^3 M0 h+ {) EBit rate mode : Variable* j9 p) ?/ e$ J& v( }
Bit rate : 125 kb/s
5 w4 v" w  ?: s- S3 S5 U0 uMaximum bit rate : 129 kb/s
9 \% X7 V: o. t. {+ V9 V) H6 F5 fChannel(s) : 2 channels
0 ^3 K8 r( g% e5 xChannel layout : L R" T% a7 I! c+ d
Sampling rate : 48.0 kHz
/ S6 j0 `6 S9 }: Q' vFrame rate : 46.875 FPS (1024 SPF)
* `5 k6 \0 E0 A4 c6 qCompression mode : Lossy. q# G, f5 j' U. z0 V5 \' n5 }
Stream size : 109 MiB (2%)6 n: E" U$ p/ T  K# N$ j
Default : Yes1 ~& \: u% B  u0 a$ S- ?3 m  X* o3 z
Alternate group : 1

) J% Z, f* ?( T9 l
# h; p( e+ z, f- b" w5 N* Y! p
游客,查看本帖隐藏内容请回复 | 加入VIP可免积分免回复 了解详情 | 还不是会员:点击获取邀请码 Invitation Code

1

主题

458

回帖

5632

积分

Sponsor

金币
10 枚
体力
4184 点
landsweet84117 发表于 2024-6-19 09:36:37 | 显示全部楼层
每天都来蓝光论坛看看,我爱蓝光电影。6 h3 T& ^+ r) F  i
In fact, I have always felt that the landlord of good taste! Ha ha!
6 G; _6 r) n5 a+ g" _0 U( _
蓝光论坛里 ...

本版积分规则

小黑屋|手机版|Archiver|4K蓝光论坛

GMT+8, 2024-7-21 07:11

Copyright © 2001-2021, Gadaddy Cloud.

快速回复 返回顶部 返回列表