BluRayCD Forum

 找回密码
 立即注册【分享大片】
查看: 5|回复: 0
收起左侧

[剧情悬疑] 漫长美好的星期五/美好的星期五 [重制版] The Long Good Friday 1980 REMASTERED 1080p BluRaycd x264-AMIABLE 10.94GB

[复制链接]

1万

主题

387

回帖

13万

积分

Post Share

金币
4477 枚
体力
33166 点

卓越贡献勋章VIP蓝光勋章诚信会员勋章

mvods 发表于 2024-6-15 03:02:51 | 显示全部楼层 |阅读模式
" d( L: Y2 g' b$ D# A* F

1 [1 }5 \1 A7 i  ?7 J9 w3 i# d◎译  名 漫长美好的星期五/美好的星期五/ L9 Q0 I3 b2 ~" y& r* e
◎片  名 The Long Good Friday / Črni petek za razbojnike. d; m/ T% j2 ^
◎年  代 1980- c& P$ B# G+ _# q+ `3 z
◎产  地 英国- a- W+ G8 m+ B. O# @
◎类  别 剧情/悬疑/惊悚/犯罪
( C. ?" Q2 Q6 M◎语  言 英语/法语
+ O0 U. x8 q; f2 O◎上映日期 1981-03-29(英国)$ e; H8 n8 z9 k( Z1 |, g) H" q1 \
◎IMDb评分  7.6/10 from 26,208 users4 @9 Z4 n/ g% e: [8 p: w- o
◎IMDb链接  https://www.imdb.com/title/tt0081070/
+ J3 L/ k6 ]9 w◎豆瓣评分 7.2/10 from 835 users
+ C# i6 L2 ^! K: V, K& l◎豆瓣链接 https://movie.douban.com/subject/1292848/
! v! j( V- h, n* a◎片  长 1 h 54 min0 C4 ]8 ?! U# z) _
◎导  演 约翰·麦肯齐 John Mackenzie- s2 T) H+ t" q2 h& T
◎编  剧 巴瑞·科菲 Barrie Keeffe
  r; P  A" P& Q0 Q; T◎主  演 鲍勃·霍斯金斯 Bob Hoskins' U1 |5 L" Q) v. y
       海伦·米伦 Helen Mirren3 T/ e+ r/ U. X: K
       戴夫·金 Dave King
, o0 }- w  c. l- _3 }3 y       埃迪·康斯坦丁 Eddie Constantine1 J9 \% e& |- j  J6 h; `' e
       皮尔斯·布鲁斯南 Pierce Brosnan# Z$ b, x# }; Y4 w; i+ ]/ m
       Roy Alon  }% y6 C8 i* K" l. `6 v
       保罗·巴伯 Paul Barber) x+ \$ h; U9 o5 J6 D: p; S
% d9 p# b0 S* q8 h! e0 K
◎标  签 英国 | 黑帮 | 犯罪 | 英国电影 | CC | 1980 | 1980s | JohnMackenzie' N; q9 `, {+ j' ]- l

0 H1 ^1 ]8 L3 J2 m2 b◎简  介2 B& E$ B% U$ u& p$ j0 d
8 Q' u4 m- P+ @& y* X6 l0 r- T
  奥斯卡提名男演员Bob Hoskins在本片中扮演伦敦黑社会的一名凶残的帮派首领。但是一天他准备和一个美国犯罪家族达成一笔交易之际,他的整个“帝国”突然开始坍塌。是谁这么胆大包天来进攻英国最野蛮的黑帮?他又会怎样去找寻真相?到底这一切的背后是谁在搞鬼呢?
+ p7 a0 ?9 E' c- w: \- e
# L! C% C0 j. O0 A6 n/ y7 D- |  Entrepreneurial mob boss Harold Shand runs an underworld empire but his dreams are much bigger. He and his sophisticated wife aspire to partner with American mobsters to turn the barren docklands of London into a development for the upcoming Olympics. But their perfect plan begins to unravel when a string of deadly bombings leads Shand to the stunning realization that he is being targeted by the IRA.4 F1 N. g" S: B2 c" s( D
The.Long.Good.Friday.1980.REMASTERED.1080p.BluRayCD.X264-AMIABLE 10.94 GB3 f  c% U0 ]# q8 K% @/ |

! H7 t, a% K' k; x0 ]0 SVideo+ h; E6 J6 U& g, C! `/ f0 F
ID : 1% V9 e! g1 g! u8 G) \" z6 q- ^
Format : AVC
  B% E3 m, d! eFormat/Info : Advanced Video Codec
) p6 J5 G0 F+ h. wFormat profile : High@L4.1
& g6 B) M( D# Y% e  C; F8 QFormat settings : CABAC / 4 Ref Frames: b; V9 V) c. L0 I* J
Format settings, CABAC : Yes
$ H! P( h9 j2 |) ]Format settings, Reference frames : 4 frames
& N6 n+ s1 d+ B- ZCodec ID : V_MPEG4/ISO/AVC: {/ K9 L5 q7 i) \, X  B0 ^
Duration : 1 h 54 min) |' k, y; u" }0 O- }0 y9 [6 L3 K
Bit rate : 13.1 Mb/s
5 Q' `( p2 T6 }  |6 H6 aWidth : 1 920 pixels& Y0 P% h! D$ h# B
Height : 1 040 pixels9 I3 Z% T5 ]2 H# l6 Z
Display aspect ratio : 1.85:1- N- b9 x2 u5 ?5 ^# K6 {) g
Frame rate mode : Constant
' s) ?2 p/ [1 b  KFrame rate : 23.976 (24000/1001/189150) FPS4 n0 Y% Q' X6 K: @: h) q$ [
Color space : YUV6 L/ H# [! e% o  a8 e
Chroma subsampling : 4:2:01 V' U% r, S% `+ {
Bit depth : 8 bits- s% ^" h" _4 p8 @8 S* D8 W
Scan type : Progressive
% \: ~! ^' s. W0 w! J* RBits/(Pixel*Frame) : 0.273) c8 X7 g1 p; A  F  e; E$ C
Stream size : 10.4 GiB (95%)
* t6 I/ M' w* j  t& h! r  G* L( aWriting library : x264 core 146 r2538 121396c+ A" y( i$ l, M- f2 b( p
Encoding settings : cabac=1 / ref=4 / deblock=1:-3:-3 / analyse=0x3:0x133 / me=umh / subme=10 / psy=1 / psy_rd=1.15:0.00 / mixed_ref=1 / me_range=32 / chroma_me=1 / trellis=2 / 8x8dct=1 / cqm=0 / deadzone=21,11 / fast_pskip=0 / chroma_qp_offset=-2 / threads=24 / lookahead_threads=4 / sliced_threads=0 / nr=0 / decimate=1 / interlaced=0 / bluray_compat=0 / constrained_intra=0 / bframes=8 / b_pyramid=2 / b_adapt=2 / b_bias=0 / direct=3 / weightb=1 / open_gop=0 / weightp=2 / keyint=240 / keyint_min=24 / scenecut=40 / intra_refresh=0 / rc_lookahead=60 / rc=2pass / mbtree=1 / bitrate=13085 / ratetol=1.0 / qcomp=0.60 / qpmin=0 / qpmax=69 / qpstep=4 / cplxblur=20.0 / qblur=0.5 / ip_ratio=1.40 / aq=3:0.70
+ r5 G8 @& _7 V  u0 JLanguage : English0 g& [' C. u) g3 [7 l" {( j
Default : Yes6 Z( F' ]4 t! e8 l3 C7 q
Forced : No1 i' }; p2 P+ j4 Q9 A
- z4 K! V2 _; @+ P- l
Audio7 O1 q. f. K8 j
ID : 2, w: u. \$ Q0 ?: S. f/ {
Format : AC-36 ?2 w: |& C& Q% X$ Z
Format/Info : Audio Coding 3
3 t2 s. t' ]- A& {* m! Z; uCommercial name : Dolby Digital3 H+ K& y6 D3 B+ n
Codec ID : A_AC3# q7 [$ O) N, v
Duration : 1 h 54 min
8 g, c# P$ T+ d- I9 R  J4 SBit rate mode : Constant" S7 s, |8 ^/ X$ g! Q
Bit rate : 640 kb/s
. Q8 C4 {) R$ u- b; |7 gChannel(s) : 1 channel
' k6 C) {2 c8 f7 O/ KChannel layout : C0 z# e; C3 V8 w" N" O
Sampling rate : 48.0 kHz4 z6 a" B- a6 `- I1 O) T, P5 j
Frame rate : 31.250 FPS (1536 SPF)# L8 X0 c8 g& F! O) y: N
Compression mode : Lossy: ?* u. c% J* F3 S) T
Stream size : 522 MiB (5%)9 v* d! e7 r  U9 L$ b
Language : English
0 F9 s0 g+ D/ X8 D( r- k8 tService kind : Complete Main
6 ~2 H8 B9 T& }. dDefault : Yes% X0 b- w8 y( j
Forced : No2 C/ _$ j* `  q

9 O1 `6 ]0 m6 \- t- I/ M, GText #1
: V( \- j: U8 l: x/ J5 zID : 3  {- ^; e' H/ r) d
Format : UTF-8
3 K5 p. V+ |- f, t3 ^$ aCodec ID : S_TEXT/UTF8+ U3 F+ ?% Y( {( v
Codec ID/Info : UTF-8 Plain Text1 }: Y! ]$ T: b8 k  S9 T
Duration : 1 h 47 min
3 H' Q5 p5 c+ l! b! s( g: cBit rate : 53 b/s6 ^: R0 S# H8 ~- Y) ^  K/ z% P7 S- B
Count of elements : 1168
. S% C. W' ?( K: L' O3 c  WStream size : 42.2 KiB (0%)* [8 C; r" M0 V+ {9 U
Language : English
6 `9 u+ n. ]" c6 qDefault : No
+ w9 N& B4 f6 G. JForced : No6 v8 P' j* Y7 ^7 v0 k) w
! a6 r# a0 `" H7 }8 T$ H  _6 Q5 i% h8 @% e  m
Text #2
& ^9 ~- v1 i$ M& q1 oID : 4
; u% A, Y( c& i  U5 o: |" x! _Format : UTF-8: e8 |; q8 ~; y, j+ O3 g9 I
Codec ID : S_TEXT/UTF8
6 ~. X2 U; t* ~& @6 x# {Codec ID/Info : UTF-8 Plain Text
5 ^6 w( Y; g# s5 s* A) PDuration : 1 h 48 min3 |1 O3 A+ G% E; x/ b
Bit rate : 55 b/s  e7 q, l4 _" b& p& [: u
Count of elements : 12629 T- c1 D- b$ M4 M2 _3 b+ s5 c
Stream size : 44.4 KiB (0%)1 W2 r; B: Z, p6 t& |% F: A; \
Title : SDH; M& a0 I( i4 }) G
Language : English
: a! \1 [  K6 e5 F" n) zDefault : No( r3 ]& }" o& Z, @" R6 H" Z# o
Forced : No
1 s& Q% i9 J3 R! N6 h* t
! a4 k) I6 ]  wMenu
. {% s. h! \2 P) Y! R00:00:00.000 : en:00:00:00.000
. @/ T; Z+ [/ a: S00:09:55.053 : en:00:09:55.053
+ y" n9 B) U; i" z6 T9 P( g/ f% q00:20:46.537 : en:00:20:46.537( Y0 V; i7 |. N3 [' c
00:28:46.099 : en:00:28:46.099& ~+ d: i! ^  N" [; u( w# U
00:39:08.763 : en:00:39:08.763
. _  |1 D+ y: t4 A! m7 k. w! {! _00:48:33.244 : en:00:48:33.244) G4 e* {$ e: \7 \) C. z6 ]8 F
00:56:41.481 : en:00:56:41.481+ o7 ^/ B7 T  z; C- o' V# q
01:07:28.378 : en:01:07:28.3786 [* `5 |: X! z0 I; V* M& T: S
01:14:13.866 : en:01:14:13.866
. E2 V5 `- ^7 N# R( r* S01:23:00.434 : en:01:23:00.434. t9 P) x* `8 T
01:36:27.573 : en:01:36:27.5731 [6 E' M" g" B9 n9 a* p6 _
01:44:21.088 : en:01:44:21.088

6 j% f1 N; j; \" E) K
游客,查看本帖隐藏内容请回复 | 加入VIP可免积分免回复 了解详情 | 还不是会员:点击获取邀请码 Invitation Code

本版积分规则

小黑屋|手机版|Archiver|4K蓝光论坛

GMT+8, 2024-7-21 05:55

Copyright © 2001-2021, Gadaddy Cloud.

快速回复 返回顶部 返回列表