BluRayCD Forum

 找回密码
 立即注册【分享大片】
查看: 57|回复: 8
收起左侧

[蓝光原盘] 国家要案/情妇谋杀案 [REMUX无损版] State Of Play 2009 1080p BluRaycd REMUX DTS-HD Master 5.1 VC1-BEN 29.40GB

[复制链接]

9255

主题

172

回帖

9万

积分

Post Share

金币
3204 枚
体力
28371 点

卓越贡献勋章

黄金嫖客 发表于 2024-6-24 00:50:12 | 显示全部楼层 |阅读模式
When a congressional aide is killed, a Washington, D.C. journalist starts investigating the case involving the Representative, his old college friend.
: B! Q1 z+ P1 o4 n" G# T7 b/ N
1.jpg 2 l# f1 @3 _& |
! H7 j3 r- F# ?# `- z0 N! l
◎译  名 国家要案/情妇谋杀案/政局密云/游戏进展/绝对阴谋
7 x6 f5 v3 @# v◎片  名 State of Play / Cuộc Chiến Cân Não
8 j/ Y: ]) e0 @" g- u) o◎年  代 2009: }7 l, w/ ?" i7 u
◎产  地 美国/英国/法国$ U1 k9 C2 t# L! A/ u
◎类  别 剧情/犯罪/悬疑/惊悚
8 p" K! e7 E' P$ A◎语  言 英语/粤语
& X; r4 T! [! T1 K◎上映日期 2009-08-18(中国大陆)/2009-04-17(美国)
1 O' h6 M9 }6 ~4 t◎IMDb评分  7.1/10 from 161,238 users
- E1 A( e. w2 U) f' ?◎IMDb链接  https://www.imdb.com/title/tt0473705/
  Y& T4 c) v- R' L# m- n; ?' G◎豆瓣评分 7.0/10 from 18,947 users: A8 x- G) t/ I# B( X1 [3 X; a
◎豆瓣链接 https://movie.douban.com/subject/1905786/% a( A  F! P. {
◎文件格式 x264 + DTS9 `: V, m3 X+ I7 A
◎视频尺寸 1920 x 1080
! @* i4 |# |1 |# V◎文件大小 1DVD 29.40 GiB! U& v) j* a' p' m/ k# R( c0 a4 N4 N
◎片  长 2 h 7 min; x+ U* G) ~# i6 H9 g7 a
◎导  演 凯文·麦克唐纳 Kevin Macdonald
7 Z% n- [) B- b& \2 ~0 b◎编  剧 马修·迈克尔·卡纳汉 Matthew Michael Carnahan
+ ?5 V, y: G, y) Y  H6 q, p# B       托尼·吉尔罗伊 Tony Gilroy
% \) [7 l/ c* ?; n  u0 Z6 V! I0 z       比利·雷 Billy Ray
, K+ p' ]' T1 H1 ^% G       保罗·艾伯特 Paul Abbott
8 t7 o' u1 t3 c7 f3 J◎演  员 罗素·克劳 Russell Crowe
  [, T$ `  l. T+ ]) e       本·阿弗莱克 Ben Affleck- Z5 y  q! x' K3 K8 w9 k6 T; @& \9 k
       瑞秋·麦克亚当斯 Rachel McAdams% |6 S) m# J8 {) O* e# P" P
       海伦·米伦 Helen Mirren) C4 O8 H0 {$ V
       罗宾·怀特 Robin Wright" k0 G9 B+ Z3 D
       杰森·贝特曼 Jason Bateman
% `: c$ r7 ]8 r. ?  @* H/ c0 h       杰夫·丹尼尔斯 Jeff Daniels$ G+ d; e: e; w4 e9 x' `- z
       迈克尔·贝雷瑟 Michael Berresse
; s" P$ [' L% c       哈里·列尼斯 Harry Lennix- W/ ]# ~2 _! M& {% @' O
       乔什·莫斯特尔 Josh Mostel
5 i  b6 e" T0 o2 L; c5 c  H       迈克尔·温斯顿 Michael Weston+ m9 j) q7 ]# {/ K0 p6 e  s
       巴里·沙巴卡·亨利 Barry Shabaka Henley  B2 N/ S4 B) H; o/ J
       维奥拉·戴维斯 Viola Davis/ ?, K4 }1 Y2 c' o; v) f
       大卫·哈伯 David Harbour
3 B5 q) m3 x9 Y( ^( p% d& V       塔克·米利甘 Tuck Milligan& M+ y! H0 M- n( V. G- X
       斯蒂夫·朴 Steve Park
5 U8 k+ W+ v+ H8 [, ]       布雷南·布朗 Brennan Brown6 i7 z& B/ z) y  w
       玛丽亚·泰耶尔 Maria Thayer# R  ?7 C" ~+ f
       温迪·麦基纳 Wendy Makkena0 w8 L) P6 O$ U+ B3 T2 A5 q' c# n
       佐伊·利斯特·琼斯 Zoe Lister Jones
2 Q8 w. }! j7 r$ \( j       迈克尔-杰斯 Michael Jace" [9 e1 O: g$ ]
       罗伯·本内迪克特 Rob Benedict; K' q9 X" h3 t2 h
       丹·布朗 Dan Brown  W7 F6 X5 l9 d
       凯蒂·米克松 Katy Mixon
% G7 I/ ]$ u) s* Z, k! l6 ]! u       肖恩·埃德尔曼 Shane Edelman
( {5 b. C" T/ `* ?4 Z  Q- I       格雷格·宾克利 Gregg Binkley
9 ?& [7 u; y: J9 k3 j       楚拉·M·马库斯 Trula M. Marcus
, d  M( P) s1 t! E+ l1 s: X' K       克里斯·马修斯 Chris Matthews
* I+ t+ ]; q( L8 w" d0 i       Lou Dobbs Lou Dobbs
2 J" o0 g# a* e! i       Lee von Ernst
4 l, x5 ]* E# r/ f* l0 e       唐·阿伯纳西 Don Abernathy
, c& S; L! m" e% H( [, c       Woody Andrews
, q- C& U; a. }5 l       Nora Bauer
) S0 k4 d1 t) f       阿什丽·贝尔 Ashley Bell* `: R! c. R" i5 {
       罗伯特·比齐克 Robert Bizik8 C4 b: T/ X1 [- v  _2 {7 l" R7 H
       劳拉·布莱斯 Laura Bryce
& x7 l- t; a) S6 H9 G' b1 m& D6 z       Bruce Allen Dawson3 W2 O: v! I+ {- @# k+ D3 Z  C
       保罗·迪兹 Paul Dietz
: A% ~) a, b8 S0 _       洛德斯·法比尔斯 Lourdes Faberes
. h# r6 S* \, r, N       利亚姆·费格森 Liam Ferguson
; y* X/ y1 v+ B9 X! K' q       大卫·福斯特 David Foster+ ^2 k2 Z/ l" [8 q
       Robert Maratea$ b$ {1 W3 X0 j; C
       帕特里克·迈克尔·斯特兰奇 Patrick Michael Strange
3 p/ Z4 l' l/ L  M3 u- Q- C# P       胡安·巴勃罗·维泽格 Juan Pablo Veizaga% W6 D. \+ w: g
       格雷戈·克罗 Greg Crowe) P  {" y* f: `, Y) T1 E
       斯蒂芬·扎列斯基 Stephen Zaleski, e8 i9 v, g& o' l& @( d8 a
       Kevin Leigh
& z, v! y- k/ Y4 a9 Q% l       Douglas Nelson, a' F' z1 }; Z
       埃里克·哈奇 Eric Hatch
1 }9 n: w$ G3 C+ K' M3 `) F8 z       Todd A. Langenfeld 2 J9 u: R0 n0 [  w0 Q6 w3 q
       Justin Mather: L2 c- C4 j& h
       马修·詹姆斯·居尔布兰松 Matthew James Gulbranson- U& F! B* r6 r: G$ q5 ~8 P3 ?
       Michael Ray Reed
: X5 K& F( B& ^. c: X* V       丹尼尔·费罗 Daniel Ferro$ g: W/ \/ r. K* s7 M: j# T' e
       David J. Smolar
0 f2 \% y" w4 y2 `# X1 P, C' @2 n6 @' h: }+ m9 O& ?& X* j" z+ L4 C
◎简  介) s! h$ F5 x) G2 O: ^( n
% ], C" N, Q' p  t* t$ y
  如日中天的华盛顿年轻议员史蒂文·柯林斯(本·阿弗莱克 Ben Affleck 饰)的女助手研究员突然遇害,柯林斯在针对军火商峰点公司的国会听证会上一时失态,致使婚外情曝光,成为众矢之的,只好跑去大学好友兼昔日竞选顾问,《华盛顿环球报》的资深记者卡尔·麦卡弗里(罗素·克劳 Russell Crowe 饰)家暂避。麦卡弗里在调查一起凶杀案的过程中偶然发现死者竟与柯林斯的已故女助手研究员有关。在同事德拉(瑞秋·迈克亚当斯 Rachel McAdams 饰)的帮助下,随着麦卡弗里的调查一步步深入,峰点公司内幕与国会议员的丑闻纷纷曝光。麦卡弗里面对新闻竞争、事件真相、昔日友情与社会公正的多股力量,最后报道究竟何去何从? 6 x/ H1 ?+ u* A! U

6 W0 E) R* |# d+ l! c" a2 B  Handsome, unflappable U.S. Congressman Stephen Collins is the future of his political party: an honorable appointee who serves as the chairman of a committee overseeing defense spending. All eyes are upon the rising star to be his party's contender for the upcoming presidential race. Until his research assistant/mistress is brutally murdered and buried secrets come tumbling out.
; i6 G" }, x" z4 ?, c
0 O) U$ n: l( `1 C- X7 [
State.Of.Play.2009.1080p.BluRayCD.REMUX.ENG.LATINO.CASTELLANO.PORTUGUESE.CZE.HUN.POL.RUS.THAI..DTS-HD.Master.VC.1-BEN  @9 e) U+ m, q, _7 D: Z

- X; M" G& h8 U: `0 k: H  nVideo
0 P) z+ B! _8 S: \5 }& d) cID                                       : 1" G; }  U3 S6 E' q
Format                                   : VC-1" p8 E* r7 z/ b0 ?
Format profile                           : Advanced@L31 X/ W" }1 m4 o* q* S2 u# D
Codec ID                                 : V_MS/VFW/FOURCC / WVC1% B6 n  b: v5 ~% I/ k9 N
Codec ID/Hint                            : Microsoft
4 R( h& w4 r$ Q( N: G' C; aDuration                                 : 2 h 7 min$ {# k( O" _" g' Q) C3 B$ ~
Bit rate                                 : 22.5 Mb/s
# r- ?" d- X( h7 n9 F8 u4 A, N3 AWidth                                    : 1 920 pixels
4 [# p8 `8 }0 H- T7 MHeight                                   : 1 080 pixels
! x+ d3 H1 b' {5 uDisplay aspect ratio                     : 16:99 V" v+ c' y, e, F$ Y" ?
Frame rate mode                          : Constant
4 Q8 Q. ]4 {3 ]# _' xFrame rate                               : 23.976 (24000/1001) FPS, R; `$ b! L9 I* D% Y7 \
Color space                              : YUV
9 Z( u: ^' _6 V5 i& A5 ]Chroma subsampling                       : 4:2:0/ \# X3 t' C! J' h: f' J
Bit depth                                : 8 bits
+ k: E  c0 N! O  X* NScan type                                : Progressive
% [' y& i% H& ECompression mode                         : Lossy8 g/ l1 k3 C* r
Bits/(Pixel*Frame)                       : 0.452
1 d& R3 m4 p0 zStream size                              : 20.0 GiB (68%)
8 z* c2 W3 ^. y' j% P9 i- yTitle                                    : BEN.THE.MEN5 c) \& E) ^% Y/ l! q+ g" ^
Language                                 : English
) o2 p7 P& X" u0 i( dDefault                                  : Yes6 J: E$ @/ H  P7 g! k! C# v
Forced                                   : Yes: S4 j( D% E% I- `. G8 P+ ~
, I9 H3 V. H- T. b' o' y
Audio #1* Z* b, D4 `% g1 B1 g
ID                                       : 2
2 m( X# h' H6 zFormat                                   : DTS XLL
! J) G: Z4 Y* W7 Q% w8 L/ eFormat/Info                              : Digital Theater Systems
" S0 t1 G, X; C$ \- ~0 s+ Y; T: ?: OCommercial name                          : DTS-HD Master Audio. @6 U4 L/ k* `$ \7 G8 A, u
Codec ID                                 : A_DTS' u* O8 n4 O) }
Duration                                 : 2 h 7 min
2 v( L+ B' D4 x& A% M+ L' ]1 ~; PBit rate mode                            : Variable
0 S/ m- B! \, u. l7 s4 T0 b1 ?Bit rate                                 : 3 604 kb/s
- D' r* G4 ]( e& VChannel(s)                               : 6 channels' g* L1 c+ H! [* Z1 S# b9 E
Channel layout                           : C L R Ls Rs LFE. ?# _, P# n  N# n4 @: u% P# n  K
Sampling rate                            : 48.0 kHz8 i" Z" P' N5 T% g3 ?" W$ u2 r
Frame rate                               : 93.750 FPS (512 SPF)" M7 p! `# b9 |( p! \
Bit depth                                : 24 bits1 W0 ^2 x4 r8 x- @
Compression mode                         : Lossless
) U2 ?1 `* K- w( A2 PStream size                              : 3.20 GiB (11%)
* [( v3 \7 m3 T. @7 W( KTitle                                    : BTM DTS-HD Master
6 R6 Q6 Z( m+ ^7 r) gLanguage                                 : English
  K: H4 N6 K- P' D" GDefault                                  : Yes
& t- z9 |! Q  KForced                                   : Yes
3 U1 P% x/ v9 I: A+ V( l" x9 |0 N* L: u, i, M" n2 Y) ]
Audio #2! p- X$ o! }# }+ p& z
ID                                       : 34 [7 g' I3 c, {- Z
Format                                   : AC-32 S; f5 B, F. e! U
Format/Info                              : Audio Coding 3
$ ^$ \6 {9 [5 L' Z! s( y1 ^* S! tCommercial name                          : Dolby Digital
( Y3 A' |+ t  Z" r3 ^! _" b8 YCodec ID                                 : A_AC3
3 h  a3 d8 i; }) ?+ ODuration                                 : 2 h 7 min0 Q! G* r* V! T$ I6 R! H, v6 ~
Bit rate mode                            : Constant+ u. @8 y9 N  @
Bit rate                                 : 640 kb/s
! a: ~4 N2 U) D7 O4 Z& cChannel(s)                               : 6 channels
* X, ]: E2 i4 r0 DChannel layout                           : L R C LFE Ls Rs; t2 ^* u( D  V, b& l$ I
Sampling rate                            : 48.0 kHz7 L; O# ?. r  h, B$ `6 G+ n
Frame rate                               : 31.250 FPS (1536 SPF)
9 B$ E( g; Z6 i4 y, j- b# ZCompression mode                         : Lossy
% p: ?8 m1 G4 B, F3 {) Y  g$ AStream size                              : 581 MiB (2%)# x8 v/ I, [& b2 a. b/ [
Title                                    : BTM DD 5.1
: }/ ~2 }7 x% ]Language                                 : English
/ I+ ^0 O6 k4 c: v; R1 P' mService kind                             : Complete Main+ `# S3 R$ P$ n# [/ G
Default                                  : No
$ f/ \5 R1 q% g2 WForced                                   : No
& ]) Z% N' T7 q5 k) aDialog Normalization                     : -31 dB
" G, D, H) s" d  c7 u- Wcmixlev                                  : -4.5 dB! e1 c6 ^" N# y% K' ^/ y) u0 G
surmixlev                                : -6 dB
4 Z$ Q  F* {7 ^6 q- _8 N6 j( ]. |dialnorm_Average                         : -31 dB
6 Y! M0 O. I$ C: `9 K( ?+ T: r8 Gdialnorm_Minimum                         : -31 dB
$ u. `5 q  t( {2 T: Odialnorm_Maximum                         : -31 dB# q6 n! l! ~* f5 f

0 a2 B5 r, e& W2 LAudio #3# J$ w+ U& r8 Z7 o6 @
ID                                       : 4
/ y$ D" b1 m9 G/ {7 R  oFormat                                   : DTS- d: m" K* |6 v! J5 h
Format/Info                              : Digital Theater Systems/ F. l# B' P0 l: u6 k4 e
Codec ID                                 : A_DTS# d( ?+ U+ N# _% ~+ M2 }7 S
Duration                                 : 2 h 7 min
- `! q7 }1 M, q% gBit rate mode                            : Constant
. ?* L1 w/ A2 E* z# q/ K; f) I6 lBit rate                                 : 768 kb/s
/ i. |. [, Q( [/ C8 i  UChannel(s)                               : 6 channels
, Y) v# [+ x% j3 A! e# {$ YChannel layout                           : C L R Ls Rs LFE- Q4 p" q' Z" B- z
Sampling rate                            : 48.0 kHz
# A: s% D. T4 ^6 z4 W% jFrame rate                               : 93.750 FPS (512 SPF)
( D( o# m. ^: s  L; tBit depth                                : 24 bits
: O' g, `* k/ }$ V" N- DCompression mode                         : Lossy- }& E! r( s7 N# Q" b. G* r
Stream size                              : 698 MiB (2%)
% ?4 v, g9 |5 h0 t/ c8 C9 c% eTitle                                    : BTM DTS 5.1; @; B" s' e' t9 c/ K' U+ U3 p0 h" h
Language                                 : Spanish/ g/ s; D0 S; V  r1 c# @
Default                                  : No( s+ q; H5 r) S: T+ w& S
Forced                                   : No
# ?9 _1 E$ z8 V( p0 c
& J9 o% H- Z4 x; Z2 \3 TAudio #4  n7 m' q) B6 r" ]/ Q
ID                                       : 51 u4 C/ W  h' c$ s8 B8 b  x
Format                                   : AC-3! l$ H9 K6 X" P, ^( G  p
Format/Info                              : Audio Coding 3
9 F6 P2 @. j- _8 b% G+ iCommercial name                          : Dolby Digital
* I  d6 o0 [( M2 d* W( B, l) zCodec ID                                 : A_AC3- [5 k. r7 ]- v6 b9 U
Duration                                 : 2 h 7 min7 q6 {' y' Z* [: o
Bit rate mode                            : Constant/ b# a- E0 C: d' d% H. }8 E1 ?+ H1 _
Bit rate                                 : 640 kb/s- d; V9 a5 V! z- y, Y& `
Channel(s)                               : 6 channels
3 k2 e$ U4 h3 @' e- n# l2 fChannel layout                           : L R C LFE Ls Rs% F( W* t/ W# q
Sampling rate                            : 48.0 kHz; p& k% _# ]+ |  e5 j
Frame rate                               : 31.250 FPS (1536 SPF)
, l8 b8 @0 |5 T1 y) @Compression mode                         : Lossy; a: I  u1 W2 a- l8 M+ X9 H
Stream size                              : 581 MiB (2%)% z- Z; v/ V/ i2 E
Title                                    : BTM DD 5.1
" x# ]) V4 ?/ g4 v8 \4 M4 I8 E& pLanguage                                 : Spanish0 a5 L; M1 E! x. n0 |
Service kind                             : Complete Main' a: ?: D+ _7 a5 W- U8 o
Default                                  : No
! @2 e* Y3 [; n* p) [Forced                                   : No
4 ?$ M4 C, q8 {9 i, K- b( RDialog Normalization                     : -31 dB6 ]* D! `! ^( q, N" T) |
cmixlev                                  : -4.5 dB
5 H7 ~; ]5 U, p# Z9 gsurmixlev                                : -6 dB
8 r8 D" j5 q+ R8 H5 Y; y) }dialnorm_Average                         : -31 dB6 e3 ~( o$ e: _( @+ i# V
dialnorm_Minimum                         : -31 dB2 R" @; T' _; D0 I* ^* U2 G  S. `+ r$ R
dialnorm_Maximum                         : -31 dB
  S& |' L0 e' w3 \7 ~: ~7 h0 g1 w
Audio #5
& e, h' t  F6 N- C1 i( g# {. sID                                       : 6
* ^  |5 _8 P$ O* r6 n. [Format                                   : DTS$ ]. ^) f3 N# o
Format/Info                              : Digital Theater Systems
4 |3 c  J4 {" x2 ^( I  _Codec ID                                 : A_DTS
  _" b+ ^+ K2 T6 Q" zDuration                                 : 2 h 7 min% S) q" J# Z( |$ w) ]0 s, E
Bit rate mode                            : Constant' W7 e/ c( L' }# `9 N/ R# e7 k! e
Bit rate                                 : 768 kb/s# i; ]1 ~9 w5 o( S
Channel(s)                               : 6 channels4 _. a3 n+ A) [2 R8 V7 a4 P: m
Channel layout                           : C L R Ls Rs LFE
0 K2 o5 `) s; j0 E/ ISampling rate                            : 48.0 kHz
( e- p; i6 I- n( _$ C* xFrame rate                               : 93.750 FPS (512 SPF)
7 S4 R: B$ ^$ ]" P0 SBit depth                                : 24 bits
7 c0 ?5 ?8 n" z! e2 p- ?- ^6 CCompression mode                         : Lossy
# K* x/ ~' s2 ]9 KStream size                              : 698 MiB (2%)2 w" X8 L# H1 h+ w% r2 H/ R; i( D5 l
Title                                    : BTM DTS 5.1
: A  v  j$ q' u( H: a3 E# B- eLanguage                                 : Portuguese- Y: Z; Z. N+ D
Default                                  : No
5 Z& q. n! D' v' }; k! }Forced                                   : No+ }' s8 T! V" K1 P
7 i4 f, h2 w+ A  v  s
Audio #60 J: P# i. h7 C# F3 }1 E& d
ID                                       : 78 q* ^5 j; @' Y  Y* `3 g. J
Format                                   : DTS
; N1 r' g+ d- f' CFormat/Info                              : Digital Theater Systems! ]& n; \5 L' }) A3 R5 o# g0 i& D8 s9 {
Codec ID                                 : A_DTS5 z8 k# Z0 e) N& a4 D4 }4 o
Duration                                 : 2 h 7 min3 }( d4 ?" s8 G
Bit rate mode                            : Constant+ t2 G; v* ~  I- f2 f2 g& k8 R2 C
Bit rate                                 : 768 kb/s
- S# `/ x+ @) I% M0 T$ D' TChannel(s)                               : 6 channels
- ~0 w) D. C3 X3 g% D7 AChannel layout                           : C L R Ls Rs LFE
* a( k+ Y3 J* GSampling rate                            : 48.0 kHz: ]4 w  ~  J# ^; Y5 `  u1 D
Frame rate                               : 93.750 FPS (512 SPF); X* _+ D5 W  Z8 [3 c
Bit depth                                : 24 bits0 H2 |8 l; }6 @( @8 u, P
Compression mode                         : Lossy# G; r0 \6 N: T' F4 G" Q
Stream size                              : 698 MiB (2%)
) ]* ^+ E6 E1 M: A6 ?: T5 OTitle                                    : BTM DTS 5.16 G5 S/ b8 ]+ b# @4 c: c
Language                                 : Czech" y" B  V# G7 H2 S
Default                                  : No
- u# \/ @* P- d# m6 H& z+ bForced                                   : No8 W6 ^' d; X+ A: e

5 c( I7 r% s) X( `5 J8 C& \" N2 ^( iAudio #7
( K- l' n' ^# a5 l# p' nID                                       : 8
- J- k/ r  C5 R! n! q/ GFormat                                   : DTS
7 U$ I; g/ |: u8 Z  s! {# s4 I+ JFormat/Info                              : Digital Theater Systems5 q* Z" j; ?0 L# S# ]2 X
Codec ID                                 : A_DTS
' [0 l/ d# p$ ?' l* y( u$ {Duration                                 : 2 h 7 min
9 ^' O; b* D/ ~; A# HBit rate mode                            : Constant
1 w4 A. L, F4 e* t+ N) f8 ~Bit rate                                 : 768 kb/s3 n( Y3 F+ O; _; h4 h  v8 w* N2 M
Channel(s)                               : 6 channels
( Y3 ?! H- d" i: U& U4 ~9 iChannel layout                           : C L R Ls Rs LFE; s" z. f- j! j- G2 a4 x, J
Sampling rate                            : 48.0 kHz! J) L( a/ m$ j; b9 G
Frame rate                               : 93.750 FPS (512 SPF)/ ~3 [  a" R; L! G* \) P
Bit depth                                : 24 bits( k. Y0 I+ X+ A! M" k  P) Z# b/ R
Compression mode                         : Lossy
* Z6 h3 I2 W9 A9 s  k& P3 m4 ZStream size                              : 698 MiB (2%)
& e& y& Q) M0 O$ M! ^7 N9 QTitle                                    : BTM DTS 5.1
" A7 d/ T' P5 g; |6 \Language                                 : Hungarian. h7 K: L6 t$ ~1 L
Default                                  : No
$ z  a8 t$ z' h8 `. n3 L$ U* KForced                                   : No
0 o0 y" Q  d. d0 z* F2 d- j. U3 Z9 X$ c4 T" v, i1 z
Audio #83 @  T: X4 ?1 h) Q6 q
ID                                       : 9
4 J5 B$ Z' d: x3 }- ~( VFormat                                   : DTS9 l5 N* g5 D, d$ m# q# R! s& A
Format/Info                              : Digital Theater Systems6 l1 x1 g$ e# d$ r& n7 a
Codec ID                                 : A_DTS, k8 j+ g' C, G/ J  i  R2 h
Duration                                 : 2 h 7 min: r$ f* s/ c/ w" F3 V& |8 f& _. F
Bit rate mode                            : Constant
. w. r$ u% l6 S; |6 l& Z& _* m/ uBit rate                                 : 768 kb/s
  T! f  {/ C. mChannel(s)                               : 6 channels
: R% V) |; d9 A& E/ y9 T9 SChannel layout                           : C L R Ls Rs LFE7 A5 \6 N" z& `4 E5 K' B0 |
Sampling rate                            : 48.0 kHz1 l5 d- o- G: t9 p$ f  J# ^# `+ H
Frame rate                               : 93.750 FPS (512 SPF)
% _. }: k$ `/ v* `Bit depth                                : 24 bits7 J, ^' I! P6 F" v* d, q! {  J
Compression mode                         : Lossy
, O6 n; W+ |+ }( u+ OStream size                              : 698 MiB (2%)
" m, z: v8 {' v3 L! [! R# @% HTitle                                    : BTM DTS 5.1* w% g) O6 w! |0 c! t( Z
Language                                 : Polish
: E4 r# x/ z) {Default                                  : No. h. H; F# U8 j8 y% V% E2 `
Forced                                   : No# @( p6 A, n3 U) f3 p

0 ^$ \# V6 @0 o) w  A0 U2 H2 K; G- [" OAudio #9/ l5 a: _) c  D7 K; B9 _! O
ID                                       : 10
0 O& z- J: b  S. ^Format                                   : DTS
* \. _3 j+ ]$ C4 f) f" fFormat/Info                              : Digital Theater Systems9 u1 O. N3 j: i! l3 l( k
Codec ID                                 : A_DTS7 Y9 ?7 l/ S9 @6 W+ [7 f- O
Duration                                 : 2 h 7 min; a6 |" R2 s9 ~0 R" @* k3 u
Bit rate mode                            : Constant$ ]4 n& ?6 w8 _
Bit rate                                 : 768 kb/s1 v+ v4 Z9 r! k( E4 q1 u
Channel(s)                               : 6 channels
# C3 O& E1 A5 P% D  PChannel layout                           : C L R Ls Rs LFE
/ v0 F4 u3 E3 k3 O3 s* wSampling rate                            : 48.0 kHz* e8 Z: j' n! m# N' Y/ d
Frame rate                               : 93.750 FPS (512 SPF)1 G* J. I7 o( l+ q. o8 A
Bit depth                                : 24 bits# ]" \! }% r% J$ |3 g. d. @
Compression mode                         : Lossy: G& |& y5 Y6 g: U- |. O0 a
Stream size                              : 698 MiB (2%)/ a8 m. t) E+ h( a. U) M
Title                                    : BTM DTS 5.1
" C5 _6 i7 n9 `) a8 ]1 X; vLanguage                                 : Russian
5 o6 O, v- a- v6 R& i: y" jDefault                                  : No
* H+ \# E7 e5 R! N( vForced                                   : No
; @0 n' ^4 R+ v: q' i' T+ ]/ V  v
1 u. p4 [  |2 L* \5 E1 M8 G$ k! iAudio #104 L2 ^: u% K3 R& p8 Z; e
ID                                       : 11+ X* z1 {' C: l
Format                                   : DTS
; v9 d  Z0 y& D0 m/ R8 pFormat/Info                              : Digital Theater Systems
7 K$ x+ i' ^8 i$ HCodec ID                                 : A_DTS/ y5 U( f% A& h' ~" X2 A! W, h
Duration                                 : 2 h 7 min; F. y6 D+ B  Z
Bit rate mode                            : Constant
# @9 X8 |0 k$ N+ I8 W* e) J- aBit rate                                 : 768 kb/s# u  R1 w( s. x
Channel(s)                               : 6 channels
! G" p% {7 t+ D" SChannel layout                           : C L R Ls Rs LFE
+ v) D- W5 D' \: iSampling rate                            : 48.0 kHz" x* X+ @* W) ^/ d
Frame rate                               : 93.750 FPS (512 SPF)' o8 y; t$ @) h$ _7 a9 g
Bit depth                                : 24 bits
! ^: B9 N) U6 D) Y* B/ oCompression mode                         : Lossy
4 K! k# [; X$ }7 o7 |6 H$ w" FStream size                              : 698 MiB (2%)4 g/ r) F! v6 H  g$ M
Title                                    : BTM DTS 5.19 F/ c/ V8 n$ m" D5 m  s
Language                                 : Thai% Y) R5 S: R  P) g% [0 ?
Default                                  : No
! h% u& e3 v  R/ MForced                                   : No
* [2 q1 M7 y3 t. j( r9 g
+ `: l+ j  U5 {1 ?3 nAudio #11
; t7 d% t" x# l6 m0 G' z3 XID                                       : 12
9 [& E% P0 \0 n8 \' k2 cFormat                                   : DTS LBR
1 M' q/ g, \% m! T. _" _0 f9 A( rFormat/Info                              : Digital Theater Systems
* y  G& B& v. V9 nCommercial name                          : DTS Express5 }* J# `1 A' ]# A/ ^7 e; f
Codec ID                                 : A_DTS5 |! ]9 E/ y7 q7 f/ p/ j5 L
Duration                                 : 2 h 7 min, D/ Y9 _7 o) J* y
Bit rate mode                            : Constant
, D' G6 g  B; D+ O* `2 b6 MBit rate                                 : 192 kb/s% S+ r! k' \6 {
Channel(s)                               : 2 channels; o2 R; D9 y' E1 r/ f$ h
Channel layout                           : L R
( p8 z* [3 h: }" q7 Q# H0 O* iSampling rate                            : 48.0 kHz% h7 H( \( {" Z' S3 h
Frame rate                               : 11.719 FPS (4096 SPF)
, r7 f: a" o5 n! K# S7 QBit depth                                : 24 bits" p* I3 d1 G# [
Compression mode                         : Lossy
: O5 ^  L* `! v( L; `0 rStream size                              : 174 MiB (1%)
3 c; V1 k' m$ c( eTitle                                    : BTM Commentary3 f# X/ D, |- ]
Language                                 : English
1 O: l: {6 X) o+ |: HDefault                                  : No$ l+ F6 D. c$ ?9 I
Forced                                   : No

0 M! a6 D$ G! q8 k
游客,查看本帖隐藏内容请回复 | 加入VIP可免积分免回复 了解详情 | 还不是会员:点击获取邀请码 Invitation Code

0

主题

2035

回帖

8390

积分

Sponsor

金币
688 枚
体力
3702 点
zzk980220 发表于 2024-6-24 13:00:49 | 显示全部楼层
啥也不说了,楼主就是给力!' D, W! r; E; _0 c
Blu-ray Film Forum is now my home!  E+ s1 R3 \1 b8 N0 c( M$ ?5 _

0

主题

986

回帖

5192

积分

Sponsor

金币
196 枚
体力
3051 点
QQ
一见哈哈笑 发表于 2024-6-24 23:09:36 | 显示全部楼层
感谢楼主,感谢!

31

主题

4319

回帖

2万

积分

Sponsor

金币
3244 枚
体力
10389 点
QQ
shiji1973 发表于 2024-6-25 11:26:28 | 显示全部楼层
啥也不说了,楼主就是给力!* _3 Y0 p4 n1 }" q! _
Thank you for sharing such a good resource polite reply, very sorry for myself!
  I' F. e0 P; l7 c% ]4 y' u

0

主题

1172

回帖

5284

积分

Sponsor

金币
30 枚
体力
2859 点
sclzywxl 发表于 2024-6-26 20:47:23 | 显示全部楼层
每天都来蓝光论坛看看,我爱蓝光电影。2 l0 J0 E& b6 G+ j" X
The decisive Replies sink is I get the sinking feeling great sense of accomplishment!
- r. s& ?1 a8 r6 x7 ^

0

主题

1875

回帖

7782

积分

Sponsor

金币
6 枚
体力
3488 点

VIP蓝光勋章

QQ
jiyugen8180 发表于 2024-6-27 20:22:54 | 显示全部楼层
每天都来蓝光论坛看看,我爱蓝光电影。6 z0 b/ B! X$ {% M/ O
After reading the posts have nothing to do I Amoy posts!( t2 c" A* X2 j; h8 L4 T6 L

0

主题

1195

回帖

6380

积分

Sponsor

金币
161 枚
体力
3763 点
xpg050811 发表于 2024-6-28 16:32:18 | 显示全部楼层
啥也不说了,楼主就是给力!
2 n- v7 Y/ S7 a要想蓝光电影论坛发展好,资源多,就靠你我他!To the development of Blu-ray movies forum, resources and more depend on you and me!
. q& E& q3 L! n$ h

2

主题

974

回帖

6065

积分

Sponsor

金币
450 枚
体力
3710 点
QQ
ccfys888 发表于 2024-7-1 00:02:45 | 显示全部楼层
每天都来蓝光论坛看看,我爱蓝光电影。/ z4 l% r" S. j5 S7 k& s" O7 h% T
Blu-ray Film Forum: I will always support you!
, y# A# H9 _: e0 ]8 ]: r! B# V

0

主题

2697

回帖

9451

积分

Sponsor

金币
251 枚
体力
4102 点
QQ
fangfang789 发表于 前天 23:00 | 显示全部楼层
每天都来蓝光论坛看看,我爱蓝光电影。
+ r7 }+ s+ t; t& `祝愿蓝光社区越办越好!I wish Blu-ray communities better and better!
. c7 d4 Q- D# v: @$ I7 @7 ?

本版积分规则

小黑屋|手机版|Archiver|4K蓝光论坛

GMT+8, 2024-7-21 06:42

Copyright © 2001-2021, Gadaddy Cloud.

快速回复 返回顶部 返回列表