BluRayCD Forum

 找回密码
 立即注册【分享大片】
查看: 33|回复: 7
收起左侧

[蓝光原盘] 布袋头/纸袋头 [REMUX无损版 自带简繁英字幕] Baghead 2023 1080p BluRaycd REMUX AVC TrueHD 7.1-Z@X 23.54GB & 25.05GB

[复制链接]

9255

主题

172

回帖

9万

积分

Post Share

金币
3204 枚
体力
28371 点

卓越贡献勋章

黄金嫖客 发表于 2024-7-1 23:47:04 | 显示全部楼层 |阅读模式
1.jpg 7 T7 J. p& t& q2 @. _
( X: B$ B- ~$ V* m3 @
◎译  名 布袋头/纸袋头 % W5 L, ~; P* m# x4 J, |2 L- r3 X
◎片  名 Baghead , u8 h/ h9 `0 h5 M5 w1 J. W6 B
◎年  代 2023
2 b- k" i& q# x' V9 `3 B$ ^◎产  地 美国/德国/英国: M9 B/ D! Z: H6 m8 z- L+ i
◎类  别 剧情/惊悚/恐怖
2 w! d% ^$ e) V! [. Y6 @0 Y◎语  言 英语. b- I4 }6 X2 m% @. j0 f* L; q
◎上映日期 2023-12-28(德国)
0 e7 ], B+ \7 L! o◎IMDb评分  5.4/10 from 8,632 users1 b( R2 J5 \5 r# j3 s, y1 C
◎IMDb链接  https://www.imdb.com/title/tt14030816/
0 p$ g5 k4 M, W% g2 T◎豆瓣评分 5.8/10 from 3,448 users. l* Q! {# n/ I" Y$ q, h
◎豆瓣链接 https://movie.douban.com/subject/35027791/
, |; Y( |3 X0 R1 q  {5 ]◎文件格式 x264 + DTS + TrueHD + {2 u5 `# t( l5 l" i+ q' T# {3 A! s- o
◎视频尺寸 1920 x 10806 j- @6 T) n6 G6 u, f8 ^, [3 Y" `
◎文件大小 1DVD 23.54 GiB & 25.05 GiB
) |6 t% s' d+ `- l8 U( H3 N; p◎片  长 1 h 35 min
" |! z, }- D8 W+ K/ T5 E2 T8 l( |: t◎导  演 阿尔贝托·科雷多尔 Alberto Corredor
- X' B# I/ W0 W0 O) [) x; k% t) k◎编  剧 克里斯蒂娜·帕米斯 Christina Pamies
' F$ c" d7 h7 ]0 I; j; ]       布莱斯·麦奎尔 Bryce McGuire
7 j" L) }3 t6 {' K3 n       洛肯·赖利 Lorcan Reilly
6 I  r  O/ e: h2 f1 O. t: J0 [2 u6 g◎演  员 弗蕾娅·艾伦 Freya Allan
4 Z) K9 T+ Z3 w' l7 b4 v  h$ I       萨弗蓉·布罗斯 Saffron Burrows; ^: J1 Y0 D' {) {
       彼得·穆兰 Peter Mullan. R3 W! _: x* u; C) q
       奈德·丹内利 Ned Dennehy
0 M3 `! S! L5 g  }       杰瑞米·艾文 Jeremy Irvine: t9 n' F9 r7 Q- C( I
       思文佳·永 Svenja Jung$ k- B4 J  x9 _
       朱莉卡·詹金斯 Julika Jenkins
3 Y# B# O1 z& _  H       鲁比·巴克 Ruby Barker
; O8 _5 ^, A: Q# q" S8 T/ ^. T       安妮·穆勒 Anne Müller5 R/ |7 j; K; ?: A

% a  w" Q) y! x0 C$ c◎简  介   
! M# y: b9 e8 H- G8 m
/ ^* q- @) o! M5 H  一位年轻女子继承了一家破旧的酒吧,并在其地下室发现了一个黑暗的秘密——Baghead——一种变形的生物,可以让你与失去的亲人交谈,但并非没有后果。. P4 Z, E6 o% V. K) L1 i. d0 B' f
( T0 y* e2 o, F
  A young woman inherits a run-down pub and discovers a dark secret within its basement - Baghead - a shape-shifting creature that will let you speak to lost loved ones, but not without consequence.4 M2 o, u3 f8 R( i& _; L
Baghead.2023.1080p.BluRayCD.REMUX.AVC.TrueHD.7.1-Z@X 23.54 GB; _+ `. O0 K' n6 V

& K' D: d) k% ]" XVideo
- D1 p0 N3 a  r. l* y/ fID                                       : 1
- o! k3 K- S+ z/ a: uID in the original source medium         : 4113 (0x1011)
+ A0 h$ h& i& p5 r$ F* ]Format                                   : AVC
/ m, L0 V5 C0 J7 v! F0 KFormat/Info                              : Advanced Video Codec2 K& R2 n5 r8 U0 ~$ g. i
Format profile                           : High@L4.1+ T' A8 F, n2 Y0 [0 W1 _
Format settings                          : CABAC / 4 Ref Frames$ Q+ |9 x3 |( |: U9 o5 P% W( a
Format settings, CABAC                   : Yes3 E7 ^) B# ^+ E* ^% o9 n7 i' j8 @
Format settings, Reference frames        : 4 frames/ v' M5 y4 M, O: z
Format settings, Slice count             : 4 slices per frame: G* R* U% Z6 z+ @0 _: M! f" k
Codec ID                                 : V_MPEG4/ISO/AVC
: E0 Q# r0 |, S! v* p' VDuration                                 : 1 h 35 min
: X6 I4 R' B4 }0 v1 Y5 vBit rate mode                            : Variable* V* t" C5 e( X+ [
Bit rate                                 : 29.8 Mb/s
* f& O1 l+ E8 E. \& qMaximum bit rate                         : 33.0 Mb/s4 }7 L' Q! }9 a: c9 u; \  b- G
Width                                    : 1 920 pixels
8 r# }/ |) K( bHeight                                   : 1 080 pixels
( w7 _8 l$ T% W# ~. tDisplay aspect ratio                     : 16:9
! c  A6 j* K, I; q/ b; DFrame rate mode                          : Constant
2 d- Q+ o- t0 BFrame rate                               : 24.000 FPS
  \3 a! y1 j$ H, QColor space                              : YUV
, c" W1 N6 n7 l) R6 A$ L/ j9 qChroma subsampling                       : 4:2:0
  l4 T% t, ~% w* H7 [Bit depth                                : 8 bits1 |$ P" @+ h. G7 `5 k. d1 D
Scan type                                : Progressive
1 B" {' H* J: P" O# m8 C+ R, J+ |Bits/(Pixel*Frame)                       : 0.5986 `6 P; s1 u% E8 D
Time code of first frame                 : 00:00:00:00  S/ |$ o4 @% q1 b; [; ^
Stream size                              : 19.8 GiB (84%)7 b, D3 {) A+ W# e4 }
Title                                    : HSaber <-|-> Z@X
0 C& [* I" P# `. @- a- n8 i5 sLanguage                                 : English
; l+ i7 ~5 g) dDefault                                  : Yes
) X0 x. y0 R. K" yForced                                   : No
1 M; Q/ Y$ x7 I: B. c; dOriginal source medium                   : Blu-ray$ ^; y7 e1 D- N7 n% D* u2 r2 f
, m4 k; o0 D0 e/ B# R
Audio #1
2 @, O" L3 k* I( P: \: sID                                       : 2
6 ~6 D& H7 S3 |6 T5 J9 h4 l# oID in the original source medium         : 4353 (0x1101)! c1 Y* A- S$ T" @: s# G' T: M$ b
Format                                   : MLP FBA 16-ch
8 E* D7 k  [7 D( q# JFormat/Info                              : Meridian Lossless Packing FBA with 16-channel presentation
; `  J8 k( n  g* n) Y/ [0 MCommercial name                          : Dolby TrueHD with Dolby Atmos
8 y7 [( A6 |1 a4 pCodec ID                                 : A_TRUEHD
' @& A  h) o* R( m4 p7 BDuration                                 : 1 h 35 min
9 m7 I, ]0 x4 {4 z  N% Z) ABit rate mode                            : Variable- A/ L! L0 x/ n& p- h
Bit rate                                 : 3 453 kb/s! F2 E/ D+ |: y1 U
Maximum bit rate                         : 5 688 kb/s( V" X8 Z3 f3 T
Channel(s)                               : 8 channels
" t1 F5 K0 }7 ^Channel layout                           : L R C LFE Ls Rs Lb Rb/ ~7 b9 r. i/ o; a1 B
Sampling rate                            : 48.0 kHz
8 I# I% O' T& I2 x, @Frame rate                               : 1 200.000 FPS (40 SPF)+ W5 d. [9 |- d5 U
Bit depth                                : 24 bits
) m+ W% p7 e% B5 V+ e/ O! [Compression mode                         : Lossless
- N! O3 A/ b/ R1 U& F* s4 w# fStream size                              : 2.29 GiB (10%); M* O% z& {  f! |5 [( K5 S
Title                                    : TrueHD Atmos 7.15 o/ G9 x/ Q) M. ^9 }0 u; i* F
Language                                 : English! W0 r& T8 c- g# G$ A6 c
Default                                  : Yes
4 h- e# @9 f& b5 o4 XForced                                   : No
& M0 X; R" t+ C  T- v* hOriginal source medium                   : Blu-ray. N8 W. _1 ^& X
Number of dynamic objects                : 13
3 N- E' x2 ~% H& s/ V5 l) WBed channel count                        : 1 channel+ M, g: x- E5 f+ P4 o% s
Bed channel configuration                : LFE
: X2 a* l- A5 g4 B. V, U1 Y4 t, m5 Z$ ?  p9 k2 `
Audio #2+ O. o/ S9 W. @# d/ u0 p
ID                                       : 3
6 D# ?2 R" I9 l( k, y1 L5 V$ V& @Format                                   : E-AC-3* g& s0 p$ M; {  V/ R$ y
Format/Info                              : Enhanced AC-3* d5 O! x" M& U! O$ d
Commercial name                          : Dolby Digital Plus
2 |2 I5 U3 H, |# cFormat profile                           : Blu-ray Disc, P% r3 C: \$ V5 w2 w
Format settings                          : Dolby Surround EX
- A+ {6 ]6 J: j* C2 Z: rCodec ID                                 : A_EAC3
: g* `7 v! z( _Duration                                 : 1 h 35 min
. j) |/ s. K" e3 x4 l! HBit rate mode                            : Constant; F! v* i( ^  C' \( m# W4 x
Bit rate                                 : 1 536 kb/s
" T+ V( J/ R' AChannel(s)                               : 8 channels' h0 Q2 i6 c/ @2 V0 O. y
Channel layout                           : L R C LFE Ls Rs Lb Rb' r, m, `, a5 p) e+ f/ \$ k
Sampling rate                            : 48.0 kHz
- ^0 z, v$ p7 S4 v4 B  XFrame rate                               : 31.250 FPS (1536 SPF)
" x% ]% R" v: E' L% lCompression mode                         : Lossy
  m8 n8 k9 \3 d( c) q+ zStream size                              : 1.02 GiB (4%); y% N5 ?3 N4 T. V8 b
Title                                    : Dolby Digital Plus 7.1
0 b$ {! V- c. F, P) g2 @* @Language                                 : English
0 m6 d* \% q8 EService kind                             : Complete Main
, T% _  o# S+ [& k2 r2 HDefault                                  : Yes
% O9 q2 }/ E; u; S& iForced                                   : No
+ \+ T, M+ q3 a( Y8 hDialog Normalization                     : -31 dB
, X# M! J. \1 ^* a2 {compr                                    : -0.28 dB1 Q& H2 h" x* @* T. F" }
cmixlev                                  : -3.0 dB# c) v2 \  W# U/ ]$ W, [& d
surmixlev                                : -3 dB6 A  q7 Z7 p* _! l% s9 O0 N- C
dmixmod                                  : Lt/Rt. [" k' Q/ w1 K" s9 D
ltrtcmixlev                              : -1.5 dB
1 v: k' B! P" L0 \& G6 S( o& sltrtsurmixlev                            : -1.5 dB
/ _6 g% z: O# E: r1 s8 Zlorocmixlev                              : -1.5 dB
! l  L/ V- P# l) c' `% b* elorosurmixlev                            : -1.5 dB
" e. s7 t. z1 i" A: Y+ pdialnorm_Average                         : -31 dB
3 U! j7 r# u& p% x9 ddialnorm_Minimum                         : -31 dB
# w' z$ u: v3 Vdialnorm_Maximum                         : -31 dB" h7 o/ c% f  f+ Y  a& B8 B$ a
" Q9 _/ z9 w3 `' I
Audio #3
" M6 ?. T7 @3 z; I4 A, M# W3 ]ID                                       : 4
+ R* [+ d2 z  jFormat                                   : E-AC-3
; j4 R1 g2 H- Z: p; BFormat/Info                              : Enhanced AC-3
1 K' E8 S8 `# e, OCommercial name                          : Dolby Digital Plus, U4 `  D9 C0 V. G% r
Codec ID                                 : A_EAC37 V8 m) w- O) [" X
Duration                                 : 1 h 34 min
& p  w  e7 d; V2 YBit rate mode                            : Constant
# |6 n, t# r" ?" S9 s7 BBit rate                                 : 640 kb/s+ u# v1 h% z" k- e' f9 _* v4 j
Channel(s)                               : 6 channels
4 O9 n8 R/ Q! u8 c; gChannel layout                           : L R C LFE Ls Rs
3 {" x& _% x' }1 L% Z( z& N( m$ z8 zSampling rate                            : 48.0 kHz- g, ~) H! Q5 D% v
Frame rate                               : 31.250 FPS (1536 SPF)4 A+ L: l9 L6 ~1 }: ]1 Q
Compression mode                         : Lossy
. N- G( ~' Y1 P. ?' ~. \" \Delay relative to video                  : 12 ms: g: B& X4 g/ R% s4 `4 r) l9 x
Stream size                              : 435 MiB (2%)! J7 n0 d- U9 k: {: ?3 |9 _
Title                                    : Dolby Digital Plus 5.1
6 M9 c( ]% m9 W3 qLanguage                                 : English3 x) W6 p8 l( w4 B) ?& H/ r
Service kind                             : Complete Main! N+ Q& p& e  {
Default                                  : Yes9 J0 }+ f6 k; ^
Forced                                   : No* |5 O; ~$ c: T( w' P% Z/ F5 E  [
Dialog Normalization                     : -31 dB$ E4 d8 [' R" G. ]/ I; w
compr                                    : -0.28 dB  u- T7 l( f5 m4 p4 B2 Z
dialnorm_Average                         : -31 dB
0 z1 s3 Z3 D0 m! U% jdialnorm_Minimum                         : -31 dB
; @% Q! i# e' M/ ^' }3 |dialnorm_Maximum                         : -31 dB$ C6 c. Y1 y6 T
, _8 z6 ~9 L+ b5 i1 d! a
Text #1
: f# z8 D7 o9 ^- w9 g! k# T- z( JID                                       : 56 t, \3 i, ~3 \; w4 `; ~! k* F
Format                                   : UTF-8! r7 {  a% d5 f+ }1 \
Codec ID                                 : S_TEXT/UTF85 H8 d, n: S& o3 m' ~5 r
Codec ID/Info                            : UTF-8 Plain Text8 v  s% q- I' P7 _; |
Duration                                 : 1 h 24 min
( `+ p! E! O5 j$ g2 j" ~Bit rate                                 : 63 b/s
. p5 v# q0 [& x, s, rFrame rate                               : 0.169 FPS
6 g+ d+ E7 _% ?# E, mCount of elements                        : 856: k: g" {! {; R  O' V+ y4 @8 h
Stream size                              : 39.0 KiB (0%)  n  l0 G+ h2 n. W2 {
Title                                    : Arabic
: p( H, q4 V. x  M$ e  Y  aLanguage                                 : Arabic
1 j+ f( {1 [. G4 m; kDefault                                  : Yes
  [1 b$ h8 D# P1 J5 A2 p4 QForced                                   : No
) Y1 C. ~& l5 _" I  u! v+ S$ S: m; _; t. p
Text #2" s/ y8 z* d. q3 F% i. ^" z7 T
ID                                       : 6% o% z/ k, b) z' n
Format                                   : UTF-8" ?. N  x2 ]) y- R  w
Codec ID                                 : S_TEXT/UTF8$ R; S1 ]: B8 n3 D1 r, C
Codec ID/Info                            : UTF-8 Plain Text
0 x( ^9 @3 N( b3 ~' y+ H, S' |Duration                                 : 1 h 23 min
5 n4 n5 ^; Q2 v4 uBit rate                                 : 41 b/s' L' r: f% L  I  e4 l. x) t% {3 N, K
Frame rate                               : 0.173 FPS
% p/ G' @0 w/ E& K# \! F% U) nCount of elements                        : 871
) q6 ]! Y* N* RStream size                              : 25.7 KiB (0%)/ B7 Z: ?$ _. Y. _. o# b
Title                                    : Croatian
+ b' N1 W: j$ P0 G6 D3 TLanguage                                 : Croatian
. J- T" C" B& {$ W$ O8 `2 GDefault                                  : Yes1 {8 g: u9 c! i
Forced                                   : No4 f" ?4 ]: }/ X: m4 e
3 O/ Q8 V$ {# F3 b2 r
Text #3& n" N5 J7 z- M9 j1 w3 U
ID                                       : 7
  {; r0 e5 H& r8 i. wFormat                                   : UTF-8
0 x% H4 \& @' [  h' UCodec ID                                 : S_TEXT/UTF8% j3 j: c6 P& T8 O7 I
Codec ID/Info                            : UTF-8 Plain Text" d2 Z: x3 T& P
Duration                                 : 1 h 23 min
/ T! q% \. i7 I) ]' p- U- ]& wBit rate                                 : 39 b/s
+ ^% p- g# ?& |8 E4 k8 `0 YFrame rate                               : 0.155 FPS9 h% I) z) D: D3 {
Count of elements                        : 7805 W& {. l# f6 I& B2 h7 f( _
Stream size                              : 24.0 KiB (0%)8 O2 C* y/ T" k- z2 `
Title                                    : Czech
& P0 T, N0 }& x  d; pLanguage                                 : Czech
, r8 v5 C1 i' ?0 IDefault                                  : Yes  K# h/ Y; j, A) H4 C$ I8 x1 N8 N, P
Forced                                   : No
: ^$ L0 d% @% s2 a0 ^
8 ~5 I5 M! r. f' a4 b7 @0 W( AText #4
% P4 Q  {* {4 C" R, `" CID                                       : 83 h6 \* U" R' e; i
Format                                   : UTF-8
  e8 E$ j5 [/ F) U3 ECodec ID                                 : S_TEXT/UTF8% A" u  N5 j2 I" n0 X/ B
Codec ID/Info                            : UTF-8 Plain Text. R$ `3 R, g) u! D6 ?2 @& D$ V% L
Duration                                 : 1 h 23 min
/ @/ D! T( C# I- c$ `Bit rate                                 : 44 b/s+ Z8 s5 @' P, ^. |% M% G7 I
Frame rate                               : 0.156 FPS+ }' n+ e6 D# {0 }1 w* W& V* r$ ^
Count of elements                        : 785
" y5 [% H& I  j1 H! f1 A  o5 vStream size                              : 27.3 KiB (0%)
& q. O3 ?( |% g( H4 F. GTitle                                    : Dutch3 j, x: Y3 P, W0 {: j/ J/ A( O) J) j
Language                                 : Dutch8 T/ P% b& Z) E, v: G' |" F3 i" s
Default                                  : Yes) K8 O( C2 W+ i3 ~; F+ p% F& b
Forced                                   : No
- T& R3 G; l" }( A. E: ^6 b. H# ?6 R8 s
Text #5/ [7 h8 h0 Y# G2 |6 O" \# f& a+ e1 a; }
ID                                       : 9
8 K7 {: u, H: g2 x9 D  GFormat                                   : UTF-8
- X0 ?2 R( A; V+ |Codec ID                                 : S_TEXT/UTF8& w7 [$ m% o2 f0 \8 Q3 _( @
Codec ID/Info                            : UTF-8 Plain Text
4 e/ {' |+ P; MDuration                                 : 1 h 23 min1 ?5 l8 v  w6 Y& w' L) |
Bit rate                                 : 42 b/s8 f. o, @5 d, ?2 a) A+ r# G
Frame rate                               : 0.174 FPS
# ?2 o4 r2 {$ u2 ?% |' ]& j, _Count of elements                        : 8730 ~( Z5 j) K: P; R# r' O
Stream size                              : 26.3 KiB (0%)! U* b1 X+ w; q5 ]7 v4 ^
Title                                    : English
! }* v- J7 o: }1 iLanguage                                 : English (US)
6 {* S8 z' W2 ~' {: z% x' o8 PDefault                                  : Yes3 p# _) x9 T& \9 N
Forced                                   : No
/ W" L$ }4 W) r2 ~2 }. g: \" ], l" @
Text #6
5 t# a% V8 h' S1 P0 QID                                       : 10
! A- E! P3 K9 b* CFormat                                   : UTF-8
: p! `& v  h# C( G8 ~) h& TCodec ID                                 : S_TEXT/UTF80 B* r+ H2 O+ f! [5 a6 ]) u' x
Codec ID/Info                            : UTF-8 Plain Text
# }1 r3 C+ x. MDuration                                 : 1 h 27 min
, S# G/ i* s* u1 u2 {  ~  sBit rate                                 : 48 b/s' Q( `; P! n# x: f  |
Frame rate                               : 0.214 FPS
1 f/ N5 ^3 u" E$ e8 ?$ PCount of elements                        : 1128
9 @  Q: D4 ]  Y; H+ N; `Stream size                              : 31.4 KiB (0%)
9 A; v4 \0 x7 o4 lTitle                                    : English (SDH)
; @8 Q6 V$ K* J. Q- N. ~Language                                 : English (US), T3 A( w5 {  p; R( F  s1 n. r
Default                                  : Yes4 E+ ^, p5 \* m- b- U' U
Forced                                   : No
- @2 Z, K( T/ @0 N& t
1 i8 e3 N& I( B- b, }/ WText #7$ I0 ^  F: M" x/ M  d
ID                                       : 110 u) A, |' m2 n; i9 o
Format                                   : UTF-8" n- K2 d: j, u2 y
Codec ID                                 : S_TEXT/UTF8+ S1 D; }& M  @8 Z" ?; \
Codec ID/Info                            : UTF-8 Plain Text* L& X+ I0 |4 g6 ?! Y* ?6 @
Duration                                 : 1 h 26 min
8 z: B4 ~" t" S. SBit rate                                 : 56 b/s
2 h7 r& \# }- S* r" L/ TFrame rate                               : 0.205 FPS
- U) B) m  A( j" T+ w" UCount of elements                        : 1068( F9 q" s% l* M4 l" [
Stream size                              : 35.7 KiB (0%)( r5 A4 ?/ E+ @4 A) {3 [
Title                                    : French (SDH)* r/ H0 c4 i* ~* T
Language                                 : French
/ B# O  S6 r! n) M6 S4 E9 LDefault                                  : Yes
/ Y2 r" p- j4 U  b: t" v. H+ E9 F' b% OForced                                   : No9 P4 B+ k; U1 r1 |
; O4 }: R5 N0 b
Text #81 R1 J- X& L5 I# s1 N1 b& K3 f
ID                                       : 12
+ @. {& l- U8 g$ @Format                                   : UTF-8- H- ^/ ?# u6 Q+ O6 V1 E0 x
Codec ID                                 : S_TEXT/UTF8: P# k& H- r8 T- |) ^" m0 i
Codec ID/Info                            : UTF-8 Plain Text
6 g, P, X4 J4 y- O" }Duration                                 : 1 h 33 min
+ E7 x3 I9 p* QBit rate                                 : 36 b/s
; r# L  B" w: Q' HFrame rate                               : 0.130 FPS
% F9 F" c1 N" Z/ iCount of elements                        : 729/ _* q% }" P) O& ]9 i; A5 @
Stream size                              : 24.7 KiB (0%)
' `6 }* @" h- Q( v0 z1 W  q% ITitle                                    : German
. X" T* j. n8 n0 [* o% b/ q* f1 YLanguage                                 : German& t! }8 Q4 H9 }
Default                                  : Yes* d+ r3 {9 E  }$ Y
Forced                                   : No$ S3 f7 {7 E7 E6 ]! `( x+ s
' Y: {5 f( e6 b; {
Text #99 d3 o/ W$ ]5 {
ID                                       : 13
+ v; g" X6 E/ B/ Q, [$ PFormat                                   : UTF-8
" [5 s/ X: d; N2 hCodec ID                                 : S_TEXT/UTF81 C! O. c# x2 F% K1 r
Codec ID/Info                            : UTF-8 Plain Text
2 P$ S% u3 b8 R: q+ [Duration                                 : 1 h 34 min
2 v& M) d, V5 o( LBit rate                                 : 50 b/s
/ R& Q) J0 g1 W0 W; ~3 n: uFrame rate                               : 0.206 FPS
$ Q) a% k# o) V" i; r& oCount of elements                        : 1166
- d0 X, O- y3 b, ^' D/ eStream size                              : 34.8 KiB (0%)' ^3 ^/ f: R& Q7 s; k1 \9 e
Title                                    : German (SDH)
* _# t/ _: U* b/ P: Y5 m6 d4 PLanguage                                 : German0 x9 c5 p$ Y: u
Default                                  : Yes
4 H5 c5 O& I/ m' Y6 P" E( w4 a1 rForced                                   : No
4 f7 M9 B" O2 Q
  W4 U& H7 r8 T) u( ?7 X6 e. hText #10' d, q4 j2 |8 e. \3 ^, n; d) `
ID                                       : 142 d6 X+ j, U7 W
Format                                   : UTF-8
, p+ L1 z* {5 p* Q7 D2 c$ ^5 _Codec ID                                 : S_TEXT/UTF8* E5 M' v: u$ Q4 Y
Codec ID/Info                            : UTF-8 Plain Text2 I* Y3 |' f: _$ R
Duration                                 : 1 h 23 min# D; B+ o7 s- f8 x1 P4 N
Bit rate                                 : 42 b/s
+ X. a/ O: _$ J: g3 B6 ^4 AFrame rate                               : 0.173 FPS
6 _" F7 X/ L  L4 X( x1 ACount of elements                        : 869; G- B" \+ q1 S% [. F
Stream size                              : 26.1 KiB (0%)
+ ]; @" u( C; s2 R4 m1 ?Title                                    : Hungarian" _  b/ }% i1 `
Language                                 : Hungarian" _0 x' E. e2 X1 x
Default                                  : Yes
* d0 o6 T* f0 ~# _9 ]* K4 PForced                                   : No
3 K4 k$ |' O; ^& a# B1 ?/ i* ?) s- o. h* Z9 m4 V( u! m. O
Text #11
, }' r0 |0 R: _9 _5 p! F1 ?8 I" }ID                                       : 15
8 ]) `1 V& s1 w5 {, ~8 r* A8 nFormat                                   : UTF-8
3 w" q' W' w" _5 f. J2 HCodec ID                                 : S_TEXT/UTF8
  l- T6 @+ q  s* Q6 U) Z0 f8 A& tCodec ID/Info                            : UTF-8 Plain Text
' v9 l; z- `+ s8 k5 Q+ }- bDuration                                 : 1 h 24 min
+ r/ _  k" g9 e/ O0 s6 J/ t6 S) zBit rate                                 : 40 b/s" O. N, ^, N9 k! G
Frame rate                               : 0.181 FPS
& u9 V2 e8 E, i% k* \, zCount of elements                        : 913
2 b. D4 W7 S6 p# F; [: H. Q8 h6 DStream size                              : 25.3 KiB (0%)
7 B' Q2 T2 l+ b6 H3 CTitle                                    : Portuguese8 e- {( X) p# _$ t! n0 W8 D5 I! G& u
Language                                 : Portuguese
1 c8 R; W: \1 v/ c& M: zDefault                                  : Yes
' h/ N2 H9 V" z' C( gForced                                   : No
6 E, J/ k( T6 o% L4 X7 G. d$ A- E9 c8 c. H. G' U
Text #12) w; k: [+ G3 |4 B% [! D: r
ID                                       : 16
% U0 i; v2 W  N9 F9 MFormat                                   : UTF-8. V' ?$ v/ Y% m5 G' i7 B
Codec ID                                 : S_TEXT/UTF8  x" ^: S$ b: h
Codec ID/Info                            : UTF-8 Plain Text
- Z/ v! o5 W4 ~/ ?Duration                                 : 1 h 24 min3 A1 L/ ^, ~3 u+ v
Bit rate                                 : 68 b/s
3 R) s( e7 b& X) q" }( J: X  L6 LFrame rate                               : 0.195 FPS
; V4 w" p" M9 L7 z- n& @! NCount of elements                        : 986
9 s6 v* a5 N9 N: S( {' w$ b: RStream size                              : 42.2 KiB (0%)/ A: Q" I3 V( n( n' X
Title                                    : Russian
/ B5 N6 j9 p% w, SLanguage                                 : Russian+ x3 d3 i& F  F1 q' X& D% T
Default                                  : Yes
+ ]9 c! R0 A* d# f' S  S+ bForced                                   : No: Q8 K7 Q& {2 x# s) |, o

; T# z3 N2 M) t2 O; AText #13
1 r- l/ L3 O7 |ID                                       : 171 A5 ^7 G+ c7 r" c
Format                                   : UTF-8& e. l0 a5 v# d# k0 J, }4 B0 _
Codec ID                                 : S_TEXT/UTF8
% \8 L! b7 H1 ?4 yCodec ID/Info                            : UTF-8 Plain Text
) R6 v, J9 u8 W& y$ R' r3 h- dDuration                                 : 1 h 23 min
/ F. C: k/ W4 Y( T  T, xBit rate                                 : 41 b/s" R7 B) _  H7 g% V' i6 L; U
Frame rate                               : 0.168 FPS! b  U" l) y  E
Count of elements                        : 843" A9 q0 v5 l% \: [
Stream size                              : 25.3 KiB (0%)
; s! Q; p, X  a. QTitle                                    : Romanian2 g$ [9 j7 D5 H' B& ~
Language                                 : Romanian
7 V! y5 z# _; ~/ m3 m% @5 PDefault                                  : Yes; y8 q9 Y9 k$ D2 c7 e
Forced                                   : No0 S1 D+ Z+ w0 h  r5 Y

1 ^4 O# x( L9 Q0 v9 U" C0 kText #141 J( ?% U/ j" W' t/ q8 X, k) o
ID                                       : 183 y( `6 x  Y! a. o+ K! p! L
Format                                   : UTF-88 z0 L1 p7 Y6 ~6 |# ~0 b
Codec ID                                 : S_TEXT/UTF86 {6 c9 P) h! g7 g5 N, ]
Codec ID/Info                            : UTF-8 Plain Text7 X  |" Q1 `$ n$ {" i% K. T
Duration                                 : 1 h 24 min
+ [) g' H( F4 w6 YBit rate                                 : 43 b/s' r' e& C3 ^7 U4 C8 k
Frame rate                               : 0.180 FPS
/ J4 }8 ~  @1 XCount of elements                        : 9097 l) T4 f, D4 [2 Z  c8 l# V
Stream size                              : 27.0 KiB (0%)
/ g0 f3 f8 o0 [, f  i. {5 jTitle                                    : Spanish) D+ E3 O6 `1 W( [* f
Language                                 : Spanish" V* l8 Z9 s& Q9 z4 ?  m/ a
Default                                  : Yes
$ Y3 ^" p5 W+ f1 V* X% IForced                                   : No0 l5 r3 Y& N0 e. X6 N5 ^8 X
  N+ {& E' o3 i' S" R  h2 V0 n# s
Menu
8 |% t7 _" x  x: ?00:00:00.000                             : en:Chapter 01  i/ {7 C1 ~% N6 `6 D  c
00:10:41.041                             : en:Chapter 02* R& [6 j! V) N; G
00:19:48.708                             : en:Chapter 03, _1 ~# ?8 G8 `2 x% R
00:31:31.625                             : en:Chapter 04
! b: y, W9 h& G& H00:41:06.750                             : en:Chapter 05" _5 E, ]2 _1 c6 [+ |" m/ v
00:50:20.958                             : en:Chapter 06# |3 W( M+ d# C/ B. j
00:58:31.875                             : en:Chapter 07, J0 r) v) c+ f9 E9 q$ a4 C
01:08:23.833                             : en:Chapter 08, h& y/ F' c1 w0 P- D% b; q
01:15:42.166                             : en:Chapter 09
7 b6 w. M3 i7 a7 v$ u8 |01:26:23.791                             : en:Chapter 10
布袋头 [简繁英字幕] Baghead.2023.BluRaycd.REMUX.AVC.1080p.TrueHD.7.1-DreamHD 25.05 GB0 ]% o+ h. y1 H% _+ Y5 N/ j  N3 }% c

1 K7 Q9 Y$ G5 W: H( B& ^' q/ N- E##### MediaInfo ######/ w. x1 @2 y) Y- [
General/ W! N' n" i1 g1 Q+ D
Unique ID : 150007691983979426549137238056052724600 (0x70DA6E3B047E005911178661A7641378)2 @- d9 A6 i. J4 K- W: y
Complete name : Baghead 2023 BluRay Remux AVC 1080p TrueHD7.1-DreamHD.mkv
: v6 V. C5 Q) h# M" EDuration : 1 h 35 min
9 a$ p4 o- ~$ G$ A  pOverall bit rate mode : Variable
2 n4 \- g9 z( b8 r+ _- _5 TOverall bit rate : 37.7 Mb/s
6 `1 J9 A, b6 D
6 w. d! \( {! N' r7 `8 FVideo
3 e8 Z) Q" u! e  k  PID : 1
- t' E- Y; y9 EID in the original source medium : 4113 (0x1011)
/ W5 ]6 {' ^/ Q# M- p- X# w; xFormat : AVC/ E2 g* L  h4 j1 ?( [3 ^: c4 _
Format/Info : Advanced Video Codec
; e; q. |; t& T- iFormat profile : High@L4.1" ~1 s$ k+ C7 h( t
Format settings : CABAC / 4 Ref Frames
; d7 W% }0 ?* x5 K8 XFormat settings, CABAC : Yes
' \0 w+ r* P2 Q; [( cFormat settings, Reference frames : 4 frames
9 \. d- y5 F8 o5 B) _Codec ID : V_MPEG4/ISO/AVC
! D2 Q/ t9 i4 a. R3 P/ h: M- c% NDuration : 1 h 35 min# K' c) ~: t) }" b& y! j' Z
Bit rate mode : Variable
) N5 B7 T8 }7 ?: c$ C( LBit rate : 29.8 Mb/s4 A' p2 h5 _: t+ w1 j7 D& k
Maximum bit rate : 33.0 Mb/s
, h- J* \/ L# C3 uWidth : 1 920 pixels
$ x" \% t" b& `- O- |1 d% XHeight : 1 080 pixels, e4 a" O: K) M- q+ G5 Y
Display aspect ratio : 16:97 }( T6 T+ @6 r. ]
Frame rate mode : Constant
- x) M% k8 a: B/ {5 sFrame rate : 24.000 FPS% D6 C) a( T/ x2 `# G& [
Color space : YUV* h( A$ i  b  B% D
Chroma subsampling : 4:2:0
2 r0 A# G0 Z8 X3 W4 Y5 kBit depth : 8 bits( o$ [! d- h# M6 f* D7 V4 Z
Scan type : Progressive" H  g4 T, S0 d
Bits/(Pixel*Frame) : 0.598
+ A7 M" [& w3 m) K, P' I" Y0 A& rStream size : 19.8 GiB (79%)
3 d- z8 ^! n' t0 vTitle : 9b653fb6f3ad392fdd1ee9c4c4903a80b0ef8215e1e1a21a202badd568f8d2b6765f324d2742c4c9b33a0798792d78b2d1d8f1cbccd3f80e8d16a62aeeb328ff1 E, @! g% u+ f; Q  l' Q
Default : Yes
& {2 r) k5 h" `3 u+ C* q% BForced : No" K4 B' v+ d2 [
Original source medium : Blu-ray
/ H0 G8 y5 K9 Z# z" y8 p' b4 u% R" m2 n& m% {* v( p% ?
Audio #1. B0 @1 u3 ?, L. {7 ~5 i' t- ]
ID : 2
" r1 r7 F' c2 B# F9 ^: g; }ID in the original source medium : 4353 (0x1101)
! y' i" _  D+ C7 J+ IFormat : MLP FBA 16-ch, ?' t2 N: M1 O; H
Format/Info : Meridian Lossless Packing FBA with 16-channel presentation  V: Q. q6 Q8 a9 @6 {- i* q
Commercial name : Dolby TrueHD with Dolby Atmos
) C+ w9 K* |/ p* ^7 l' VCodec ID : A_TRUEHD) \- x, ?: l% C4 b! q( s% z! _
Duration : 1 h 35 min+ H( S* r0 N+ h$ n) g: m4 p
Bit rate mode : Variable, E3 p9 F9 T1 Q) ]* S
Bit rate : 3 453 kb/s8 J- n. J! r) C; t& g  o( S; g) n
Maximum bit rate : 5 688 kb/s4 s  \, V( W4 o
Channel(s) : 8 channels
9 c2 Y" T4 ^4 K, aChannel layout : L R C LFE Ls Rs Lb Rb
% ], O( i7 ^5 `* p9 \: RSampling rate : 48.0 kHz
9 S& m: c$ O& G6 MFrame rate : 1 200.000 FPS (40 SPF)
2 d" P2 K! N/ F& q% a, a4 b' [9 TCompression mode : Lossless0 u1 o$ x, M& M0 O2 T2 u
Stream size : 2.29 GiB (9%)
9 ~8 v+ g8 R. T1 \Language : English+ N! b, f9 `' `
Default : Yes  J: C! |, V# @0 o& u7 s
Forced : No
/ m4 {* x/ C; z5 i4 JOriginal source medium : Blu-ray4 l$ r- d) W% }. j1 @. C
Number of dynamic objects : 13! B' W8 }( S4 b- O( ?& c' [9 O
Bed channel count : 1 channel- M6 Y  w+ p# X1 I8 d# j' R* t
Bed channel configuration : LFE1 F9 x, P; ^2 O' u9 D

7 K  Q4 \% C  J1 K; ~# _) K% OAudio #2
' P+ s$ ]# E, u/ D, O( sID : 3
, z& u4 X5 l1 n' YID in the original source medium : 4353 (0x1101)$ h6 x: G' r  d& h( q3 Y
Format : AC-3" E4 I# ~2 t0 s: y+ @. O' W/ J7 D3 J
Format/Info : Audio Coding 38 o( x3 m8 I5 [3 S3 C4 H9 Z
Commercial name : Dolby Digital
# t0 \" n% g9 D8 h8 tCodec ID : A_AC3. o& ~. M, x( b
Duration : 1 h 35 min
! w9 x2 r! A# XBit rate mode : Constant6 S3 Y& A" u6 q- h
Bit rate : 640 kb/s
, V* h6 X1 @  ?- z4 ~7 f7 DChannel(s) : 6 channels) ^" O8 y8 I! E( o+ v
Channel layout : L R C LFE Ls Rs% D' N3 d6 m9 B  B7 O4 w4 ]  C, z
Sampling rate : 48.0 kHz( T' Q; Q) n  J; N) P
Frame rate : 31.250 FPS (1536 SPF)8 j0 a, e- S- ~- W
Compression mode : Lossy' c( E' {9 f# a
Stream size : 435 MiB (2%)
6 r/ W/ }9 B+ O  h! P8 GLanguage : English; {& H" Q( H$ P& [4 n9 t
Service kind : Complete Main
" X7 E( J# r0 b: O# l) W2 YDefault : Yes6 X% |' e2 r. }+ p- o! [1 H
Forced : No: d. c) ~2 Q$ n3 x1 G
Original source medium : Blu-ray
5 S+ X4 U3 C% f' K+ u* K
  J6 h! E" K/ N) d( |Audio #3( V% V9 _6 e5 D, v, _. \7 i
ID : 4
, t3 o8 \  `. UID in the original source medium : 4352 (0x1100)# P. M+ E- n7 [# T4 i6 l
Format : DTS XLL. x; U) |5 B: U: n
Format/Info : Digital Theater Systems
# F. z3 [( O$ a- UCommercial name : DTS-HD Master Audio
" d+ W5 W$ k- C9 J+ I1 K& j# A: \Codec ID : A_DTS2 ]( p  ?: C$ @; |+ T6 O& Y
Duration : 1 h 35 min+ I. X" W  ~: c5 a! j
Bit rate mode : Variable5 v# ^, i4 f$ Y
Bit rate : 3 661 kb/s3 S+ {* W% A5 M( e3 |
Channel(s) : 6 channels
. ]  b/ Z/ t" F- i$ d( fChannel layout : C L R Ls Rs LFE
! \% j& R% g2 E8 F! I4 M# G$ E, pSampling rate : 48.0 kHz4 G- L4 c$ P* `2 h
Frame rate : 93.750 FPS (512 SPF)
, g/ K$ Q( u) w% l% k2 @Bit depth : 24 bits4 _' ^5 z" Q2 O2 b% _5 X
Compression mode : Lossless
! B, R! S# d% w+ U, WStream size : 2.43 GiB (10%); A! C' E4 r: D# x
Language : German
4 u( \. g6 i# w) O4 u6 v( W% xDefault : Yes, i7 ~8 v3 G% |$ f+ R' T9 a
Forced : No) h0 M& {8 s8 x1 w. v, o
Original source medium : Blu-ray& Y* t' ?) M2 t6 Z, }5 D
) h; `* F0 o/ _- X/ m
Text #18 ?$ {+ C, V* a3 A: c: l
ID : 5
; H, y$ {0 h+ T3 Y8 m& `9 d* FID in the original source medium : 4608 (0x1200)
+ B4 E( ?- ]# g6 cFormat : PGS* z4 _3 o7 O6 ?8 h, N! @9 E
Codec ID : S_HDMV/PGS% i' [( f4 }, d7 U' y8 Z
Codec ID/Info : Picture based subtitle format used on BDs/HD-DVDs
/ U/ u/ @0 p7 CDuration : 1 h 33 min+ x  W% g$ T% H
Bit rate : 19.8 kb/s
9 S7 `, O& w- S! |6 rFrame rate : 0.260 FPS. ^7 a& j5 e+ k6 U. H; u7 k9 o1 ]5 ]
Count of elements : 1458
% c$ E. Q4 v  ]  s) A3 s+ y! jStream size : 13.2 MiB (0%)$ s, n9 h$ l  v  q1 c
Language : German
( x% {" F( `1 @# G2 n8 E% d# ?Default : Yes: z4 n2 g& I0 I0 D, m( V* Z( k
Forced : No
) ?  y; W# b- a& F! jOriginal source medium : Blu-ray
& c0 |0 Q8 Z' {( I8 c' `% M
% E  @1 }3 Y+ J9 _4 i: {- aText #2% Y- Y. p& M1 X: f' Z
ID : 6
# J: p' E& C) B/ v, R9 @2 sID in the original source medium : 4609 (0x1201)
0 L& R% Q5 c; m$ j+ |. ^Format : PGS1 o3 ?/ g' R$ w* D1 g
Codec ID : S_HDMV/PGS% D# m! W  k4 |# s7 n9 f! ?; L
Codec ID/Info : Picture based subtitle format used on BDs/HD-DVDs
5 V* z# N) i  M, k& i- g% H, T% rDuration : 1 h 34 min
8 P+ G5 S& A3 |% n" }5 c0 sBit rate : 28.7 kb/s
, k7 c: m) K4 P6 X+ v8 W8 @Frame rate : 0.412 FPS
- m8 w  n3 m6 v7 t0 DCount of elements : 2332
: Q4 J. @4 [0 @0 o3 M2 P- \Stream size : 19.4 MiB (0%)
& n3 t9 c4 m  j) }# H; ELanguage : German- [% W* k1 a( F9 a' L
Default : Yes8 B( H) D9 j7 T8 w* |
Forced : No* M$ V5 O3 q* O+ u' J. K6 \
Original source medium : Blu-ray1 `  W7 L8 r+ i' ]7 h1 U

. b# H  p! s: z+ ~8 ~* P( ZText #3# f, I* [  `: r4 H' }) v8 ~. k
ID : 7/ ]2 {) e; S+ M/ v
ID in the original source medium : 4611 (0x1203)* j9 Q# O0 w/ k9 g2 y+ d5 Z0 }
Format : PGS
! n3 |5 {, I9 ~) K* ?9 d% V8 T& oCodec ID : S_HDMV/PGS
. b8 c4 z+ Q( B( f' jCodec ID/Info : Picture based subtitle format used on BDs/HD-DVDs) w8 f7 l: J8 p$ r3 A
Duration : 1 h 23 min' @5 r0 d" ]" y  h, }5 D: o
Bit rate : 31.3 kb/s2 a: b. `$ k# q% x: o; v" E" s
Frame rate : 0.345 FPS6 t1 n# {8 g- B( U2 M, [# i
Count of elements : 1733# T+ n- w/ B/ Z6 V( c: W3 o
Stream size : 18.8 MiB (0%)( t, O. S5 C0 _6 i6 x
Title : CHS/ENG
% _. |) o4 L' ?3 P( m8 z$ v6 yLanguage : Chinese) Q5 c* C  `  v4 Q# M) v
Default : Yes
4 o" s7 ^/ x0 r1 L! f4 i6 jForced : No
" y9 S' X' U7 HOriginal source medium : Blu-ray
6 J. E& R0 _- Z1 ~: |0 E1 b' W) l0 y3 y" m' w5 m3 f+ M. ?
Text #4' [6 @$ m1 Y/ M7 W
ID : 8
: f* s1 {& m" }3 \- eID in the original source medium : 4612 (0x1204). [! }/ M/ X! k7 ^" v3 c2 z9 K1 S' j
Format : PGS3 t. b0 v% m) _4 t: e
Codec ID : S_HDMV/PGS, J4 \$ S  I# m" n
Codec ID/Info : Picture based subtitle format used on BDs/HD-DVDs2 Q4 _$ C/ @9 s
Duration : 1 h 23 min& h+ v: {4 v0 o3 h( Q& m, [0 a( F
Bit rate : 18.9 kb/s
- w9 ?" _9 y; o# U, A. ?+ c. z1 MFrame rate : 0.345 FPS
! o' v' `- a: \# r$ l% n! CCount of elements : 1733
4 a# f) R- r+ q- ^* qStream size : 11.3 MiB (0%)% `+ U2 e0 |- P$ X9 ?  W
Title : CHS
, n% k7 e! X" I) I8 HLanguage : Chinese. p$ u3 }$ J. p0 r$ G' ]
Default : Yes
/ W# O- }$ Y) x" HForced : No
2 D5 _( t% |3 Y, f- xOriginal source medium : Blu-ray7 [; F; z$ p9 a( Q6 x6 ^
8 L* C0 G( V; L3 B
Text #5
! B% q' @, X% j3 ^5 m7 ?ID : 9
/ o# e7 _% t/ ~  T; FID in the original source medium : 4613 (0x1205)4 I7 ?% J2 @* _8 i7 E) m  y" t% m: y6 V
Format : PGS
( O& w8 o2 l! jCodec ID : S_HDMV/PGS
! ^+ {) R, D# g1 K9 B5 _" LCodec ID/Info : Picture based subtitle format used on BDs/HD-DVDs/ l( n% C  F6 s8 C9 u
Duration : 1 h 23 min
+ G$ l/ M2 `/ @7 m- s' jBit rate : 33.5 kb/s
  ~' O% h" d. R4 pFrame rate : 0.345 FPS: R% q# v+ Z0 `4 ]4 Z6 d
Count of elements : 1733
0 M9 B& T& U# p8 \5 kStream size : 20.1 MiB (0%)/ i9 i6 ]/ ]9 D: w. o
Title : CHT/ENG
1 v. {5 E9 j& h4 y7 Z& }Language : Chinese; `1 e/ E* O, c+ c$ B% f3 L4 [4 O( x- Y3 y
Default : Yes4 ^- q: l4 D0 _+ f
Forced : No
1 ~; O3 z+ E9 R" {, t  J- @! SOriginal source medium : Blu-ray$ L- z& ^  s; j7 Y  w

3 l' u. V, v, r; PText #6
3 M* ^6 q/ V. M5 N" _& MID : 10' {8 l3 o- k0 _2 [6 ?
ID in the original source medium : 4614 (0x1206)# w6 T- m# _; T* ^
Format : PGS' B: D9 |0 `" G
Codec ID : S_HDMV/PGS
" ~0 \: n1 x5 i& q4 M1 aCodec ID/Info : Picture based subtitle format used on BDs/HD-DVDs4 `. P; V. x* e" [
Duration : 1 h 23 min8 B4 ]: u1 v# v% K2 ?5 R( U: F: T
Bit rate : 21.0 kb/s
; V& `) w7 \0 C1 WFrame rate : 0.345 FPS) l4 W! S1 Y# C
Count of elements : 1733/ R9 Z/ A& U( N
Stream size : 12.6 MiB (0%), j- S% M4 @: b5 b0 P, ~
Title : CHT/ r. n! i6 A) b/ O
Language : Chinese; [! I9 S# a& e4 z" C
Default : Yes9 y# y1 g) ?: [* I1 I, F7 w+ C6 ]
Forced : No) g" W" c  q- u8 i! O
Original source medium : Blu-ray* ^: m; P1 A% d, A1 ~: t' ?, U
$ b" v$ C1 D; D7 \: i4 N
Menu* {: M$ l; Q# R! u0 @8 D. u
00:00:00.000 : en:第 01 章' T% G- o! I: e' i! ^6 U
00:10:41.041 : en:第 02 章- ]9 `' u0 A7 l8 d6 h: o  Z0 j/ C
00:19:48.708 : en:第 03 章
3 k% j) [  v2 I! V. |6 M00:31:31.625 : en:第 04 章% |0 m4 ~5 h1 L; i" m) d/ n1 U
00:41:06.750 : en:第 05 章
' g6 a( z' x) O00:50:20.958 : en:第 06 章0 j0 u3 s1 S- N* s6 w$ d( p
00:58:31.875 : en:第 07 章
# I4 C; \+ i4 W: e8 I- @01:08:23.833 : en:第 08 章
9 R9 g8 o! _5 X& K) x01:15:42.166 : en:第 09 章
" k' v. F9 v4 U9 Y$ c6 x0 j01:26:23.916 : en:第 10 章

  I5 B4 g% {$ j2 J
游客,查看本帖隐藏内容请回复 | 加入VIP可免积分免回复 了解详情 | 还不是会员:点击获取邀请码 Invitation Code

31

主题

4319

回帖

2万

积分

Sponsor

金币
3244 枚
体力
10389 点
QQ
shiji1973 发表于 2024-7-2 11:10:12 | 显示全部楼层
Bluraycd又有新电影发布了,激动中……!) d6 _7 ~0 O' H: T6 T; H6 D/ |
Bluraycd.com movie updates really fast, also did not release issued, whether you believe it or not, anyway, I believed!

0

主题

1195

回帖

6380

积分

Sponsor

金币
161 枚
体力
3763 点
xpg050811 发表于 2024-7-2 13:39:59 | 显示全部楼层
每天都来蓝光论坛看看,我爱蓝光电影。
. B+ `' }$ D- \% ~& eBlu-ray Film Forum is now my home!
: Q$ x  z  U& R4 C6 z" e

0

主题

986

回帖

5192

积分

Sponsor

金币
196 枚
体力
3051 点
QQ
一见哈哈笑 发表于 2024-7-2 16:34:15 | 显示全部楼层
感谢楼主,感谢!

0

主题

814

回帖

3776

积分

Sponsor

金币
35 枚
体力
2162 点
QQ
sunday_119 发表于 2024-7-2 19:04:51 | 显示全部楼层
啥也不说了,楼主就是给力!* R  }# |  K5 j, x; m8 N9 U/ p" P
In fact, I have always felt that the landlord of good taste! Ha ha!2 A, ^; W7 L) C7 H" \$ \, B& i! |

0

主题

2697

回帖

9451

积分

Sponsor

金币
251 枚
体力
4102 点
QQ
fangfang789 发表于 2024-7-5 15:06:53 | 显示全部楼层
每天都来蓝光论坛看看,我爱蓝光电影。% r1 W8 V4 @0 ]; g* W' l0 |
Bluraycd.com movie updates really fast, also did not release issued, whether you believe it or not, anyway, I believed!

0

主题

2697

回帖

9451

积分

Sponsor

金币
251 枚
体力
4102 点
QQ
fangfang789 发表于 2024-7-5 15:07:36 | 显示全部楼层
Bluraycd又有新电影发布了,激动中……!
/ ]4 W2 `; b  J. F至少是现在,我一天没有访问蓝光电影论坛就不爽!At least now, my day did not visit the Blu-ray Film Forum on unhappy!1 o- i" T# U; J2 @5 X

1

主题

743

回帖

2948

积分

Sponsor

金币
26 枚
体力
1458 点
firendzhon 发表于 2024-7-8 20:02:05 | 显示全部楼层
沙发是抢的而不是占的!
9 e9 U8 \) u; SYour resources, well, I am very satisfied!
2 T# x7 {6 X7 v1 b5 C) }8 W9 M
2020第一天 ...

本版积分规则

小黑屋|手机版|Archiver|4K蓝光论坛

GMT+8, 2024-7-21 05:50

Copyright © 2001-2021, Gadaddy Cloud.

快速回复 返回顶部 返回列表