BluRayCD Forum

 找回密码
 立即注册【分享大片】
查看: 22|回复: 2
收起左侧

[4K极清电影] 黑天使/天魔威龙 [4K REMUX无损版] Dark Angel 1990 2160p UHD BluRaycd REMUX HEVC DV DTS-HD MA 5.1-HDT 54.45GB

[复制链接]

9255

主题

172

回帖

9万

积分

Post Share

金币
3204 枚
体力
28371 点

卓越贡献勋章

黄金嫖客 发表于 2024-7-8 22:34:14 | 显示全部楼层 |阅读模式
A Renegade Cop is forced to work with an FBI Agent in order to bring down a group of Drug Dealers with sinister plans.
5 z- p: s4 u; V' m: k. }+ L2 ]% ^% p( l' M) C! d" O4 R
1.jpg 5 M% C; k. J" C" m
. s. h  }! h* F! i8 f  ^4 `4 H
◎译  名 黑天使/天魔威龙/黑暗天使/我为和平而来
" ?, |* \, t5 t! X5 s. l' Q3 M◎片  名 Dark Angel / I Come in Peace # t# T1 G' K7 P# ^( V
◎年  代 1990& l9 a. X! E* n
◎国  家 美国
' B: g( ~1 r; c0 v0 p2 ]2 ?" p# A◎类  别 动作/科幻/惊悚/恐怖/犯罪3 ]) g7 `/ F% i0 t6 U! L1 d
◎语  言 英语
7 _. |* s( u5 y◎上映日期 1990-09-28(美国)9 B2 X# [4 z. c, A3 X
◎IMDb评分  6.1/10 from 14,112 users
# X9 ~/ k! e0 v8 Z- K, m" ^- ?# W' P◎IMDb链接  https://www.imdb.com/title/tt0099817/$ P; Q' U$ b! c# |) s
◎豆瓣评分 7.3/10 from 382 users6 I* \1 q% D, V; _4 v  ]! `1 q
◎豆瓣链接 https://movie.douban.com/subject/1950677/6 ~0 z: |& z2 T. N+ W
◎文件格式 x265 + DTS : l# T6 `" A$ i$ u$ R
◎视频尺寸 3840 x 2160
' f, s) X6 n6 s$ K+ a! O' [: d◎文件大小 1DVD 54.45 GiB
/ U9 t) x8 a0 c- `1 k◎片  长 1 h 31 min
" O5 W4 n" \7 b0 g2 A) p◎导  演 克雷格·R·巴克斯利 Craig R. Baxley
( \. F4 u$ ~1 W! I" U◎编  剧 Jonathan Tydor
3 z; E  @. q. a! s% |: ^       大卫·凯普 David Koepp  j% g! d( {/ t1 g1 s% ?
◎主  演 杜夫·龙格尔 Dolph Lundgren
; `& ~  q: E. Q* n1 N$ h4 G       布莱恩·奔本 Brian Benben, t/ h; i) s$ I/ G4 i# |
       贝齐·布兰特利 Betsy Brantley
( r3 d6 b& ^6 D: g4 }, b       马蒂亚斯·休斯 Matthias Hues
8 W6 V5 z0 @1 _. g       Jay Bilas
; o/ x* P' e5 j. x* {) A8 F& N       吉姆·海尼 Jim Haynie
% I7 [* ]9 [  z+ d! M$ V       David Ackroyd8 j, x. I& w, n& a4 J$ D  V
       舍曼·霍华德 Sherman Howard5 j" Q- Q+ w2 A5 k7 Z+ K# U6 {
       山姆·安德森 Sam Anderson4 T( t+ ]- U+ N9 Z2 d. T4 e' k5 _
       Mark Lowenthal
* F9 f4 ?5 E' ~) I5 W$ a       迈克尔·波拉德 Michael J. Pollard) ?/ I; {% K( v0 z
       Jesse Vint
4 p6 p8 r+ D4 ~  J% D5 T' l       Alex Morris0 d) U( ?- C2 d# R. r
       Kevin Page
: \, _# ]* T! Q- N5 J2 r( h       Robert Prentiss" ^* c8 G- y3 j$ N$ b& B
       阿尔·梁 Al Leong" ^6 D  ~- Z7 R6 X2 M7 C. y
       布兰顿·史密斯 Brandon Smith
9 j; v2 y/ `4 F       伍迪·沃森 Woody Watson8 V" N$ V& b3 ?/ T$ d
       苏珊·萨瓦 Suzanne Savoy+ W* d! {4 q0 E/ D
       Stacey Cortez% i' g+ @7 m) N' S% w
       Nino Candido
- z  D' U7 V. k7 j+ V% ]/ C: q       Jackson Burns5 }5 t& k# K9 c' f

% T- K# I/ ~+ E/ c3 m8 U◎简  介   u: o1 G# C$ t$ _$ X: q  o- r; H
9 x+ Q# f# J, o
  Jack Caine (Dolph Lundgren) 饰演美国航天城休士顿的一个独立特行的副警官。当他正准备独自行动去破获一起毒品交易并想逮捕头号毒贩Victor Manning的时候,他卷入了一起秘密诱捕事件,他的搭档却被杀害了,他和FBI探员Lawrence Smith一道调查这一连串的神秘死亡现象,却发现有外星生物……5 w# C2 L4 M- ~) O# m& }; d, c
( J) w0 c6 B, n$ Y5 ]( P( [
  Houston cop Jack Caine is a not-by-the books police officer investigating the death of several people, including his partner, by a gang called the "White Boys." All the victims seemed to have died of drug overdoses, but Jack thinks that there is something more sinister afoot. His investigation reveals a plot by aliens who use the bodies to extract a chemical that is sold to addicts on their home planet.
3 M; V  i2 |  }0 r
Dark.Angel.1990.2160p.UHD.BluRayCD.REMUX.HEVC.DV.DTS-HD.MA.5.1-HDT# x& D1 a5 L7 B' Y( }7 T

- A  K# o% t; L  R+ U' p+ F8 a# _Video
1 F" E+ V/ e' Z9 G4 NID                                       : 1
5 m6 a) g7 _( Z2 L) pID in the original source medium         : 4113 (0x1011)
) P% B1 P$ t5 f7 `Format                                   : HEVC
$ i1 o7 {1 K6 K0 p! m3 |Format/Info                              : High Efficiency Video Coding) f5 v% Z% t. X9 ~; B  b+ l, G
Format profile                           : Main 10@L5.1@High
, e- o- g9 _  `) ?* o! UHDR format                               : Dolby Vision, Version 1.0, dvhe.07.06, BL+EL+RPU, Blu-ray compatible / SMPTE ST 2086, HDR10 compatible: b' i' R- m4 f
Codec ID                                 : V_MPEGH/ISO/HEVC- \% y; _. n# G4 h9 l( o9 i
Duration                                 : 1 h 31 min; z" c. W& d* N0 n
Bit rate                                 : 80.3 Mb/s7 j4 H' O) Q- L& f) D
Width                                    : 3 840 pixels
6 i' H- P8 g1 K! S$ E4 M; iHeight                                   : 2 160 pixels
/ [& J2 ?1 W1 Y7 S$ TDisplay aspect ratio                     : 16:97 L, ]5 r6 x* H6 [; d) c
Frame rate mode                          : Constant
# j5 r6 B2 ]- yFrame rate                               : 24.000 FPS
* D; w: T3 f7 ?& I1 BColor space                              : YUV' I. [! L2 d' B4 |# {* f& k# s" D- ^
Chroma subsampling                       : 4:2:0 (Type 2)
- v0 P, X2 v1 `" L  K. u2 RBit depth                                : 10 bits
! l* ]; x! P$ b9 U! ~: x! hBits/(Pixel*Frame)                       : 0.403
! B5 h0 P( S9 x  T" uTime code of first frame                 : 00:00:00:00000000006 W9 \* f5 Z3 t9 c$ v3 \+ V- Y
Stream size                              : 51.4 GiB (94%)
9 b+ s0 P8 m5 m! o3 B# MLanguage                                 : English. E# |1 C% m7 t" D  v
Default                                  : Yes& z3 [0 o+ c3 H' A3 b: m
Forced                                   : No
0 U( z0 t' q: ]/ r$ qColor range                              : Limited
( @1 ~  r# x1 ^Color primaries                          : BT.2020
8 L# c# D1 E/ C3 n, [Transfer characteristics                 : PQ7 Z1 i, i9 k( s4 `1 T
Matrix coefficients                      : BT.2020 non-constant) S6 C$ y( Q6 j. R; ~* R7 C0 i
Mastering display color primaries        : Display P3
, ~# C  d8 ]/ E" B5 WMastering display luminance              : min: 0.0001 cd/m2, max: 1000 cd/m2  E* I/ s# _8 x$ e! }7 y. D
Maximum Content Light Level              : 995 cd/m2
) t4 ^+ `7 h! t6 ^( p0 T7 u, j0 jMaximum Frame-Average Light Level        : 520 cd/m2
' z5 r: Y6 H  I6 J$ sOriginal source medium                   : Blu-ray5 J4 `- d3 d: t. v. c3 a

" M+ K' |2 h- W0 C! h/ t! v! T% F5 {Audio #17 Z- q& q  j9 x
ID                                       : 2
3 z3 {+ t4 ?' [, x7 E1 J5 OID in the original source medium         : 4352 (0x1100)) k& R& x& I; z7 M. F
Format                                   : DTS XLL- O8 w/ N) P( s$ }/ m
Format/Info                              : Digital Theater Systems! z1 D: d8 @& }+ k; M; a% E5 S
Commercial name                          : DTS-HD Master Audio: l+ I# s5 Z! t& @4 W
Codec ID                                 : A_DTS0 {$ A5 }7 Y6 g; U8 N
Duration                                 : 1 h 31 min
  G# p) d5 Y% \( v# V  HBit rate mode                            : Variable  `/ ?; s+ x+ H2 p7 f* l
Bit rate                                 : 3 468 kb/s0 e* `/ h; s' {7 ]
Channel(s)                               : 6 channels
: y- T6 J2 p4 f0 RChannel layout                           : C L R Ls Rs LFE
" h/ S4 [& [. H9 ySampling rate                            : 48.0 kHz
- I8 g% r4 W" d) d+ aFrame rate                               : 93.750 FPS (512 SPF)
8 v. \  n/ h, L8 _+ u0 OBit depth                                : 24 bits' H' A7 u; |: g1 T% c' b% U8 @
Compression mode                         : Lossless
- M2 H* E! E: b1 kStream size                              : 2.22 GiB (4%)
$ ~7 _2 s/ v1 z0 V& dLanguage                                 : English
3 m7 N. r3 i: GDefault                                  : Yes2 I+ {/ y1 m* g* `/ _: }$ B; i/ x
Forced                                   : No1 V# ]3 e5 W! L9 T
Original source medium                   : Blu-ray/ y/ ?$ D/ V( k2 a+ g5 `
$ }) t- G, I/ M. S% ~
Audio #2# O4 H7 o( L! M# R9 h
ID                                       : 30 `3 f! M% |" i! _
Format                                   : FLAC6 H7 O+ m5 n# [1 ?( ^# x
Format/Info                              : Free Lossless Audio Codec# ^+ C2 R- `1 C/ M) l3 f! M2 M$ [
Codec ID                                 : A_FLAC
5 ?5 N: Q  B+ Z* @& GDuration                                 : 1 h 31 min
, n  t# I5 l8 L8 h9 I. G6 uBit rate mode                            : Variable+ q: n  n# e4 v7 N9 Q
Bit rate                                 : 1 278 kb/s) C2 ]0 ^+ Y! v! F
Channel(s)                               : 2 channels
) i* F) M& W! ^2 cChannel layout                           : L R
( h+ s5 u) V& j9 t9 q8 uSampling rate                            : 48.0 kHz: D- p! o5 g4 M6 Y1 U
Frame rate                               : 11.719 FPS (4096 SPF)
; l7 O  v* R' \8 x/ c7 LBit depth                                : 24 bits$ ~( f& t# s( I4 y4 \
Compression mode                         : Lossless. h3 T4 C. l+ t$ z- @9 L/ b  d. K; S
Stream size                              : 838 MiB (2%)+ B8 e( M1 e3 q% P$ \
Title                                    : Stereo# D. x; M3 \# ]9 x* H; L
Writing library                          : libFLAC 1.4.3 (2023-06-23)* a# A+ w& B' E  R
Language                                 : English
3 o6 h& E3 i) u9 ?6 y6 mDefault                                  : No1 p+ P. T! E8 c" E, ?& i
Forced                                   : No$ z& Y2 s: ?. W* q! k# V
MD5 of the unencoded content             : 53182D00C93DD45F357070CE6820442C
& ?8 V4 E/ p+ E* K+ _, d
+ a; ?6 G- G8 R2 `! _! b  X$ [Text #1
8 c# ^3 i+ _( k  {6 ^7 nID                                       : 4
+ z. M, @9 w, _# N( g+ ^* PFormat                                   : UTF-8% B! @8 k& A$ _
Codec ID                                 : S_TEXT/UTF8
% ?8 S1 C4 @' T/ f8 F# HCodec ID/Info                            : UTF-8 Plain Text, M- N& ]4 r9 {1 h* p* ?
Duration                                 : 1 h 27 min
. F* y/ J. v: R3 c5 N8 RBit rate                                 : 49 b/s' F. r8 C- m/ F/ W' Y
Frame rate                               : 0.217 FPS
8 N8 k8 f! Y5 \& H; k/ fCount of elements                        : 1136
2 H* i/ B4 j( B2 E" SStream size                              : 31.9 KiB (0%)
) O/ T5 s. O  G; a# ?Language                                 : English
( f, H. `2 w; @. b; H1 dDefault                                  : No
1 t2 B) J% t* IForced                                   : No+ X1 B# G( ?- W5 F2 ^

* x  ]+ q& v" ]- J/ o! `Text #23 g; a, f# k8 m5 S) N7 K6 z& d7 _8 @
ID                                       : 5$ s+ N: F# _3 j( J, S5 T
Format                                   : PGS6 O, G* Q9 x2 {" z5 F6 f6 O9 Z
Codec ID                                 : S_HDMV/PGS
' Z; G/ `+ \* E, y1 ?8 z* FCodec ID/Info                            : Picture based subtitle format used on BDs/HD-DVDs" U% Y. q. Z' K2 Z" ^, k
Duration                                 : 1 h 30 min
' k0 r9 b# b; M8 ?6 P( TBit rate                                 : 33.8 kb/s
; b8 O# s; C- T, D# d. k( YFrame rate                               : 0.469 FPS
2 i9 h( B. m+ G' h+ J. jCount of elements                        : 2542% {+ F, D- x$ d9 p6 S% D6 s
Stream size                              : 21.9 MiB (0%)
4 E' N" V4 E- [% f. D( mTitle                                    : SDH
& B. K" L% M" H9 h4 ~. MLanguage                                 : English
' b9 _$ G- D7 C' q$ G* s7 C( X6 ZDefault                                  : No7 w, }6 c* `& j0 x3 N9 u+ i4 @; G
Forced                                   : No+ D* r: b4 X# d$ {, c& n

8 R" N/ @: Z4 l3 w6 w2 n  bText #3
- Q" C9 Q$ {3 P3 Z+ HID                                       : 6  p+ q* _9 Z  p1 a) L
Format                                   : UTF-8% `& D: f" S# h: U) ~( o
Codec ID                                 : S_TEXT/UTF89 C; Z0 c" |% g3 ]3 i
Codec ID/Info                            : UTF-8 Plain Text
) b2 W' q# y# {" R; |0 TDuration                                 : 1 h 27 min
8 z! I. _# A" _3 w& l; jBit rate                                 : 74 b/s) s, U" J+ O2 v# H+ p
Frame rate                               : 0.145 FPS% C3 K5 z3 j8 L8 N8 J6 T* S
Count of elements                        : 759
/ C* g0 o9 y; |1 u/ ?! Y4 M6 N( `2 VStream size                              : 47.4 KiB (0%)" a+ p, N. x0 n' V+ ], ~
Language                                 : Arabic$ _5 t# L* v2 V4 Q, w9 ]
Default                                  : No7 V+ t  U+ E4 `3 [% J7 G) B: E3 S5 k
Forced                                   : No
6 t( T* @* l! R$ I, u: M2 A( v
. q! J. U% u: ]; T7 z: f- tText #4( N8 @8 M( d: [5 E* e2 L$ x
ID                                       : 7
0 G6 p: F- l- y6 p9 d* CFormat                                   : UTF-82 W" x5 v! f9 e# L3 `  H5 D* ^
Codec ID                                 : S_TEXT/UTF81 q: W$ n/ J: A6 f3 `! O. o' U
Codec ID/Info                            : UTF-8 Plain Text. ]" c% q% \1 j' O
Duration                                 : 1 h 30 min$ j' J: j9 D$ \' S! p
Bit rate                                 : 71 b/s
6 [) t4 {4 r7 Z6 f: m7 C2 sFrame rate                               : 0.138 FPS
; f  E" l5 d$ L# MCount of elements                        : 7501 `* n7 L6 z4 s8 v: R0 J; w8 o, S
Stream size                              : 47.7 KiB (0%)
8 u' Y  [! M9 ]- U' f0 L4 }Language                                 : Bulgarian
5 S: K! J& @" q  G, t4 _Default                                  : No& F. h" O6 F0 R3 Q
Forced                                   : No0 z8 r  f  N' d1 k8 r8 l1 h( C

1 [$ q6 j, j, r3 b$ B5 E2 }Text #5
: O" m/ k2 X8 RID                                       : 8% P  J/ @5 }7 p5 p( _2 J
Format                                   : UTF-8
0 h9 a( W" {8 hCodec ID                                 : S_TEXT/UTF8
- }) c1 d' Z* A- L+ ~Codec ID/Info                            : UTF-8 Plain Text
/ L7 m' O/ J) [+ x% wDuration                                 : 1 h 27 min1 `" O. F) _1 Y$ M( ~4 V" u5 ^
Bit rate                                 : 40 b/s% H+ }  w2 B4 d! x3 I' j/ }7 f# m
Frame rate                               : 0.140 FPS
5 Z# L' m* S, }+ p) c; H! }Count of elements                        : 735
; A0 g2 E) Z7 f( `- u, N3 qStream size                              : 26.0 KiB (0%)$ B7 r/ S: M- x$ D: }0 d
Language                                 : Danish( ^6 D8 F- R* y
Default                                  : No- E+ ]( P+ R2 D( j' |7 o$ x2 ]
Forced                                   : No
& J" R8 o# ~  [- O- s4 j9 |/ {
9 ~( J4 B5 Z4 B6 F6 B  YText #6
# h% a3 Q  C7 p* Y( m) ]" Z) EID                                       : 9
7 T8 D0 D! c. l0 A- x3 W7 T% G0 iFormat                                   : UTF-8
5 N+ f2 q; J; M! N' SCodec ID                                 : S_TEXT/UTF81 T( q9 V% A. N* \. t/ J
Codec ID/Info                            : UTF-8 Plain Text
, V7 S/ {6 m6 D- T. rDuration                                 : 1 h 30 min
: K/ Y, K4 I7 h+ TBit rate                                 : 43 b/s
  \6 k: D( X  t* WFrame rate                               : 0.135 FPS' Z7 c/ l1 R! z8 k" B; f1 C
Count of elements                        : 735
* I5 g8 R; [% M$ Y/ gStream size                              : 28.5 KiB (0%)
& {# I9 S' A( B2 [Language                                 : French" X& U8 r) r8 O1 B9 c
Default                                  : No
6 i, Q( g/ ]: kForced                                   : No
' Z! g4 E& x7 ^4 V9 E
% S* Q! }7 g. EText #7
2 p/ [  ?  [$ D3 A6 bID                                       : 10
# x: ^0 q, n& V8 w  l! X# rFormat                                   : UTF-8* c% p5 X6 Y% w; t; f) Y
Codec ID                                 : S_TEXT/UTF8
* P5 l9 W) }" C7 q$ ]4 L, cCodec ID/Info                            : UTF-8 Plain Text
, H, H7 C6 s' W( j7 f* u% fDuration                                 : 1 h 27 min
( G4 n% o0 W, r) {; i" S0 hBit rate                                 : 42 b/s
: m% T4 X+ ]( d* E- `' KFrame rate                               : 0.150 FPS
! w# D$ i1 G/ e# bCount of elements                        : 786* d' ~2 C- @8 j5 l$ J* {. b
Stream size                              : 27.0 KiB (0%): Y# g* n6 p1 ]' a& j5 f4 a
Language                                 : German9 U& i# ?$ i0 T0 n3 G
Default                                  : No
5 N& g# k0 C5 j6 t- sForced                                   : No
) C' G+ f( N. C" E5 i: G
; f! O2 R. @: k) S+ `+ ~Text #8
) M0 V. Z) R9 C% `  n4 M; GID                                       : 11
( B& f! K7 C5 A8 Z! y1 tFormat                                   : UTF-89 L/ A+ {8 A4 n& x3 ~
Codec ID                                 : S_TEXT/UTF8) `  e) ^) t- j) x+ Q# R: U
Codec ID/Info                            : UTF-8 Plain Text4 Z( ~) ?* f- v2 {; D- p/ f/ C
Duration                                 : 1 h 30 min. s+ w: r- i* Z) K5 l
Bit rate                                 : 40 b/s
5 C+ g. ]8 k+ O& y" X# kFrame rate                               : 0.135 FPS
. q7 u% R; c' x; ?' r9 P9 SCount of elements                        : 734
+ r& h( p3 N$ W# \# }) l2 T. @' D0 hStream size                              : 26.6 KiB (0%)+ H' x$ w0 j5 z# v4 v
Language                                 : Norwegian
- q# B% Z- `- o/ ]8 C! {( bDefault                                  : No
7 F* {. v! L' g4 n4 TForced                                   : No' E  \, x3 A  J, V' H% _
$ S+ Z3 b1 X9 f
Menu
5 j6 J1 A3 s* h* A; n00:00:00.000                             : en:Chapter 01
. u; B# Q( m/ i9 A6 H00:07:46.083                             : en:Chapter 02
9 K) f% P3 L3 s00:14:26.916                             : en:Chapter 03( a5 H! }1 \: z7 e2 h, ]
00:20:46.083                             : en:Chapter 045 V# J/ A; D# A; n
00:28:38.250                             : en:Chapter 05' y8 ?& {0 U7 P$ ]# {; @
00:35:13.500                             : en:Chapter 06; b% a4 e& I; Q7 Z# H
00:42:14.958                             : en:Chapter 07
7 a+ W. Q: z0 R00:48:48.000                             : en:Chapter 08
' n( ]# m1 h0 V1 L" H00:55:43.708                             : en:Chapter 097 c7 Z' h) V  d, B  U9 @1 j
01:03:31.875                             : en:Chapter 10
9 V0 N5 Q0 H8 n) B01:09:52.791                             : en:Chapter 11
4 F. e4 Y/ U* `# }8 A. g6 D01:19:15.458                             : en:Chapter 12

0 C6 R) @/ {/ Z! ?
游客,查看本帖隐藏内容请回复 | 加入VIP可免积分免回复 了解详情 | 还不是会员:点击获取邀请码 Invitation Code

0

主题

2697

回帖

9451

积分

Sponsor

金币
251 枚
体力
4102 点
QQ
fangfang789 发表于 2024-7-9 10:46:07 | 显示全部楼层
沙发是抢的而不是占的!
. I2 X* T: `* V$ L3 ~& }# v祝愿蓝光社区越办越好!I wish Blu-ray communities better and better!$ z8 Y/ G% d4 h/ W( g' Y' p9 o

0

主题

1195

回帖

6380

积分

Sponsor

金币
161 枚
体力
3763 点
xpg050811 发表于 2024-7-10 17:35:49 | 显示全部楼层
楼主发贴辛苦了,I*老*虎*U!2 ?' Y- X) E& j+ g/ ^  H& T
要想蓝光电影论坛发展好,资源多,就靠你我他!To the development of Blu-ray movies forum, resources and more depend on you and me!6 a, r+ c% ?% ~9 X' A+ u

本版积分规则

小黑屋|手机版|Archiver|4K蓝光论坛

GMT+8, 2024-7-21 06:59

Copyright © 2001-2021, Gadaddy Cloud.

快速回复 返回顶部 返回列表