BluRayCD Forum

 找回密码
 立即注册【分享大片】
查看: 501|回复: 0
收起左侧

[动漫动画] 终极复仇者2:黑豹的崛起 Ultimate Avengers II 2006 1080p BluRaycd x264 DTS-FGT 6.62GB

[复制链接]

5280

主题

5505

帖子

4万

积分

Forum Admin

金币
249 枚
体力
18088 点

最高荣誉勋章

kmvodys 发表于 2011-8-24 09:42:50 | 显示全部楼层 |阅读模式
& c- s0 f' n0 y6 @% y, E- n: N6 O& X! ]
, i) j9 @. V7 ?: \* S
◎译  名 终极复仇者2:黑豹的崛起% s7 g# d& m9 |- v+ W4 {
◎片  名 Ultimate Avengers 2: Rise of the Panther / Ultimate Avengers II5 J/ \  q& l/ G
◎年  代 20068 J3 V5 R" \/ B* w0 B
◎产  地 美国  C8 t: Y6 a9 H6 ?* }: R! A% d5 ~
◎类  别 动作/科幻/动画/奇幻/冒险
, B. U3 |! K; H, Z' r+ k◎语  言 英语/西班牙语
+ a0 B) b+ w: H6 T$ ~2 p0 A◎上映日期 2006-08-08(美国)+ j2 ^/ t% n( G; o" o) J2 H8 E' H8 r5 H
◎IMDb评分  6.5/10 from 9,207 users1 ^) m8 f5 y( E; O/ V
◎IMDb链接  https://www.imdb.com/title/tt0803093/4 J6 E$ j) t4 U2 S2 v
◎豆瓣评分 6.2/10 from 818 users
, h" X  H/ A$ D5 s" P  A◎豆瓣链接 https://movie.douban.com/subject/1849905/
% n6 i: T  P) O7 z0 G2 J, g◎片  长 1 h 13 min
, V( g' B/ y2 W. v0 _3 z◎导  演 柯特·格达 Curt Geda
( L  P2 _: F; ~       Steven E. Gordon
: w# k% G3 z6 y5 `       迪克·锡巴斯特 Dick Sebast
4 j0 n, Z' f/ J; _8 {$ f       Will Meugniot ( G0 K, d0 Z& `/ @/ B
◎编  剧 斯坦·李 Stan Lee
  }7 m  X6 N( N- @0 M; d       马克·米勒 Mark Millar; F6 V0 M' x0 E; b# t& E
       布赖恩·希契 Bryan Hitch' f& W$ t$ U$ c- z
       杰克·科比 Jack Kirby2 g6 K0 r# Q2 D( \3 @( d
◎演  员 Kendre Berry ' ^' f" ~7 w) ~0 v" \3 g; Z# f
       Elias Eliot
5 B- M; @7 t7 M& m$ [7 B2 c       Marc Worden Marc Worden& r9 x4 K6 R/ V/ V% A: e
       杰弗里·D·萨姆斯 Jeffrey D. Sams
3 ]6 E1 V: t6 F       德怀特·舒尔茨 Dwight Schultz& t& e0 `4 ~/ ?* \3 W- t9 o
       诺兰·诺斯 Nolan North  d8 p- t$ n  a0 G" m1 W
       齐·麦克布赖德 Chi McBride
! J% U' C" Y6 c( J* D0 L       格蕾·德丽斯勒 Grey DeLisle$ j0 d+ s, W6 F
       Susan Dalian Susan Dalian  {2 U) X, }$ L1 f7 W; L: o
       马克·哈米尔 Mark Hamill
  O3 g+ ?; k7 e- \6 F! ^       奥利薇亚·阿波 Olivia d'Abo
( A- p. Y' {  _4 T  u) x# \- S# b8 O       吉姆·瓦德 Jim Ward6 W$ p6 V2 g/ n
       斯坦·李 Stan Lee
& S8 @0 U1 d+ z       Guy Michelmore
8 X+ ~0 o" {% U8 c% P# V8 q- a       迪克·锡巴斯特 Dick Sebast
% p! m* X8 {/ o3 j/ Z) g3 B" D) j3 g" V/ ~3 f" ]# u4 n, Y2 b9 K
◎简  介   
" s3 x4 F6 Z2 v8 ]8 O5 x3 L3 V/ j9 W' b1 F- W8 x, f
  保存人类, 地球的最强大的英雄必须团结一致共同英勇对抗敌人。, `8 O- M, I+ V4 c
  2 |3 H. ?* m& D, L& R5 p
  史蒂夫·罗杰斯,也被称为美国队长,在被冰封的冰60年后,返回世间。 而这是一个不同的世界。一个需要英雄的世界。和铁人,Thor(雷神),Wasp(大黄蜂),巨人等其他伙伴一起,他成立了一个行动小组,在我们这个混乱年代维护正义。聚在一起的他们就是复仇者们。
: ^7 F: ?5 H/ B+ |, u
; `, c7 o3 w) ^/ }( D6 `* R; I$ g( M1 |  When the Chitauri invaders are sighted in the African kingdom of Wakanda, the Avengers covertly enter the advanced nation to investigate.
Video
! s/ |/ D- z: _, I& h. @ID                                       : 1: [- Q4 _! b, B# Q9 D
Format                                   : AVC
4 F, z1 Z# {7 ~9 f' c) l3 pFormat/Info                              : Advanced Video Codec1 P; X% S; C6 X& z) @0 ?; ~$ H8 L3 t
Format profile                           : [email protected]$ z/ i8 V( K& }/ F8 v
Format settings                          : CABAC / 4 Ref Frames9 R1 }: D- @% \9 d6 O8 u
Format settings, CABAC                   : Yes
# Q5 B# K: {; ]* |7 l. h; o" u+ RFormat settings, Reference frames        : 4 frames
4 J; `2 r3 D4 r6 {# X9 fCodec ID                                 : V_MPEG4/ISO/AVC
3 h- e& q$ T  JDuration                                 : 1 h 13 min
5 E) N. f1 T( M. g( }  uBit rate                                 : 11.5 Mb/s
& j! b3 g& w$ h. X  _  t$ Z- t8 kWidth                                    : 1 920 pixels1 D; D. [0 x( s
Height                                   : 1 036 pixels" Y/ x9 |3 Y" {  l
Display aspect ratio                     : 1.85:1
. @8 E) A7 ^5 g" p! N' i  C7 b* ?Frame rate mode                          : Constant4 P2 ^: q' b& v. T8 X
Frame rate                               : 23.976 (24000/1001/189150) FPS/ I0 l' C1 x7 F
Color space                              : YUV5 |/ H2 ^$ X7 ]( l: \- J% ]
Chroma subsampling                       : 4:2:00 |; _& n* O' u4 u
Bit depth                                : 8 bits
1 C& i: k4 Q# g- Z7 C3 [+ k7 wScan type                                : Progressive9 T2 `) m: }  t; @
Bits/(Pixel*Frame)                       : 0.241% R& X- Y- k; a$ C! Q3 U7 A
Stream size                              : 5.84 GiB (88%)2 T, A0 Z: }  k+ O3 E+ T& a9 x
Writing library                          : x264 core 148 r2795M aaa9aa80 e3 x: ~& g! b+ P7 x4 T
Encoding settings                        : cabac=1 / ref=4 / deblock=1:1:1 / analyse=0x3:0x113 / me=umh / subme=8 / psy=1 / psy_rd=0.50:0.00 / mixed_ref=1 / me_range=32 / chroma_me=1 / trellis=2 / 8x8dct=1 / cqm=0 / deadzone=21,11 / fast_pskip=1 / chroma_qp_offset=-2 / threads=32 / lookahead_threads=3 / sliced_threads=0 / nr=0 / decimate=1 / interlaced=0 / bluray_compat=0 / constrained_intra=0 / bframes=3 / b_pyramid=2 / b_adapt=1 / b_bias=0 / direct=3 / weightb=1 / open_gop=0 / weightp=2 / keyint=240 / keyint_min=24 / scenecut=40 / intra_refresh=0 / rc_lookahead=50 / rc=2pass / mbtree=1 / bitrate=11500 / ratetol=1.0 / qcomp=0.60 / qpmin=0 / qpmax=69 / qpstep=4 / cplxblur=20.0 / qblur=0.5 / vbv_maxrate=31250 / vbv_bufsize=31250 / nal_hrd=none / filler=0 / ip_ratio=1.40 / aq=3:0.60
" N; f* R3 n+ d. E7 L6 _Default                                  : Yes5 `) g3 @) u0 u) E$ i4 l
Forced                                   : No
( W8 V* m5 c% Z( X
2 R. i8 a( e2 Q, P6 Z  s( E  h: IAudio
, G9 [* [/ J# mID                                       : 2
- @/ d; h1 v6 q& T$ ?! B# m& X: ^Format                                   : DTS
0 ~' F) ]" }# w  vFormat/Info                              : Digital Theater Systems6 O2 u; N1 S( ~" T- o% v
Codec ID                                 : A_DTS
( |8 f# t0 c- S! L" z6 p/ bDuration                                 : 1 h 13 min# {2 {9 f; g0 v; g) P& h$ d( `
Bit rate mode                            : Constant
( E3 P6 }+ d4 `4 u$ W; z0 pBit rate                                 : 1 509 kb/s
/ m9 v4 T1 W6 a4 ~0 R( A# CChannel(s)                               : 6 channels
6 S8 t  c6 h2 {/ j: o- l' hChannel layout                           : C L R Ls Rs LFE
  b: u9 J+ n8 W. _Sampling rate                            : 48.0 kHz
8 X6 X: s  ]3 _! f$ I9 s* @9 NFrame rate                               : 93.750 FPS (512 SPF)! u$ Q# S3 e1 D! {3 a" _- \
Bit depth                                : 16 bits( s5 r) J% F! y) `
Compression mode                         : Lossy$ V8 U% ?" R+ q! o& O2 E- Q: Z8 O8 W% `
Stream size                              : 788 MiB (12%)3 p8 i0 p: i+ J+ D7 d
Language                                 : English9 B8 l  {) L% `  Y
Default                                  : Yes! V( N; O( ^! t9 l; p* Q
Forced                                   : No
" @: W! R2 Z/ h
% _1 x; x+ ^6 ?% h* G) k% |4 }Text #1' H* r3 i( q  x6 f
ID                                       : 32 L9 D, N5 c' o- w# U: T. T
Format                                   : UTF-87 T) ^6 K  y7 t+ j6 N7 o4 E4 C
Codec ID                                 : S_TEXT/UTF8
- F3 K5 n0 m/ lCodec ID/Info                            : UTF-8 Plain Text3 g( j8 \' O9 L1 O2 v# P
Duration                                 : 15 s 891 ms. a* P* V" K! g' {
Bit rate                                 : 62 b/s
  t* {; ^+ I; h9 J# j! rFrame rate                               : 0.189 FPS- T& T8 i8 L+ g% {0 r( L
Count of elements                        : 3
- ~: t7 l( t, w  gStream size                              : 125 Bytes (0%)# Y7 m0 ~: P! t$ G& O
Title                                    : FORCED
' y; q; _" M+ Y. O  MLanguage                                 : English$ v) Q( W  [4 h2 x
Default                                  : No: ~- f4 `- A6 Q. _6 m" K) ]
Forced                                   : Yes+ W( x  N' O, W2 U; C8 |* c

: z, g# d) _! E8 z" s5 ]Text #2# H" q, \2 k. \
ID                                       : 4# J" C) Z" y8 g( l$ p, j) J
Format                                   : UTF-8! A& H2 H6 Z* Z& E% m, @. {" A
Codec ID                                 : S_TEXT/UTF8
& m0 _3 `) g8 u' ]Codec ID/Info                            : UTF-8 Plain Text
# }. n. H& ~/ a0 ^' S6 ~4 BDuration                                 : 1 h 9 min- G5 F7 F$ @4 |! N
Bit rate                                 : 42 b/s! H5 h# y1 ?3 i/ T
Frame rate                               : 0.154 FPS
7 Q- M. y" p' c7 UCount of elements                        : 637
0 a6 |8 P/ e- @+ N8 O* MStream size                              : 21.4 KiB (0%)
/ h( c* }5 D, t3 X* d1 I( _Language                                 : English
7 [0 U# q, m" k: ODefault                                  : Yes
. ?* D* ]1 O1 x% J  JForced                                   : No6 w; [' l8 M* }

7 `" W7 y# {3 t' P- b1 ZMenu
! t% ^% v8 d  F1 k00:00:00.000                             : en:Africa5 r/ n: P8 C  L% ^! o& j1 c
00:07:42.837                             : en:New Heir
$ [8 O, S" h6 ~9 G% i00:10:33.383                             : en:Banner. n. q* U) n/ f
00:15:22.880                             : en:Seeking Revenge
. _- G* I% _7 z8 M5 U00:17:25.503                             : en:Assembling Avengers
2 C  }; {+ ]$ z00:23:40.628                             : en:Flashbacks
/ j8 G  T3 v! O. N' g/ w0 s00:27:50.502                             : en:Secret Alliance
9 R9 A: p" Z! q: P00:32:21.273                             : en:Thor
4 H9 j1 o5 w4 w00:36:13.546                             : en:Dethroned3 d: A1 f/ ^- L
00:41:48.297                             : en:Invasion
1 w: l! B) m. ]; Z* D00:46:26.784                             : en:Defense# \2 H2 e+ E- c- A
00:49:49.028                             : en:Pitched Battle( \+ l" k  l; @
00:54:36.857                             : en:Distraction/ Z% A( k% n2 V6 M7 E- T) B
00:57:56.973                             : en:Victory! \2 z" O9 ]0 D) c  U% {
01:05:17.789                             : en:Sacrifice
9 ~, _0 v. g! W+ h01:10:10.748                             : en:Credits

! V% b, }7 i( B7 {( `/ P
游客,查看本帖隐藏内容请回复 | 加入VIP可免积分免回复 了解详情 | 还不是会员:点击获取邀请码 Invitation Code

本版积分规则

小黑屋|Archiver|4K蓝光论坛

GMT+8, 2022-12-4 10:20

Copyright © Tencent Cloud.

快速回复 返回顶部 返回列表