BluRayCD Forum

 找回密码
 立即注册【分享大片】
查看: 270|回复: 2
收起左侧

[科幻恐怖] 极乐空间/极乐帝国2154(港)/极乐世界(台)/极乐园 Elysium 2013 1080p BluRaycd x264-SPARKS 7.64GB

[复制链接]

6407

主题

6581

帖子

7万

积分

Post Share

金币
14984 枚
体力
21119 点

卓越贡献勋章

黄金嫖客 发表于 2013-11-12 12:18:42 | 显示全部楼层 |阅读模式
01.jpg & F9 j3 L6 b8 Z- X" S  r

1 @/ N+ I' Z; ]$ j  I+ K; u5 b8 S; l6 k" P0 H' q9 N
◎译  名 极乐空间/极乐帝国2154(港)/极乐世界(台)/极乐园
4 l) [0 m9 h2 ?2 G# W% j1 h◎片  名 Elysium$ y7 S. x' u0 N, h! [$ y# r. T, w
◎年  代 2013/ G4 _( ~" h0 {6 V3 R: O1 E# P
◎国  家 美国
8 ^2 r/ _1 }' e◎类  别 剧情/动作/科幻
7 a; f5 N) h3 v7 W◎语  言 英语/法语/西班牙语/南非语, w+ ^; w& N: n3 }* F$ W- @
◎上映日期 2013-09-05(中国大陆)/2013-08-09(美国)8 x( [; O8 ~9 ]+ K, W
◎IMDb评分  6.6/10 from 387,187 users; r4 D) I6 w7 O7 {
◎IMDb链接  https://www.imdb.com/title/tt1535108/
0 Z- p1 ~* r: Y◎豆瓣评分 6.2/10 from 67,826 users. V' Q# s, L+ A1 E) e
◎豆瓣链接 https://movie.douban.com/subject/4116481/
' o8 X: K% j. w" g# ^, a/ i0 r◎片  长 1h 49mn
1 N+ k' d8 c8 @  J◎导  演 尼尔·布洛姆坎普 Neill Blomkamp
4 s, e5 b% h$ h; a9 V◎编  剧 尼尔·布洛姆坎普 Neill Blomkamp. b- _# Y: y8 A+ ^: d! i+ W4 L
◎主  演 马特·达蒙 Matt Damon
5 }) o% c& q' G' W, [/ t       朱迪·福斯特 Jodie Foster- B. x7 J* g2 l; s8 ^2 a+ s
       沙尔托·科普雷 Sharlto Copley
% I8 O/ a1 L$ e# R. ]$ _& z+ I( d       艾莉丝·布拉加 Alice Braga9 S# W! {# O  M+ j) h# T
       迭戈·鲁纳 Diego Luna: ], M, M% t% c8 L& X# Q# q  M
       瓦格纳·马拉 Wagner Moura5 w# {' \3 a2 U3 l0 k
       威廉·菲德内尔 William Fichtner% s* c! d% M* I% i* r9 j* c6 Q4 g
       布兰登·奥雷 Brandon Auret- m4 M- B- h& x* D4 y% }: C
       乔希·布莱克 Josh Blacker6 P! \& k- ]8 K0 P
       艾玛·特伦布莱 Emma Tremblay5 |) y- |$ f# K9 M6 ?
. U* M* D2 O, ]5 p! U# i3 G8 _5 s
◎简  介
; x8 X( H! P4 ?4 A& G$ w% U% t+ n! [3 N, a  q' [9 z. }
  22世纪中叶,地球并未借助文明和科技的进步变得更加美好,反而在各种贪欲荼毒之下变成毫无希望的废墟荒原。少数极度富有之人抛弃生身故乡,在漂浮于地球之上的空间站上建立了宛若天堂般美好的乐土,继续过着享乐奢靡的幸福生活。而绝大多数的穷苦人不得不留在千疮百孔的地球上,在绝望的混乱之中苟延残喘,同时被迫忍受各种严苛可笑的联邦法规的压迫。他们在富人建立起来的工业系统下努力赚取稀薄的营生,时而仰望苍穹,幻想着早日移民空间站开始新的生活。无奈在政府官员德拉库特(朱迪·福斯特 Jodie Foster 饰)的铁腕掌控下,偷渡者一次次化作宇宙中的碎片。, N- m4 a4 z4 V, c- M5 a2 s  T2 h3 @
2 n. B1 Z6 k* O3 A
  工作中受到强辐射的普通人麦克斯(马特·达蒙 Matt Damon 饰),除非借助空间站先进的医疗系统,否则五天后将一命呜呼。纵使仅有一线生机,也要朝着极乐世界挺进……
( g! y$ L; o3 F$ B& H4 c
' f- ^3 p0 Q4 ?/ g  In the year 2154, the very wealthy live on a man-made space station while the rest of the population resides on a ruined Earth. A man takes on a mission that could bring equality to the polarized worlds. / [, V' p" Z* g8 F6 O
/ q" m2 Z$ k$ R4 S
◎获奖情况' H1 B/ r( d) S5 d/ m. u- t

! o1 U: Y; Q: ?( P. f8 s, s, A  第12届美国视觉效果协会奖 (2014)& c* A; n- d* f8 T
  最佳真人电影CG背景(提名) Joshua Ong
2 c9 H: C; t% l" m8 u8 M& n  l  最佳电影视觉效果合成(提名) Janeen Elliott / Jean Lapointe / Jordan Benwick5 {5 I6 z! k( ?: L+ A2 t; a* r
+ D% o: v8 ~7 S" ?
  第18届金卫星奖 (2014)
# q4 i: k. l( x$ e% u& T" W6 H( r0 G2 _  电影部门 最佳音效(提名) Dave Whitehead / Christopher Scarabosio / David Husby / Craig Berkey0 u3 \3 E; n2 ?6 @2 _/ }7 C( I

* r: E: p) y/ V3 ]0 w) O+ u( P  第17届好莱坞电影奖 (2013); z5 B6 E$ A9 j" y1 M7 F! Y8 _* S; M
  年度电影(提名) 尼尔·布洛姆坎普  j1 n' U4 Y- T8 t0 S" k5 B

$ l* u! M& R# E# c  第4届豆瓣电影鑫像奖 (2014)$ u! j$ R6 j' Q9 f
  豆渣单元 最渣影片(外语)(提名)( Z8 \2 \6 l( |& J7 Z4 e: E3 G0 p% e
  豆渣单元 最渣导演(外语)(提名) 尼尔·布洛姆坎普
1 ?( F8 v% l- B3 ~3 o9 Q& B
Video! e/ C8 I$ e# D
ID                                       : 11 s6 V5 u; K* `7 O4 A6 ?' ?2 K0 K  q
Format                                   : AVC5 f3 u; k, U3 C) j$ e( ^! G1 S6 @
Format/Info                              : Advanced Video Codec
  P0 Q) p4 t7 NFormat profile                           : High@L4.1
: k# r, B; d0 f/ A1 K) }! BFormat settings, CABAC                   : Yes' o% V7 y4 P& r# v% t7 N
Format settings, ReFrames                : 5 frames
, E) C  W' t/ b% a, X1 bCodec ID                                 : V_MPEG4/ISO/AVC
. I( U+ r  J& m8 hDuration                                 : 1h 49mn4 d( k4 ~. r3 ?) Z) M# R# W
Bit rate                                 : 8 482 Kbps
1 o4 O' l8 e& C% \2 H1 eWidth                                    : 1 920 pixels
$ y$ d( t% z3 g& Z1 M( `Height                                   : 808 pixels% c3 l7 Y9 a: ?: T* y" U
Display aspect ratio                     : 2.40:1
4 L, `2 m. v% K, x6 S, qFrame rate mode                          : Constant# h- H, o8 P6 A; E
Frame rate                               : 23.976 fps9 T, l) _- _$ Y. V; p4 F( `
Color space                              : YUV
# z; C. ^& z- v8 t' n: ^: B/ [3 `Chroma subsampling                       : 4:2:0
* r' Y- I! V" l/ n7 RBit depth                                : 8 bits
$ ~* I: M: p7 r- S5 I1 iScan type                                : Progressive
1 w6 U& k: W" l0 y% GBits/(Pixel*Frame)                       : 0.2280 j( b/ u. o, |+ T
Stream size                              : 6.34 GiB (83%)
+ R" n& L0 v( C9 }! HWriting library                          : x264 core 140 r2377 1ca7bb9
* O' j5 C  [5 `* y' w: dEncoding settings                        : cabac=1 / ref=5 / deblock=1:0:0 / analyse=0x3:0x133 / me=umh / subme=7 / psy=1 / psy_rd=1.00:0.00 / mixed_ref=1 / me_range=16 / chroma_me=1 / trellis=1 / 8x8dct=1 / cqm=0 / deadzone=21,11 / fast_pskip=0 / chroma_qp_offset=-2 / threads=36 / lookahead_threads=6 / sliced_threads=0 / nr=0 / decimate=1 / interlaced=0 / bluray_compat=0 / constrained_intra=0 / bframes=3 / b_pyramid=2 / b_adapt=1 / b_bias=0 / direct=1 / weightb=1 / open_gop=0 / weightp=2 / keyint=250 / keyint_min=23 / scenecut=40 / intra_refresh=0 / rc_lookahead=40 / rc=2pass / mbtree=1 / bitrate=8482 / ratetol=1.0 / qcomp=0.60 / qpmin=0 / qpmax=69 / qpstep=4 / cplxblur=20.0 / qblur=0.5 / ip_ratio=1.40 / aq=1:1.00
# m$ t2 D3 Q, @0 v8 r9 H9 |; OLanguage                                 : English
9 `6 k1 S# A9 ~2 JDefault                                  : Yes
; q+ A, w/ g) HForced                                   : No
8 f. a6 q- s, h' x" N% o% E2 K7 N1 W) P( x7 J% ]
Audio+ O/ n; z7 `+ [$ n: Y$ M
ID                                       : 2) n+ Q2 L& L& u6 `& w4 M4 g& R
Format                                   : DTS; G* S+ h3 V" s- P; {/ e: d
Format/Info                              : Digital Theater Systems1 c. I3 u! \7 p; @8 |: y
Mode                                     : 167 {0 q1 t& b" h
Format settings, Endianness              : Big
' d# Y& l5 \: R8 r8 _) f( |! |Codec ID                                 : A_DTS& F: j! L1 L& x! t4 \+ l& D
Duration                                 : 1h 49mn* A( s+ G  T8 i3 m% H+ }
Bit rate mode                            : Constant: t, [4 w% e( m5 {# F
Bit rate                                 : 1 509 Kbps- s2 V4 d- R# D8 Q6 R" o: i7 I
Channel(s)                               : 6 channels* R, M1 A5 O+ Q0 j$ u' Y
Channel positions                        : Front: L C R, Side: L R, LFE
! F. I5 V' [9 m' FSampling rate                            : 48.0 KHz
( c, c$ E- i. j' z# IBit depth                                : 24 bits
) N- }, x6 e, A+ vCompression mode                         : Lossy
" u* r2 h: O7 RStream size                              : 1.16 GiB (15%)
' n! U+ h4 w: c' lLanguage                                 : English) N  k0 I, `0 Z2 p: b
Default                                  : Yes# }  Y" w$ b  U/ O" x0 i
Forced                                   : No5 |! C7 S% U% i' E- ~' V2 D) n
$ r: [/ P! c+ y
Text #1
/ ~0 n+ o6 h% o& E) p; ~9 U, tID                                       : 3* h: [* C: g! o3 n
Format                                   : UTF-8
- L3 a' J# ^5 e. aCodec ID                                 : S_TEXT/UTF83 B6 \2 a4 O  w# l; f* x% K
Codec ID/Info                            : UTF-8 Plain Text' g: i7 X- b% ?9 w- q' D
Title                                    : Forced9 F9 ?2 J/ N6 K. [3 |& L; c5 p6 @2 V
Language                                 : English' L8 [& P: d) w5 r8 V& r
Default                                  : Yes
& v4 J% T  J' L) I& uForced                                   : Yes
* @. L: ]" @7 {, W3 C- U8 ?+ l' n( f& H. ~  x! `- w' I
Text #2
( F* Q( ?7 Y! D$ MID                                       : 4$ _2 q: Y0 Y5 K" d
Format                                   : UTF-8! Q3 |. ^- P5 P2 n/ G
Codec ID                                 : S_TEXT/UTF8
( c3 H5 P" ?" f9 R. R& o6 r% d8 KCodec ID/Info                            : UTF-8 Plain Text$ S4 K. S0 U  H
Title                                    : English
. f6 \9 f% u7 @4 I) g3 T. l# f; S, P% hLanguage                                 : English* n2 W' v( e4 }- N! D% b! g
Default                                  : No# `( N2 J9 }# ~1 O) \7 t
Forced                                   : No; y* ^* V/ `2 Z; p
( p, M1 s& X! j& e( D$ s
Menu, J" s0 t$ g' U+ i5 D# v
00:00:00.000                             : en:00:00:00.000: N. {, u/ s$ r
00:07:02.589                             : en:00:07:02.589
! }) N) A; \  {% t00:11:59.344                             : en:00:11:59.344  ?" P6 n8 `3 r# y" p8 y- o$ S
00:19:27.625                             : en:00:19:27.625
, S1 b% E5 \7 L00:25:34.825                             : en:00:25:34.825$ ]: g  ?! T8 q4 D- m; U
00:30:02.342                             : en:00:30:02.342( i9 [1 T  [5 A% \
00:39:22.068                             : en:00:39:22.0686 B% }# |7 g% {; q- u$ H2 x- B
00:57:43.960                             : en:00:57:43.960' ~, D8 F* O8 P; P" p
01:00:59.197                             : en:01:00:59.197
6 E# Y; a  Z& f: r% n# Q01:04:09.637                             : en:01:04:09.6370 b# O+ ~% E6 F3 k/ d8 E9 E& ^
01:07:22.664                             : en:01:07:22.664+ Y8 P% a% z" R. @* r
01:10:34.147                             : en:01:10:34.1473 {) Z' U) L% s. z( [
01:16:59.865                             : en:01:16:59.8653 D+ ?/ V; {( m8 n3 \& R
01:22:50.132                             : en:01:22:50.132% ?* e; q. f3 M. i+ }! _; Y
01:30:19.914                             : en:01:30:19.914
; |' ^! s% ~# @  S, P01:35:44.530                             : en:01:35:44.530
: z+ D3 s5 D& F9 H8 M- d7 a9 E4 K# Z
: E( H2 W- F. |  F' m
% P  t5 u  Z" `2 u5 G* p' R

% R0 A$ \$ j2 P$ r# A. ^* D# X1 W) I

! F, d* v4 z- W$ v" p* m% a+ m4 x: K8 I' W* k* r
游客,查看本帖隐藏内容请回复 | 加入VIP贵宾可免积分免回复 了解详情 | 还不是会员:点击获取邀请码 Invitation Code

31

主题

1790

帖子

9947

积分

Sponsor

金币
1400 枚
体力
5031 点
QQ
shiji1973 发表于 2019-1-31 13:04:37 | 显示全部楼层
感谢分享精彩电影

0

主题

491

帖子

2174

积分

Sponsor

金币
1 枚
体力
1210 点
QQ
neilwang1982 发表于 2019-1-31 14:00:07 | 显示全部楼层
很经典的一部片子,感谢分享

本版积分规则

小黑屋|Archiver|蓝光电影资源网

GMT+8, 2021-12-4 14:38

Copyright © 2001-2022, Tencent Cloud.

快速回复 返回顶部 返回列表