BluRayCD Forum

 找回密码
 立即注册【分享大片】
查看: 7|回复: 0
收起左侧

[科教记录] 从神经元到极乐世界:伟大的药物 Neurons to Nirvana Understanding Psychedelic Medicines 2013 1080p AMZN WEBRip DDP2.0 x264-TEPES 4.76GB

[复制链接]

7010

主题

7389

帖子

7万

积分

Post Share

金币
17296 枚
体力
13703 点

卓越贡献勋章

mvods 发表于 7 天前 | 显示全部楼层 |阅读模式

9 H5 \8 Q8 W+ m7 ~3 L: f: ~+ g- N9 E3 y* v
◎译  名 从神经元到极乐世界:伟大的药物) _" z) |6 }" X& o7 t) b
◎片  名 From Neurons to Nirvana: The Great Medicines / Neurons to Nirvana
4 z: `1 P& I# T5 a& E2 b0 ^  |2 \; @◎年  代 2013
2 N& R# @3 n! Y: {◎产  地 加拿大/英国/美国/瑞士
/ b. a4 ^4 a5 A5 Q0 k* h6 u  Q. {◎类  别 纪录片/历史
/ f- ^& Q* `7 C  t: Q# u+ s! O◎语  言 英语/斯洛伐克语/捷克语& N+ O/ k8 h" b2 i" o
◎上映日期 2013-11-01(美国)
( `2 Z: J' ]; n9 X◎IMDb评分  7.7/10 from 1,240 users
* o  h0 k* M: U% q  P7 j5 }2 L◎IMDb链接  https://www.imdb.com/title/tt2195566/
! j5 n% U6 x! p$ X  ?2 F1 X/ m( b7 {◎豆瓣评分 0/10 from 0 users
# E# l" n3 O$ u  E◎豆瓣链接 https://movie.douban.com/subject/25733205// k5 B8 z/ h1 Z5 Q) D0 ~5 c% j6 |
◎片  长 1 h 9 min
0 I& t4 f7 j4 @3 W7 J9 {◎导  演 Oliver Hockenhull
) Z: F# M3 i6 W8 {) }4 P◎主  演 威廉·S·巴罗斯 William S. Burroughs, [' i- j! D3 F) s
       Wade Davis8 Q2 l2 P2 S! M/ ^! ?
       Rick Doblin
$ U' s" l- O; o! D5 ^% a$ m7 g: \5 j. L- y3 W$ T/ K
◎标  签 纪录片 | 想看
2 p' d1 V: F% g4 `/ {3 B0 L- x- u% a8 H* J' k9 A2 x5 {
◎简  介
5 \6 L. P/ s8 T( Y* c
* E8 y& Y+ [6 [  i& r  根据当前的科学、医学和文化知识,对迷幻药物研究的复兴进行时尚、深入的审视。
# a+ F3 D( Q+ C0 ?! Z
: F/ F& d" M9 i: H" G3 X* ?  A stylish, in depth look at the renaissance in psychedelic drug research in light of current scientific, medical and cultural knowledge.
+ s7 m" S2 j8 f% x' g
Video4 _3 W4 \: Q; f. V5 |$ V
ID                                       : 1% e3 q2 c. |* `1 ?) |5 B
Format                                   : AVC
0 U/ C7 O- K1 ^Format/Info                              : Advanced Video Codec
! g' ]% P+ Y6 {1 t7 @2 s, mFormat profile                           : High@L4
/ {. w0 J; {' E" H1 oFormat settings                          : CABAC / 4 Ref Frames  {# g! i3 K; e* `. I* d3 k
Format settings, CABAC                   : Yes
0 w% u5 H. G& H& Q, T: s% |Format settings, Reference frames        : 4 frames8 k4 L0 w, ^, w$ C" j7 I4 @
Codec ID                                 : avc1
+ [/ D- o% V5 E7 P5 V$ V( oCodec ID/Info                            : Advanced Video Coding
0 g; @% X% j8 Y! S8 L4 j# N: Z- `) U  dDuration                                 : 1 h 9 min
9 v, F, C( D/ j6 u. c; ZBit rate                                 : 2 500 kb/s
. c: g( r6 W* fWidth                                    : 1 920 pixels
6 N( e3 w1 Z6 ?* o* T# p- mHeight                                   : 1 080 pixels% [& y8 i! j9 D# \/ w% m
Display aspect ratio                     : 16:93 K& f7 }3 H# C; B, l- \' E) I/ K
Frame rate mode                          : Constant: P+ W3 Q+ y1 O  ^' ^
Frame rate                               : 29.970 (29970/1000) FPS2 h7 @3 Q6 U+ X; E# a+ m4 N
Color space                              : YUV
9 R9 v; v( V! y; n3 QChroma subsampling                       : 4:2:00 Q8 }6 h8 z) f8 u* {5 N$ e  t
Bit depth                                : 8 bits$ H9 L; F: D2 b' t5 ~4 \. H- i
Scan type                                : Progressive
8 F' O; L+ ], g6 X+ ]$ xBits/(Pixel*Frame)                       : 0.040& p( E+ i* p- v; t' C" c
Stream size                              : 1.21 GiB (91%)( {( W' |/ Y4 K; e5 B
Writing library                          : x264 core 152 r2851M ba24899$ F# Q- Z4 S& d, q. ?
Encoding settings                        : cabac=1 / ref=4 / deblock=1:-1:-1 / analyse=0x3:0x113 / me=umh / subme=9 / psy=1 / psy_rd=1.00:0.15 / mixed_ref=1 / me_range=24 / chroma_me=1 / trellis=2 / 8x8dct=1 / cqm=0 / deadzone=21,11 / fast_pskip=1 / chroma_qp_offset=-3 / threads=16 / lookahead_threads=4 / sliced_threads=0 / nr=0 / decimate=1 / interlaced=0 / bluray_compat=0 / constrained_intra=0 / bframes=3 / b_pyramid=2 / b_adapt=2 / b_bias=0 / direct=3 / weightb=1 / open_gop=0 / weightp=2 / keyint=250 / keyint_min=25 / scenecut=40 / intra_refresh=0 / rc_lookahead=50 / rc=2pass / mbtree=1 / bitrate=2500 / ratetol=1.0 / qcomp=0.60 / qpmin=0 / qpmax=69 / qpstep=4 / cplxblur=20.0 / qblur=0.5 / vbv_maxrate=31250 / vbv_bufsize=31250 / nal_hrd=none / filler=0 / ip_ratio=1.40 / aq=3:1.00" F( u' g" j/ V
Encoded date                             : UTC 2020-01-12 16:11:15" e) C% ?. l6 ~; v+ s1 G' K
Tagged date                              : UTC 2020-01-12 16:11:15: L% ^! D2 |1 \# `  ]. Q
Codec configuration box                  : avcC
! {+ G2 b2 J; B. G, N! i: G1 k5 R" d/ X1 k7 v, A" B) p
Audio1 I4 Y8 b4 `0 @1 x; V9 z
ID                                       : 2
3 {4 q7 i+ `/ T; L# e# X" PFormat                                   : AAC LC) I" L# {1 H7 B9 S# U; j/ \4 L3 R
Format/Info                              : Advanced Audio Codec Low Complexity% m( ]5 J! {+ Y, q
Codec ID                                 : mp4a-40-2
! m  g/ L; c: c# F  B1 yDuration                                 : 1 h 9 min
9 b, x9 L1 r* kDuration_LastFrame                       : -11 ms
& [7 d8 Y7 V3 U# p; G/ P) [: _! vBit rate mode                            : Constant6 G( S5 }1 z# ]
Bit rate                                 : 224 kb/s+ H$ d, b$ f( Y% S" F4 I# j
Channel(s)                               : 2 channels" u5 T- b, ^6 B- ?$ `# e) R
Channel layout                           : L R+ |* Q, d/ \# D) g: r2 N
Sampling rate                            : 48.0 kHz9 w. a5 y. W  n4 U5 B6 ?
Frame rate                               : 46.875 FPS (1024 SPF)( G5 E% O9 t1 s6 f
Compression mode                         : Lossy" z1 P5 V! |8 ~/ o( w
Stream size                              : 111 MiB (8%)0 v+ S! v3 [" D, M, {
Language                                 : English" t. p% I8 m, C
Default                                  : Yes
  s; u" [# m/ o5 B% l* J6 x7 V8 oAlternate group                          : 1
4 k7 E1 {0 ~$ nEncoded date                             : UTC 2020-01-12 16:11:15
% V- m4 v0 U) A% ~+ p( WTagged date                              : UTC 2020-01-12 16:11:15

* K" y" O9 h; _, i. `" j% G' K* A
游客,查看本帖隐藏内容请回复 | 加入VIP贵宾可免积分免回复 了解详情 | 还不是会员:点击获取邀请码 Invitation Code

本版积分规则

小黑屋|Archiver|蓝光电影资源网

GMT+8, 2021-10-21 22:48

Copyright © 2001-2022, Tencent Cloud.

快速回复 返回顶部 返回列表