BluRayCD Forum

 找回密码
 立即注册【分享大片】

QQ登录

只需一步,快速开始

查看: 111|回复: 1
收起左侧

[4K极清电影] 美女与野兽 真人版 [4K REMUX无损版] Beauty and the Beast 2017 2160p BluRaycd REMUX HEVC DTS-HD MA TrueHD 7.1 Atmos-FGT 60.50GB

[复制链接]
  • TA的每日心情
    慵懒
    2017-7-4 17:43
  • 签到天数: 613 天

    [LV.9]蓝盘精灵

    5310

    主题

    5662

    帖子

    6万

    积分

    Forum Moderator

    金币
    3396 枚
    体力
    25149 点

    卓越贡献勋章VIP蓝光勋章

    迅雷电影 发表于 2020-3-2 17:24:57 | 显示全部楼层 |阅读模式
    Disney's live-action version of their animated classic of the same name.2 n# b8 A1 y# y& S& q

    - i7 k/ N! b+ a; q9 X- t- e 03.jpg 8 y9 i% f7 s+ A! v7 ^' X

    # u" i. a/ \5 c# b; ^5 {. V: \6 @◎译  名 美女与野兽
    / M1 w- i) S. D, k3 S3 i3 S4 ]◎片  名 Beauty and the Beast
    ( p! p- @, _; M* W1 s+ r" P) p◎年  代 2017* `2 L' |$ n& B* E1 H/ G
    ◎产  地 美国  s  X4 D+ a0 }
    ◎类  别 爱情/歌舞/奇幻
    7 b0 V7 M5 G. f2 T8 Y◎语  言 英语
    5 m1 H1 z6 `; }* S% W* E◎上映日期 2017-03-17(中国大陆/美国)
    / |  g' S# Z9 z0 R7 H( ?◎IMDb评分 7.1/10 from 254,223 users
    4 v: X3 t: Y9 P4 |0 U, J' I- W◎IMDb链接 https://www.imdb.com/title/tt2771200/
    - |9 o' L; f" F8 e5 s/ C◎豆瓣评分 7.1/10 from 291,591 users
    & c2 k8 o. F$ v) F& `% K: ^◎豆瓣链接 https://movie.douban.com/subject/25900945/* Q( N& Y7 c; B! q6 X* o6 o7 T0 [. C
    ◎文件格式 x265 + DTS + TrueHD 9 ?% |$ m9 d5 e. _1 u3 Z
    ◎视频尺寸 3840 x 2160: G# ^; Y3 U2 U2 N; u
    ◎文件大小 1DVD 60.54 GiB
    ; {! e" y! e0 {# {◎片  长 2 h 9 min
    , F# ?, S) E: `" D, _4 D4 c◎导  演 比尔·康顿 Bill Condon
    2 N9 F4 u4 N4 ~+ g7 @, b( Z◎编  剧 斯蒂芬·切波斯基 Stephen Chbosky
    0 G. w* p* v; a/ {; ~9 ^  D, @$ S       埃文·斯彼里奥托普洛斯 Evan Spiliotopoulos
    $ F3 ?6 D- x! g/ j) L1 o" t) x# p       琳达·伍尔芙顿 Linda Woolverton
    9 T* m! h, H. _% g       珍妮-玛丽·勒普兰斯·德博蒙 Jeanne-Marie Leprince de Beaumont& S" B9 r" |( {& n0 J5 \
    ◎主  演 艾玛·沃森 Emma Watson. w/ U) N% Z" {
           丹·史蒂文斯 Dan Stevens
    , p, C; x- c* M7 S       卢克·伊万斯 Luke Evans
    / e& A1 H# L! w& u, y3 ]& K+ [       凯文·克莱恩 Kevin Kline
    : Q" Y" Z/ s8 i$ U# s8 F8 \       乔什·盖德 Josh Gad
    : ?, F8 Y% s; c7 W, U  O       伊万·麦克格雷格 Ewan McGregor- E5 @2 }$ S+ N) Y
           伊恩·麦克莱恩 Ian McKellen
    2 L. `" o4 D* x. w7 w, d+ |% f       艾玛·汤普森 Emma Thompson& v) A$ g  a3 s/ ~, i
           斯坦利·图齐 Stanley Tucci
    , }2 s8 C9 N" Z" Y+ e8 M' K+ [       古古·姆巴塔-劳 Gugu Mbatha-Raw
    3 o2 A5 S" |- {7 r4 o/ F' R; B       奥德拉·麦当娜 Audra McDonald' u$ F& |/ u1 @$ n
           内森·麦克 Nathan Mack
    : I% f1 s6 K3 o! P& [# O: M       哈蒂·莫拉汉 Hattie Morahan
    9 J5 Y; Z. \6 l% P; B5 B% s       迈克尔·吉普森 Michael Jibson
    ' F# ?+ R: I. e. O4 {: ?       水野索诺娅 Sonoya Mizuno% s; C. s# T8 w( U$ Z' l: o1 C
           亨利·加勒特 Henry Garrett( z; r9 [: i" u: U8 @
           戴尔·布兰斯顿 Dale Branston, I2 T9 c5 N* b( D$ P. {$ b4 C

    ' b- F# x- F7 }& h5 p6 V. Q( Y◎简  介  & u: q$ B  `; B3 N4 P! T: `* d
    2 E0 x: ?7 ]8 R; W% |2 s
      贝儿(艾玛·沃森 Emma Watson 饰)和小镇上的其他女孩不同,是一个热爱阅读和幻想的姑娘,孔武有力英俊强壮的加斯顿(卢克·伊万斯 Luke Evans 饰)发誓要娶贝儿为妻,但贝儿却一眼看穿了他的自私和虚伪,拒不从命。某日,贝儿的父亲莫里斯(凯文·克莱恩 Kevin Kline 饰)迷路误打误撞之下来到了一座荒凉破败的城堡中,那里居住着样貌可怖半人半兽的野兽(丹·史蒂文斯 Dan Stevens 饰)。6 \. a( ?: b3 Y) }9 c& P
    ! _! [/ P8 l* K4 m7 a
      因为偷摘了城堡里种植的玫瑰,莫里斯被野兽囚禁了起来,得知此消息的贝儿赶到城堡,要求和父亲作交换。就这样,贝儿开始了和野兽的同居生活。在会说话的茶壶太太(艾玛·汤普森 Emma Thompson 饰)、烛台卢米亚(伊万·麦克格雷格 Ewan McGregor 饰)和时钟葛士华(伊恩·麦克莱恩 Ian McKellen 饰)的照顾和帮助下,贝儿渐渐发现,野兽在丑陋的外表下,隐藏了一颗善良温柔的心。实际上,野兽的真实身份是一位王子,因受到了女巫的诅咒而沦落至此,而贝儿,是解除诅咒最后的,也是唯一的希望。0 {& p  t) O' @' _
    : S0 _0 D# k; G" K- ^+ o, s
      A selfish Prince is cursed to become a monster for the rest of his life, unless he learns to fall in love with a beautiful young woman he keeps prisoner.   Z, a6 U. r4 ?
    7 x. T- @2 t3 [! N
    ) Q8 V8 @( r- V- h# Z2 Z
    . y* }7 K/ o8 D3 S- ~, V" ]# L
    ◎获奖情况  
    4 ^; |; _( d  U  Q) P7 Q
    , Y: N: a' ?2 z6 k; [  第90届奥斯卡金像奖(2018)/ B  \% ?: i. d  d
      最佳艺术指导(提名) 莎拉·格林伍德 / 凯蒂·斯宾塞& ~% |6 Q) l; N( Z+ U" ?4 b1 w
      最佳服装设计(提名) 杰奎琳·杜兰( O& N. M& c# z* c3 M' d# W& v

    , t; s  m( }: |, T  第71届英国电影学院奖(2018)
    - ?; B2 O; N: d1 g: u# m' y9 [  电影奖 最佳服装设计(提名)+ E5 M7 A/ N; q; z
      电影奖 最佳艺术指导(提名)
    & x. x. y- ?! M$ ]1 j, t
    0 G: O% f2 Y/ A6 x8 M! A  第41届日本电影学院奖(2018)
    " s4 f. j1 {3 K0 d( n9 {0 r  最佳外语片(提名)/ M: Z( U. y2 A' p( e( y+ }

    - F6 X& F1 G; f" h+ l/ _  第26届MTV电影奖(2017)7 B8 C$ y. d; r, v
      MTV电影奖 年度电影9 x- g" t6 w" t! H" k% v# F  a5 K
      MTV电影奖 最佳表演 艾玛·沃森
    % k4 Q8 j) u7 P* g; R6 L  MTV电影奖 最佳吻戏(提名) 艾玛·沃森 / 丹·史蒂文斯
    3 }2 j" R4 D* V7 C; d  C! F( {  MTV电影奖 最佳银幕组合(提名) 卢克·伊万斯 / 乔什·加德! m4 T5 ?  G, x3 }

    ; c& x. t1 l% f/ e  第22届美国艺术指导工会奖(2018). w' J; e: l# _6 `2 U  y
      电影奖 最佳幻想电影艺术指导(提名)
    7 h+ ?8 U3 c# ^: ]
    . o; M  C6 h# o# s5 A1 I/ W  第20届美国服装设计工会奖(2018), Q* K4 P1 ~2 b/ M& W' E
      科幻/奇幻题材电影最佳服装设计(提名) 杰奎琳·杜兰
    ) [9 l! x! G7 }# }' W$ b/ ~2 X, L8 A: _* z
      第16届美国视觉效果协会奖(2018)
    ; s1 h( y# a% r0 s1 D6 K' B! N0 ?5 S  最佳电影虚拟摄影(提名)
    7 t0 o6 S9 B  d6 e1 R/ h% Q% }5 {
    - F( q0 K! |& Q  [3 K  第23届美国评论家选择电影奖(2018)4 A3 F( t2 e" |
      最佳歌曲(提名), z. v: \2 a& g" r8 P+ K
      最佳美术指导(提名)
    - l8 j: ~. r3 _8 N2 T  最佳服装设计(提名)$ F- `: i8 Y  O1 m8 P8 Z
      最佳发型化妆(提名)
    1 U( j( K+ W$ _3 T5 O  d* |$ a0 V6 b* P( K& P, q
      第22届金卫星奖(2018)
    5 B5 a/ @2 n7 t! ^& q- O  电影部门 最佳服装设计(提名) 杰奎琳·杜兰
    2 w( h, s( K& V7 ~4 b2 G. L7 N$ F
    3 W4 _# O& s0 M- ~  第21届好莱坞电影奖(2017)
    ! w7 L" Z- q* `$ U  年度服装设计 杰奎琳·杜兰7 O  x0 E- B& ]6 j% |- ]
      年度化妆 珍妮·希尔科尔
    & k3 z3 Q! y8 B) x6 E" r; L. q
    8 E6 X& y+ H' O% ~# P  第30届芝加哥影评人协会奖(2017)
    6 |1 [. D  ~! R' z0 a& X2 _  最佳艺术指导(提名)( {5 |+ t9 \% ~9 n4 I' G
    3 l* J* i4 w1 Y9 {, Y& z( ~) o
      第42届报知映画赏(2017)
    2 J/ E: z  F/ K' q+ b! t  海外作品奖 比尔·康顿8 Z+ F. |3 c9 m# V
    ! s; P+ }+ k0 G0 k; s
      第4届豆瓣电影年度榜单(2017)  ]6 W+ h5 c) Y
      3月最受关注电影(提名)/ l& L" p# R+ b8 d1 x% X/ S% {0 H

    1 I0 T4 l8 [0 w7 L9 _' V% i1 l
    % D6 y5 [+ B2 Z$ O0 U
    Video
    0 Z) X% P- x) Y2 \! O3 y8 @% oID                                       : 1
    6 g$ }* C2 J# T; Q- OFormat                                   : HEVC8 ?! p9 ?6 D4 W2 b+ @
    Format/Info                              : High Efficiency Video Coding) n8 a+ Q& K- Q3 x! U0 m) V
    Format profile                           : Main [email protected]@High8 l& F% S, j# E- F& a7 I3 }; g* L
    HDR format                               : SMPTE ST 2086, HDR10 compatible
    ( I' E1 V7 k0 w' X9 lCodec ID                                 : V_MPEGH/ISO/HEVC! `5 Z" H3 ?  h
    Duration                                 : 2 h 9 min
    $ i) _& ?2 O7 V: q; IBit rate                                 : 48.9 Mb/s
    , a! E4 ?- B2 QWidth                                    : 3 840 pixels+ g! }9 k  U$ w1 r$ \# J+ Q
    Height                                   : 2 160 pixels8 S* z- F9 P% R* Q4 K
    Display aspect ratio                     : 16:9/ I. J% u1 Q4 X$ s8 [
    Frame rate mode                          : Constant% Z  ~% O0 K2 T
    Frame rate                               : 23.976 (24000/1001/37687) FPS# a9 n4 S, g6 @
    Color space                              : YUV& |$ w5 I  H' o5 y: V
    Chroma subsampling                       : 4:2:0 (Type 2)
    ' I1 ~* `, Z' f8 y: t. I+ `6 BBit depth                                : 10 bits+ V" O1 A) E) y$ |; |  s. K
    Bits/(Pixel*Frame)                       : 0.246
    $ L$ b5 s/ W( `0 b! I* IStream size                              : 44.2 GiB (73%)
    # V2 G% b6 @  t( H- x9 ^0 G! e. PTitle                                    : Beauty.and.the.Beast.2017.2160p.BluRayCD.REMUX.HEVC.DTS-HD.MA.TrueHD.7.1.Atmos-FGT
    ; b) K+ w% {/ zWriting library                          : ATEME Titan File 3.9.0 (4.9.0.0)        
    1 E8 b0 c- {$ u+ e; a( FLanguage                                 : English4 ?% `& g0 N8 N. s/ j' G
    Default                                  : No
    % r$ E6 }0 Y6 n3 T8 WForced                                   : No, ?4 }/ Y7 e+ U
    Color range                              : Limited+ t8 p5 k4 D, W+ K2 Q
    Color primaries                          : BT.2020+ L4 X9 m- F" X9 Z
    Transfer characteristics                 : PQ
    . G$ x( A# E- R5 L( i4 A' sMatrix coefficients                      : BT.2020 non-constant! W4 t! d5 f: ?
    Mastering display color primaries        : Display P3
    3 h9 _2 Z5 ]" R# \; A3 ~8 {) oMastering display luminance              : min: 0.0050 cd/m2, max: 4000 cd/m2
    5 \+ _* A" q' _) p. W' g& C
    9 k5 E& K9 @  K) bAudio #1
    9 R! S, L# @: E, }ID                                       : 2# ]) j& J) F3 Y; i
    Format                                   : MLP FBA 16-ch' ~/ o" S+ D+ B0 K% ]( n! V
    Format/Info                              : Meridian Lossless Packing FBA with 16-channel presentation8 d% `$ }5 N- ?5 ?
    Commercial name                          : Dolby TrueHD with Dolby Atmos. l  c% B/ p8 w. I2 U6 ]
    Codec ID                                 : A_TRUEHD
    6 Y$ p" h: [( u8 o. tDuration                                 : 2 h 9 min* b1 [% r3 J1 t: p$ m1 v3 E
    Bit rate mode                            : Variable% L' B) s5 s, y5 L' f
    Bit rate                                 : 4 936 kb/s1 `  l, [5 Y% }& s. |$ l; E$ S
    Maximum bit rate                         : 8 103 kb/s/ ~4 o8 L' O/ p8 _! k  W+ R" b
    Channel(s)                               : 8 channels0 u7 m6 X( d0 H& n
    Channel layout                           : L R C LFE Ls Rs Lb Rb- |( ^( c) T, E- X7 C% C
    Sampling rate                            : 48.0 kHz
    / a# T5 G; R2 O; h$ DFrame rate                               : 1 200.000 FPS (40 SPF)8 d9 l0 r# M$ _0 f) D, U' l
    Compression mode                         : Lossless0 z* c) _" B( U$ S
    Stream size                              : 4.46 GiB (7%)' d" M$ p, N) |* n$ V3 F
    Title                                    : Beauty.and.the.Beast.2017.2160p.BluRaycd.REMUX.HEVC.DTS-HD.MA.TrueHD.7.1.Atmos-FGT, y+ ~' ~! t1 a8 l7 ~; l
    Language                                 : English2 D7 N/ K( u& ], g! `0 ?8 h; i
    Default                                  : Yes- t3 e3 f. ^. U' n
    Forced                                   : No
    , H" O9 I" z6 N- W3 D! xNumber of dynamic objects                : 13
    - c7 @  ^- r  B# ]/ }Bed channel count                        : 1 channel9 t! i: m: s6 J# X
    Bed channel configuration                : LFE
    ; F  _* z+ P+ b5 @0 G" _, S
    # w2 w) R  O! B& Z$ Q; WAudio #2  f' u- R, }! m
    ID                                       : 3
    * Z# e4 i- s+ p' qFormat                                   : DTS XLL$ R( o. Z( J0 ~, O) P* y  C
    Format/Info                              : Digital Theater Systems
    0 H! b4 r. h* I8 L- X" {5 h- x5 @Commercial name                          : DTS-HD Master Audio6 I: L4 \1 _; |
    Codec ID                                 : A_DTS
    ; @) b& g$ P7 SDuration                                 : 2 h 9 min
    0 ]& t: P/ F' u0 O" k8 y' dBit rate mode                            : Variable8 s6 C' y- ^4 H# b
    Bit rate                                 : 4 075 kb/s
    3 }6 \& ^' z; B( x" O! l4 b+ U) q5 rChannel(s)                               : 8 channels
    0 ^- ~8 Y* N8 P/ NChannel layout                           : C L R LFE Lb Rb Lss Rss
    # g% a8 ^% ]% x. H# x) Z+ N' SSampling rate                            : 48.0 kHz1 ?0 ]9 q7 \  q  Y5 l& C7 \& D
    Frame rate                               : 93.750 FPS (512 SPF)& [% t- x" m2 V5 x
    Bit depth                                : 24 bits8 l1 Q0 e' J7 r8 a# Q* m" B* ]4 D
    Compression mode                         : Lossless; V  q1 _( d7 x" _4 [5 I
    Stream size                              : 3.68 GiB (6%)7 t# I4 M5 T: _" G5 e% n4 x
    Title                                    : Beauty.and.the.Beast.2017.2160p.BluRaycd.REMUX.HEVC.DTS-HD.MA.TrueHD.7.1.Atmos-FGT
    , K! \; x; b9 J, V* `' C# bLanguage                                 : English
    9 j: Y2 U1 e6 J9 c0 S6 W6 tDefault                                  : No
    : \* y) R. T' S  X( GForced                                   : No
    6 m1 K: Y! Z- o3 \/ c1 Y% h2 s' c/ U. y. V5 R# g2 Y4 @) ~# G
    Audio #3: K) {( C0 h1 e# X- z
    ID                                       : 4
    0 g! X( f1 v) `Format                                   : AC-3
      Q+ H, S' a) ?Format/Info                              : Audio Coding 3$ d/ O) b- E5 S/ ]3 ]# l
    Commercial name                          : Dolby Digital
    , U2 v# c: t# g6 h% s) Z7 F, SCodec ID                                 : A_AC3
    : {& j! u* r+ ODuration                                 : 2 h 9 min% i6 w( f. X& e
    Bit rate mode                            : Constant& g+ x9 z+ H. R9 i6 E5 c2 U7 y
    Bit rate                                 : 640 kb/s1 H4 T5 `) L2 s! ?% ]- U
    Channel(s)                               : 6 channels
    $ Y/ a$ ^6 n1 h* p( mChannel layout                           : L R C LFE Ls Rs
      {, ^$ f# P/ d6 H5 q' S# O& JSampling rate                            : 48.0 kHz
    $ A+ g  n, i" e0 G+ X. P: TFrame rate                               : 31.250 FPS (1536 SPF)
    ) {' |1 g. d6 V# VBit depth                                : 16 bits
    # n) v) g( J- @4 F& t5 }+ dCompression mode                         : Lossy
    9 L: o$ d8 Z; ?, X* N# P$ qStream size                              : 592 MiB (1%)
    8 \- x/ R0 d' t/ G" U% H  \Title                                    : Beauty.and.the.Beast.2017.2160p.BluRaycd.REMUX.HEVC.DTS-HD.MA.TrueHD.7.1.Atmos-FGT
    # q- Q! }& V/ Y+ uLanguage                                 : English" M( y- m8 v0 \# k+ ^5 h- Y7 ?$ h
    Service kind                             : Complete Main8 s5 ~4 b0 _- H0 K* q% O, o1 W
    Default                                  : No5 I, W' V# X: F) K
    Forced                                   : No  [4 r+ j' F1 O; O, I5 e1 b( C% N

    # W3 D2 d* a; `0 e& j3 d" \Audio #48 j1 {8 [0 X  U3 [4 [% Z6 C  _: J. \
    ID                                       : 5
    7 O, k$ k6 V* pFormat                                   : AC-3! b5 [* W/ F& d5 ~" p0 N  h
    Format/Info                              : Audio Coding 3% G' p& K; D4 i( v
    Commercial name                          : Dolby Digital" F9 h+ Q+ x9 a1 g# D. S) T
    Codec ID                                 : A_AC3: T4 d; R9 {; q1 V9 ?$ \
    Duration                                 : 2 h 9 min
    + h0 C, y7 b3 ?7 `; ~5 oBit rate mode                            : Constant
    $ F" S/ `; a* T& Q; IBit rate                                 : 320 kb/s! |* h  q+ c' c! T8 _; ]' R
    Channel(s)                               : 2 channels: ?& d0 T% w9 w2 M; k
    Channel layout                           : L R/ u7 R9 F& B- P' n- t; N9 s2 x
    Sampling rate                            : 48.0 kHz
    7 r. U( f5 S" h. tFrame rate                               : 31.250 FPS (1536 SPF)' }- o  A3 h$ S, G: ~7 v) W) j
    Bit depth                                : 16 bits; b6 ~6 j& @4 E3 I' n. L" K
    Compression mode                         : Lossy* Q6 a; r3 G  e  |  _
    Stream size                              : 296 MiB (0%)
    8 @# g: _6 h6 n& Z( y& lTitle                                    : Beauty.and.the.Beast.2017.2160p.BluRaycd.REMUX.HEVC.DTS-HD.MA.TrueHD.7.1.Atmos-FGT
    . F" o1 ~  m& C; WLanguage                                 : English
    3 k; C' M; @+ c/ x  \  j4 wService kind                             : Complete Main* r  G; t/ D. Y6 s. d6 a$ v/ G2 J4 h' b
    Default                                  : No
    6 F1 {0 D9 c2 ZForced                                   : No
    6 g; ^) ^9 g) I' V; W- A5 o% Z, B) E  |; g
    Audio #5
    3 x# F  m3 O( b+ Q2 QID                                       : 6
    1 P: g: j* b: p* V$ @Format                                   : E-AC-30 P" N+ V+ |5 l
    Format/Info                              : Enhanced AC-3# B: i: Z0 N# K* V' }
    Commercial name                          : Dolby Digital Plus( Y% n% Z7 `3 p; v' B
    Format profile                           : Blu-ray Disc
    ) n+ _6 R9 i8 f  i' NCodec ID                                 : A_EAC3
    7 Z1 k; i2 ]) P: a8 E5 QDuration                                 : 2 h 9 min$ |! v, W: n# ^7 B+ F/ X
    Bit rate mode                            : Constant
    6 E0 L8 v. {7 ~. |, OBit rate                                 : 1 024 kb/s4 s! f# Z6 d! x3 m! H2 f9 E. t( o0 e
    Channel(s)                               : 8 channels
    5 D1 {6 M6 e, s$ z% PChannel layout                           : L R C LFE Ls Rs Lb Rb$ c6 s/ _( E/ G5 ?8 E2 c* A
    Sampling rate                            : 48.0 kHz% n! e. x& G9 O# T9 m. S$ |9 T
    Frame rate                               : 31.250 FPS (1536 SPF)
    . A' q7 e" e6 I, S) uCompression mode                         : Lossy4 O1 c' z/ e$ X
    Stream size                              : 947 MiB (2%)8 g3 G8 B9 h; e8 ?
    Title                                    : Beauty.and.the.Beast.2017.2160p.BluRaycd.REMUX.HEVC.DTS-HD.MA.TrueHD.7.1.Atmos-FGT
    : H: }) @- o! `# n) [% h( jLanguage                                 : French& k7 e8 G# H8 f/ N( L; F/ U, h
    Service kind                             : Complete Main
    ! _4 g$ Q) c2 c" @0 nDefault                                  : No
    4 ^3 S7 x  G, N0 Y5 `, f1 p3 }Forced                                   : No3 Z& F$ F7 S) v1 E! a) ]. H

    ( ?& I' O# L% j4 M' }) s) H$ JAudio #6, }  A/ y8 O) O* E  n
    ID                                       : 7. I3 p0 f. k1 V2 p" X9 L. V
    Format                                   : AC-33 _# ~$ o. H3 h8 ^
    Format/Info                              : Audio Coding 39 F/ S2 |- f2 a/ F" ?( K: X  k
    Commercial name                          : Dolby Digital! p! Y* B* t, r8 t( a7 k
    Codec ID                                 : A_AC3" L$ A; c4 s# E# v" N# n0 K
    Duration                                 : 2 h 9 min
    # A7 p4 }- n+ O* O) V: I+ u6 `' ~8 sBit rate mode                            : Constant9 }2 J2 ^0 ?0 y$ I: i" }
    Bit rate                                 : 576 kb/s5 w  z" T& V8 O4 _3 n. S3 h7 C
    Channel(s)                               : 6 channels% }* l* O! B/ e# E, j. d
    Channel layout                           : L R C LFE Ls Rs8 B( D/ h! V$ n8 t# I3 R' ^% y
    Sampling rate                            : 48.0 kHz0 N  Y4 X8 |. M7 ^; L: c* c
    Frame rate                               : 31.250 FPS (1536 SPF)
    : q' q) W5 |- i$ s& I& TBit depth                                : 16 bits
    ' P9 l% c# c) r/ a; \' YCompression mode                         : Lossy" S2 D- F) k6 [9 ~# t* A+ |
    Stream size                              : 533 MiB (1%)
    # Z6 _4 h5 M3 _7 gTitle                                    : Beauty.and.the.Beast.2017.2160p.BluRaycd.REMUX.HEVC.DTS-HD.MA.TrueHD.7.1.Atmos-FGT
    $ |. |0 D& s0 g  Z9 G# ?9 @Language                                 : French
    6 W* z( [' r6 VService kind                             : Complete Main
    ( u  ^9 i0 b7 W5 K9 yDefault                                  : No% W# d* z, d0 E) C. H5 \, c. d
    Forced                                   : No
    9 G% L; ]3 I( J# {0 {7 f' S6 R0 h& W* `2 n9 V
    Audio #73 o% V( P3 G0 ^2 T4 }
    ID                                       : 8( p2 n& G9 E3 H3 j0 }5 ]
    Format                                   : E-AC-3
      t' |: S0 {1 w; ZFormat/Info                              : Enhanced AC-3
    " m! N3 k$ h  ~Commercial name                          : Dolby Digital Plus$ u9 {9 H' @+ a) ^
    Format profile                           : Blu-ray Disc" j: m3 |- F' A: g6 K
    Codec ID                                 : A_EAC3' q5 C) b; a8 G% G) y7 L  f
    Duration                                 : 2 h 9 min- Y/ }0 Z, L, {
    Bit rate mode                            : Constant' L- v" D0 F9 V) l) {  G" u7 k
    Bit rate                                 : 1 024 kb/s
    . ^+ A! o- Z6 Q# h) S1 n0 K% rChannel(s)                               : 8 channels
    ) H2 \5 o. Y& e% m( f8 CChannel layout                           : L R C LFE Ls Rs Lb Rb2 }, l7 |8 G# s- f. ~7 s
    Sampling rate                            : 48.0 kHz
    ) O5 _) ^* o* A- P( sFrame rate                               : 31.250 FPS (1536 SPF). ^1 f) _) O0 y! j% i
    Compression mode                         : Lossy& u# L$ W1 a7 I4 p
    Stream size                              : 947 MiB (2%)4 w  n( p: u; @8 ], E
    Title                                    : Beauty.and.the.Beast.2017.2160p.BluRaycd.REMUX.HEVC.DTS-HD.MA.TrueHD.7.1.Atmos-FGT
    / l3 _1 T( p: o: f+ S$ p: WLanguage                                 : French
    4 @3 t" z, h$ I+ Q6 iService kind                             : Complete Main
    ' u2 `# U% p" b* gDefault                                  : No
    ; w2 n' W: Z- T, z. ZForced                                   : No
    2 A1 n; z8 ^) j8 t3 p. Z4 E, X0 M- u$ Y3 D/ V; V# N
    Audio #8, `* S- Z! d3 F9 U4 j
    ID                                       : 9! P. x5 r+ Q/ E0 i$ t- c6 u
    Format                                   : AC-3) c! K% C' G/ R1 o) h+ B8 `
    Format/Info                              : Audio Coding 37 w. Z" I/ F. E
    Commercial name                          : Dolby Digital1 f+ |4 R6 [$ e: R7 R
    Codec ID                                 : A_AC3: b( m  a* E; F  P0 J9 J
    Duration                                 : 2 h 9 min
    # I' l) y: j* P2 e. b" l) z$ \Bit rate mode                            : Constant
    , F6 o# @- m  B4 e$ p2 qBit rate                                 : 576 kb/s# z7 R2 h$ b: _0 w" J4 _
    Channel(s)                               : 6 channels
    + i% q. Y  h1 U) W+ N' ]Channel layout                           : L R C LFE Ls Rs
    $ H$ C' f/ ?, k) `; i' SSampling rate                            : 48.0 kHz0 a9 h2 @: k* R- ]$ j( Y& E: [5 a
    Frame rate                               : 31.250 FPS (1536 SPF)6 _1 v  |# T9 @* v) ?
    Bit depth                                : 16 bits
    0 l! `9 u( ~( n; `3 NCompression mode                         : Lossy
    5 s- \3 ~! y4 M! @4 N- \Stream size                              : 533 MiB (1%)9 r0 S! {" O) m4 ]  j' Y, \
    Title                                    : Beauty.and.the.Beast.2017.2160p.BluRaycd.REMUX.HEVC.DTS-HD.MA.TrueHD.7.1.Atmos-FGT- H4 m$ ~/ `7 }6 f, k+ b& e  w
    Language                                 : French
    0 j0 D+ j9 s& ~7 n" o  i! MService kind                             : Complete Main3 `8 Z6 B+ X  P# g2 c
    Default                                  : No2 U- ?, k9 a; X  j8 J( I1 V
    Forced                                   : No/ s8 P* V# H" S" a0 p
    4 B3 ^9 E) Q" m6 V1 I/ Z4 h  e
    Audio #9
    " O& R5 r& t2 f/ q: O* LID                                       : 10  L' ]- o# C0 O0 w
    Format                                   : E-AC-3
    6 \$ U. v$ t9 ?! U) yFormat/Info                              : Enhanced AC-3
    1 a: ]8 g! q$ S8 l8 A" TCommercial name                          : Dolby Digital Plus9 r3 i/ z0 {$ ]8 p% C1 }' \
    Format profile                           : Blu-ray Disc
    $ p& b6 R, L9 x4 ~: ]1 H, ECodec ID                                 : A_EAC3
    4 I" W: b7 E4 o/ Q& RDuration                                 : 2 h 9 min
    $ J/ @9 ^/ k6 ^+ |( F* u1 [Bit rate mode                            : Constant9 K+ y' l- V9 ?* ^
    Bit rate                                 : 1 024 kb/s
    " o& }( H! w- K6 W1 eChannel(s)                               : 8 channels2 W- v1 g' Z4 e$ Z1 H" q3 h
    Channel layout                           : L R C LFE Ls Rs Lb Rb) R* T) l8 x3 z- z, k# K. o
    Sampling rate                            : 48.0 kHz
    , Z. g3 W9 C5 d  f. r: sFrame rate                               : 31.250 FPS (1536 SPF)* A6 L6 L# ?8 F) l6 r9 s+ i
    Compression mode                         : Lossy% m2 I# v6 K+ |, f; T% H
    Stream size                              : 947 MiB (2%)
    ! A8 F( K# [0 ]& `5 R; |+ o7 bTitle                                    : Beauty.and.the.Beast.2017.2160p.BluRaycd.REMUX.HEVC.DTS-HD.MA.TrueHD.7.1.Atmos-FGT( N8 G! X+ N3 I6 U6 ~2 \7 @
    Language                                 : Spanish
    . {( J5 ^7 \/ E0 m( Y5 S' cService kind                             : Complete Main
    # l" Q6 r1 @' V7 `: B) y* H, K8 M3 yDefault                                  : No! ?7 e# X! [+ b% L# d
    Forced                                   : No
    : |! b( U. z; q6 i0 @
    0 q9 W8 j$ T6 r! Z+ [Audio #10
    " X$ K4 Z0 {: J2 [( M# xID                                       : 11
    ; u9 i( _9 h, k# M5 SFormat                                   : AC-3$ V# \- K5 ^# v1 f6 s0 K" }& g
    Format/Info                              : Audio Coding 3
    1 h3 B  N6 T. I9 j. U8 t' kCommercial name                          : Dolby Digital
    * a. K" e/ z# d$ p2 }Codec ID                                 : A_AC34 A6 T/ E% A4 a8 e; r
    Duration                                 : 2 h 9 min9 H. x- Z" ]6 p4 x! h" ?2 h
    Bit rate mode                            : Constant2 X- m; l* K0 @3 T
    Bit rate                                 : 576 kb/s% v8 V( h+ p  U7 E0 m4 U* ^( Q$ ]
    Channel(s)                               : 6 channels
    % K4 B; m9 m6 i% PChannel layout                           : L R C LFE Ls Rs
    * ^8 L$ T; \, Q8 J( F0 Y8 sSampling rate                            : 48.0 kHz1 G/ T2 u  y$ Y3 o
    Frame rate                               : 31.250 FPS (1536 SPF)$ y9 O4 c* f# H! {
    Bit depth                                : 16 bits$ {0 D: h3 l$ _' g# f, I# ^
    Compression mode                         : Lossy: {& ^. o4 _# q" e5 V9 Q. q
    Stream size                              : 533 MiB (1%)+ c& Q+ R4 n5 `7 G) I; N
    Title                                    : Beauty.and.the.Beast.2017.2160p.BluRaycd.REMUX.HEVC.DTS-HD.MA.TrueHD.7.1.Atmos-FGT
    7 a. p* w! t; g# a- o) jLanguage                                 : Spanish
    , L# _$ }+ h* L# Q0 }+ @Service kind                             : Complete Main5 a5 ^* v; n, F# t
    Default                                  : No5 s- a; l. c. S9 S
    Forced                                   : No
    ) C( H' h8 V" W/ ~6 i  M$ m; e$ `3 ~4 F3 X4 U: [6 R! g: z- h
    Audio #11; |1 `* k$ ]9 y2 Y6 u
    ID                                       : 12+ G4 W8 W* w) p8 {- v: s- e
    Format                                   : E-AC-3
    + x8 e: h4 m8 l* I+ R1 GFormat/Info                              : Enhanced AC-3' f" u! Z4 q  O3 \6 ?+ D& u* l1 I
    Commercial name                          : Dolby Digital Plus
    & u0 g7 @! i8 r# z3 pFormat profile                           : Blu-ray Disc7 r" J; i  e. O
    Codec ID                                 : A_EAC36 m5 B7 Y: @4 w* x
    Duration                                 : 2 h 9 min
    2 A1 h! {: ^) B0 J$ YBit rate mode                            : Constant* i* I4 W) O" b& G
    Bit rate                                 : 1 024 kb/s' J3 Q. V: d# ?
    Channel(s)                               : 8 channels
    * @0 M# t7 m+ O/ }: o: zChannel layout                           : L R C LFE Ls Rs Lb Rb9 ?& i$ m: \! N: h7 \
    Sampling rate                            : 48.0 kHz+ V6 V3 v3 X' ]( X( E
    Frame rate                               : 31.250 FPS (1536 SPF)) o5 i) m- c2 w+ o" F; P
    Compression mode                         : Lossy
    & O' i6 L0 k4 ^" g" K! JStream size                              : 947 MiB (2%)
    ) _: F) P. ^( D' E* k. [  E% k6 MTitle                                    : Beauty.and.the.Beast.2017.2160p.BluRaycd.REMUX.HEVC.DTS-HD.MA.TrueHD.7.1.Atmos-FGT
    - d. o( K% R, h# b. w5 BLanguage                                 : Italian! G( t9 y2 B% |1 X) U
    Service kind                             : Complete Main9 [0 I# t, Z4 W0 {8 ^
    Default                                  : No
    9 R) p+ _. y, c& gForced                                   : No
      R' E0 p+ @7 l: b8 u0 T( U1 o# i( T6 X  \0 O
    Audio #12
    ' ^, b) u: b: Y5 Z4 F! q: T5 N8 JID                                       : 13  `3 O8 q( G7 s0 F; a6 ?' {
    Format                                   : AC-3
    , k5 J8 ~6 S, s* Z, UFormat/Info                              : Audio Coding 3& J, B) Z' L4 |) ?- ?6 o# L4 D
    Commercial name                          : Dolby Digital
    ; r4 {; {5 V+ l3 m, \% z0 x0 eCodec ID                                 : A_AC3
    3 z' j5 A1 h/ h8 @! YDuration                                 : 2 h 9 min. X* U+ F! B/ c! u  ]5 n( V
    Bit rate mode                            : Constant
    ' A- d7 q7 @: p8 n4 K$ BBit rate                                 : 576 kb/s+ P5 H$ g7 ?, D) m
    Channel(s)                               : 6 channels  k/ K* X( _# `2 v
    Channel layout                           : L R C LFE Ls Rs3 j7 F! x8 E2 d- O* n+ U" Y. n
    Sampling rate                            : 48.0 kHz
    ) o# p6 l2 X: p- hFrame rate                               : 31.250 FPS (1536 SPF)& r- S/ @8 N0 L' f! ~4 N4 S
    Bit depth                                : 16 bits
    & b  p* q, B# b7 q( Q0 H+ |4 A; |Compression mode                         : Lossy
    9 m: s' J+ i( z& b8 D6 iStream size                              : 533 MiB (1%)' L; _  ~9 m4 N$ u1 e1 C
    Title                                    : Beauty.and.the.Beast.2017.2160p.BluRaycd.REMUX.HEVC.DTS-HD.MA.TrueHD.7.1.Atmos-FGT; _/ P! C1 s4 E7 \9 l  b
    Language                                 : Italian" ?/ A# m& [. S8 Q0 L' P  f' m
    Service kind                             : Complete Main
    1 i7 M$ \  |* M) S" JDefault                                  : No# W; g0 X: d% E/ p
    Forced                                   : No
    3 b5 W# [& `+ S. v, {4 ]7 j* E4 f  J( P3 G! g. `- c. r* k
    Audio #131 i3 n% x' C2 y. u' u( z9 T
    ID                                       : 14. @/ N. @0 H2 b. H; N
    Format                                   : E-AC-3
    $ Y/ @3 @5 {* q4 F% E1 rFormat/Info                              : Enhanced AC-3
    7 f! c, t" [7 h3 SCommercial name                          : Dolby Digital Plus2 o! e1 ?: d9 F  ?) s2 [2 z
    Format profile                           : Blu-ray Disc
    5 O1 [& c- B) |* F% rCodec ID                                 : A_EAC3
      t! ]* h7 X" s9 H3 T: ?) _- gDuration                                 : 2 h 9 min9 E3 ^# x0 m" i' B
    Bit rate mode                            : Constant
    + C! _! X1 B; z' Q7 ?8 p( IBit rate                                 : 1 024 kb/s" ]' L2 x" c" }  j6 x% ~
    Channel(s)                               : 8 channels. R  L( t1 @4 u; c: {8 a
    Channel layout                           : L R C LFE Ls Rs Lb Rb& f6 d* R$ P' g7 q  H" j/ R, F4 P
    Sampling rate                            : 48.0 kHz9 k: `# {& ^1 K! k
    Frame rate                               : 31.250 FPS (1536 SPF)* {8 Z/ ]9 k& i" C8 E( y) o" u
    Compression mode                         : Lossy
    ( u& m7 P+ R4 gStream size                              : 947 MiB (2%)9 ^% r3 z) [) X! H) I* M4 Y
    Title                                    : Beauty.and.the.Beast.2017.2160p.BluRaycd.REMUX.HEVC.DTS-HD.MA.TrueHD.7.1.Atmos-FGT/ R2 [2 f" @7 B
    Language                                 : German. y9 p' n! `0 n6 ]
    Service kind                             : Complete Main5 K& O6 k3 F; f2 ?3 U$ n% h
    Default                                  : No, t5 G1 D! G3 I4 ?- J  @
    Forced                                   : No5 K, q9 Y* g, a0 N2 u8 C, q

    3 K/ G, M+ i. w2 Q( m3 k! ~2 eAudio #14
    " D8 A2 c; _6 WID                                       : 15
    9 o0 |; v6 H5 Q. J- @Format                                   : AC-3& \& Z" ]! }- {
    Format/Info                              : Audio Coding 3
    * \4 c) @- B* y6 BCommercial name                          : Dolby Digital
    " J9 o4 ]& I$ F1 w, ECodec ID                                 : A_AC3
    1 K) z, g+ o0 QDuration                                 : 2 h 9 min* D2 |& U4 T! H  I3 N4 k: z
    Bit rate mode                            : Constant) k$ Q5 G3 ?# D' X. a5 c% |* g# y
    Bit rate                                 : 576 kb/s
    - u9 G  ^- O. d  |( nChannel(s)                               : 6 channels. `5 x, @1 E. ?
    Channel layout                           : L R C LFE Ls Rs
      Y& b% v# \' K; ]$ gSampling rate                            : 48.0 kHz: ?  ]6 p/ n+ f% _6 |) q2 l
    Frame rate                               : 31.250 FPS (1536 SPF)! S6 O  Q5 N& F5 f
    Bit depth                                : 16 bits
    ) [+ x& z; `2 Y6 E% oCompression mode                         : Lossy
    6 F0 Z- R3 ?) Z* RStream size                              : 533 MiB (1%)5 [& }9 F' y) c4 L  z* Q+ u
    Title                                    : Beauty.and.the.Beast.2017.2160p.BluRaycd.REMUX.HEVC.DTS-HD.MA.TrueHD.7.1.Atmos-FGT- a3 K) M3 U8 L/ H
    Language                                 : German
    ' x2 X6 q& w& l: u& {* J, @  }Service kind                             : Complete Main; l( a" M' r1 z' C/ X: S# W  E5 g
    Default                                  : No& o' q) y" ?8 U6 b2 ]& X
    Forced                                   : No2 ]0 r9 z! M* @

    * n3 x* k, Y. wText #1
    $ ?( C' L# [7 f1 X" aID                                       : 16
    0 V0 x) T- U% n8 b" T2 E4 E! B9 ?Format                                   : UTF-8
    % P6 D6 ^# r. R0 m' p& c8 b! BCodec ID                                 : S_TEXT/UTF8
    1 t* A, u1 ^9 q& J/ I" RCodec ID/Info                            : UTF-8 Plain Text& P, i4 m$ Y$ _" o2 T  [
    Duration                                 : 2 h 8 min6 G8 Y! h* _/ x& G
    Bit rate                                 : 48 b/s# r$ s( ~. t/ o, T7 s5 ^4 Y: J
    Count of elements                        : 1786
    : X3 {' s6 _1 e! w: M& Z& X8 gStream size                              : 45.8 KiB (0%)
    6 s0 S5 O$ s" `& \Title                                    : English-SRT
    $ _6 ]' t, o3 V& w9 [Language                                 : English5 k, N; S: B  P! E" e
    Default                                  : Yes
    4 ~( F$ p6 I; p7 X3 JForced                                   : No
    ( K' F7 ^% F& P( S+ Z3 i
    ) o* e9 N: Q* x5 |7 b  _Text #28 X  A( y" M6 A" q: ], `. `
    ID                                       : 17
    ! G" G0 c9 ?2 S: \Format                                   : PGS
    " M* j) c: Z# D. FMuxing mode                              : zlib" s( @; }8 G8 k& `4 j2 |5 a
    Codec ID                                 : S_HDMV/PGS
    4 k5 U  c5 p, P+ e  e3 o) W* k9 {Codec ID/Info                            : Picture based subtitle format used on BDs/HD-DVDs1 J. w& l! A1 m# K' M; {8 f7 x, C
    Duration                                 : 2 h 8 min
    ! v# A- g, K) O; F9 f3 f0 O; d2 b  xBit rate                                 : 36.8 kb/s
    ) J& [5 \, J  |5 f9 [: n7 c( L  rCount of elements                        : 4050
    ) c3 M- E1 n: B4 R* ?) c8 F+ AStream size                              : 33.7 MiB (0%)$ L$ Q+ A6 M0 O# z9 z0 E2 P1 B
    Title                                    : English-PGS
    / q- N4 T& w3 P( ]Language                                 : English/ y$ [: c( s/ L0 R
    Default                                  : No$ N( ^. J; ~  q% i6 b- ^/ d
    Forced                                   : No* }+ u1 B1 P  \8 ^% _

    * I( \) @8 y, U9 k2 t5 jText #3: H* [( `) z' C3 E: q/ L! n
    ID                                       : 18
    8 r, W  O5 ]' C2 D/ y9 VFormat                                   : PGS
    9 {% _- z! Q8 m( JMuxing mode                              : zlib- E+ e) C9 @# u; v: d. |
    Codec ID                                 : S_HDMV/PGS
    % H5 v" c9 D$ D4 O" \* L4 P6 |0 L3 j7 SCodec ID/Info                            : Picture based subtitle format used on BDs/HD-DVDs# {  `# O; f/ Z8 X
    Duration                                 : 2 h 1 min7 k0 X" D1 @2 H: s
    Bit rate                                 : 27.4 kb/s2 c0 e. Y# B' F' p
    Count of elements                        : 3128& Q6 ^$ X4 @& N- T: d4 G. p
    Stream size                              : 23.9 MiB (0%)
    . ~6 c! m; h5 XTitle                                    : French-PGS& R" e7 y9 T  c7 V2 f6 l
    Language                                 : French
    . w5 W" Y% b1 D& p' GDefault                                  : No
    2 B0 ^7 a0 h5 ]  P4 qForced                                   : No0 G0 H7 O* ^5 p/ J$ ~
    8 P/ d$ `  v: r. V0 @
    Text #4: a8 s, z0 K$ [' i/ G9 w
    ID                                       : 19
    & @1 ?" V6 u& i( L: Y" P; @! OFormat                                   : PGS
    2 [8 B" \9 C/ t: P" CMuxing mode                              : zlib
    5 g% N0 T% {9 w: O8 `! ?Codec ID                                 : S_HDMV/PGS2 V0 q# q9 V) y- P/ F, ^
    Codec ID/Info                            : Picture based subtitle format used on BDs/HD-DVDs
    * @  O" M- b  l% o: s9 _/ x' K2 RDuration                                 : 2 h 8 min
    2 d) h5 ]1 d* o6 g" ~Bit rate                                 : 32.5 kb/s. E9 [+ K$ \( O: h* j) w. W) E
    Count of elements                        : 34485 x& `; W; ^* A! d: K+ J; @
    Stream size                              : 29.8 MiB (0%). [  x* _$ e) p7 U% P. M
    Title                                    : French-PGS
    9 T. g! L( W& A$ fLanguage                                 : French6 {2 y. _6 Q4 }: S7 q6 ]5 r' I2 _
    Default                                  : No
    ( S2 j1 f  p. _1 `Forced                                   : No" }( d/ D5 S, k- U; D" u
    8 y  s9 H: |% C7 A0 I
    Text #55 Q' g. A% c, V& L# P( F7 ~+ P9 @
    ID                                       : 20
    ) s* M' R! {. ?* z/ fFormat                                   : PGS3 G4 U$ h7 d3 m# T+ J
    Muxing mode                              : zlib
    : ]2 i: t4 `- Q/ b  _Codec ID                                 : S_HDMV/PGS
    0 ]! B9 L1 T: Q4 WCodec ID/Info                            : Picture based subtitle format used on BDs/HD-DVDs* {# G7 l- a0 M7 k  h! z
    Duration                                 : 2 h 1 min; }: \$ ?. g4 |7 g% X
    Bit rate                                 : 29.4 kb/s
    7 Q2 z# p+ p; o6 o) S. c) BCount of elements                        : 3188
    * m2 r( @# P2 u+ V" p& YStream size                              : 25.7 MiB (0%)
    % m; h0 j, r+ ~9 tTitle                                    : Spanish-PGS) x* m- D- P% X( Y8 f* y8 K
    Language                                 : Spanish
    : O7 z1 L3 x3 x4 \5 ?7 hDefault                                  : No
    + Y( _; G* H  S% H, Y' [9 MForced                                   : No
    3 m" N* U  Q) P& y# \4 f/ f7 l& \* b  k( s' M9 |
    Text #6
    + W7 s7 [# k1 b0 W( G4 K& MID                                       : 217 q$ `; u! }, C0 t; l4 N5 r- u
    Format                                   : PGS
    : `6 ?) p. A& O& d2 i$ kMuxing mode                              : zlib
    / S- @' g7 E. @( [Codec ID                                 : S_HDMV/PGS
    8 e- g% ^% A1 B4 m& `6 OCodec ID/Info                            : Picture based subtitle format used on BDs/HD-DVDs
    0 Q+ \8 L! x; w& X' U4 Q! X- ]Duration                                 : 1 h 57 min1 e* q5 E( E* X3 E) U
    Bit rate                                 : 31.2 kb/s' i" O4 c  r8 D& v" y. d, `; Y
    Count of elements                        : 31886 g: ^! B1 r6 P4 c# z  H/ @: w
    Stream size                              : 26.3 MiB (0%)
    ) ^1 L# A9 b. I( ?7 |- Q* `9 nTitle                                    : Italian-PGS
    + Q! ?2 H* B! q  O9 r4 lLanguage                                 : Italian
    % q8 k. d8 n, A7 W% \Default                                  : No
    " N$ F7 L, P8 W9 RForced                                   : No
    ' G% x" W( n$ [) K
    8 a1 g* c) @# [( mText #7
    $ R1 y/ ~  ?; Y  A( |% ]2 uID                                       : 22
      M* l( H, }2 ^Format                                   : PGS$ u7 B! z* h7 `
    Muxing mode                              : zlib+ r$ Z3 v( b! x5 C  `% {
    Codec ID                                 : S_HDMV/PGS
      H( [" J# [/ r. c" ]Codec ID/Info                            : Picture based subtitle format used on BDs/HD-DVDs
    # j* D. {" l+ t2 H; d# a  CDuration                                 : 1 h 57 min
    6 f5 G4 f6 f7 ~7 c; D0 Z9 gBit rate                                 : 30.6 kb/s
    6 f: e' f4 D$ u' `$ l% {Count of elements                        : 32283 S4 _$ v- w" E, H
    Stream size                              : 25.8 MiB (0%)% {+ q1 h& C- b1 c. ~3 B6 {% ~
    Title                                    : German-PGS
    ! u: F! e1 N/ M4 z0 F5 J0 uLanguage                                 : German
    6 h+ F& {" N0 f% ?  E, P; F/ a8 TDefault                                  : No. v4 V' Q0 R' C4 Q8 l9 b$ D7 _
    Forced                                   : No
    ; S$ y9 Z( G0 o; y/ Z$ e- g  P( ?+ Y% i# r
    Text #8# S* \1 q' f* D/ P! P' W
    ID                                       : 23
      d3 M, r2 ^& a6 `9 s" Q* OFormat                                   : PGS
    8 {' B. i% g1 o& E2 M- bMuxing mode                              : zlib
    " R' S; z7 I& Y7 X* jCodec ID                                 : S_HDMV/PGS8 b1 N1 }  M, T/ z& y% ]: \
    Codec ID/Info                            : Picture based subtitle format used on BDs/HD-DVDs
    ( ^) t' n7 ~& j2 ^! h! D* M5 mDuration                                 : 2 h 8 min8 i" c/ h2 H6 ^( h1 F' n
    Bit rate                                 : 27.4 kb/s2 m: T2 b! j* |$ b/ g( ]# w7 z
    Count of elements                        : 3194) Q  M" @! A0 q5 x1 |
    Stream size                              : 25.1 MiB (0%)2 Y+ O  C+ X% {7 b; S9 _/ L
    Title                                    : Norwegian-PGS3 N$ H  Y! }* z% b  X$ }, H3 }
    Language                                 : Norwegian3 d- I3 s5 O9 H! s6 ?4 j- i
    Default                                  : No9 j5 C0 X$ r- k2 W
    Forced                                   : No
    - v" ^4 a, h; T9 z1 d8 j) k% L. A3 a" v5 q& j4 m
    Text #9  d: ]7 \7 [! M8 v
    ID                                       : 24) [4 O3 Q( f+ ^' L8 x  t4 x  f" r+ |
    Format                                   : PGS
    / O9 g( o4 C3 {Muxing mode                              : zlib- v. \) F4 S) E, x+ U. b
    Codec ID                                 : S_HDMV/PGS# u0 H  i( t+ i' V: y
    Codec ID/Info                            : Picture based subtitle format used on BDs/HD-DVDs
    4 ]/ D' b! [7 \. c3 B7 C# VDuration                                 : 2 h 1 min9 v: ^# f; V# u
    Bit rate                                 : 27.2 kb/s
    : |) m8 r. i6 B# c4 C2 O6 d. h: ICount of elements                        : 2378" Z' E1 m6 k( S5 \: b* h4 v
    Stream size                              : 23.7 MiB (0%)+ P( O& {7 T3 g9 ]- B# `
    Title                                    : Swedish-PGS
    9 w& r+ x* G$ h4 S9 QLanguage                                 : Swedish
    : X% r! I, R0 F0 V' R& M' _: ]- Y# ^Default                                  : No4 f/ Z3 R' ?! V/ X
    Forced                                   : No$ P' ^. @1 N: w( q( e" x5 `

    + B+ G% E# U- S8 J1 ]2 }Text #10$ y' |. o) p, R; j# R. o$ H
    ID                                       : 25
    ! y# ?+ n& Q/ L- n: w+ ?8 v6 c7 ?, sFormat                                   : PGS
    7 a, C, Z. Z9 v! [( @) G% n+ ?Muxing mode                              : zlib
    6 g! p, P: R4 v; P' kCodec ID                                 : S_HDMV/PGS
    * q" Q& O% ?6 w7 h, \: p! o9 O& fCodec ID/Info                            : Picture based subtitle format used on BDs/HD-DVDs  G; L* n2 _. k) G+ \1 Q
    Duration                                 : 1 h 58 min* }* t$ [* o! x; O; T
    Bit rate                                 : 24 b/s$ ~) e7 s' N$ u& ]8 s$ l% E
    Count of elements                        : 4
    1 ]7 Z4 t: f' R4 ^: b5 mStream size                              : 20.9 KiB (0%)
    ! W: H" L1 s& O* \- b$ kTitle                                    : French-FORCED-PGS
    4 c3 q) W8 M! l& Y$ N; w4 PLanguage                                 : French
    ! M2 P! F- k# Y. ^5 F& l0 xDefault                                  : No+ o/ u, c7 F0 x- c6 S1 b* s- h, H
    Forced                                   : No* E1 K! s/ \# D2 U, A% u- w
    * V# b/ C3 z% m
    Text #11
    . u! {% E; \' H: e- ~ID                                       : 26
    3 B$ N$ \. U5 Z) ?Format                                   : PGS4 a. x. p& v( q* W
    Muxing mode                              : zlib
    * @: @7 U) u7 w1 bCodec ID                                 : S_HDMV/PGS
      {' T3 a" H7 O$ t0 F) @7 ~Codec ID/Info                            : Picture based subtitle format used on BDs/HD-DVDs
    - Q) D( d1 i7 F1 {$ D4 v$ DDuration                                 : 3 min 40 s+ Z; j1 ~1 H0 ^- y
    Bit rate                                 : 14.5 kb/s
    % H( z, E( w( I/ r0 i1 A9 @Count of elements                        : 764 h2 ]( C2 v3 M: n* u* A
    Stream size                              : 389 KiB (0%)
    2 o9 m0 S# E3 t" R* F- o8 NTitle                                    : French-FORCED-PGS* I' l4 s; X0 n' o2 c* D; u, [
    Language                                 : French* D3 Q' e( M8 [" ^0 H5 Z! r) n3 p: w# d
    Default                                  : No, w) a8 Q( Y: g1 t) O* v/ l0 p2 M. Y
    Forced                                   : No
    7 B' P0 n: x3 `4 e4 o) @8 F% B) }0 ?9 C7 q. g2 m* V) l
    Text #12
    , l1 I: i. f) j3 |; vID                                       : 27
    ; J% B2 _8 g7 W2 s; @9 FFormat                                   : PGS
    + D& |5 h( r# E1 N4 mMuxing mode                              : zlib; l% R+ ]1 u# d+ L& H
    Codec ID                                 : S_HDMV/PGS
    ! W, p- \5 G* b# d, Q5 \/ SCodec ID/Info                            : Picture based subtitle format used on BDs/HD-DVDs
    3 A3 q: L2 I7 Z6 qDuration                                 : 4 s 192 ms; o9 e: W. T1 c) K* S# z
    Bit rate                                 : 24.2 kb/s1 w% g% {3 I: M- H
    Count of elements                        : 2/ n" @! f- p+ f4 z
    Stream size                              : 12.4 KiB (0%)
    % X8 ^! u% `: L2 j0 M/ B- H5 cTitle                                    : Spanish-FORCED-PGS/ w: u  @! `! D5 K) v& i- K. ?
    Language                                 : Spanish
    ; b" I8 f' ?0 N, i9 _Default                                  : No3 {" J! o. u3 U. s& s
    Forced                                   : No
    . M4 L; q' g1 I$ _" `
    , J/ Y, i3 M- q* M/ M5 @Text #132 I# U! `* r! U  F
    ID                                       : 284 X9 D& G2 N  I- L
    Format                                   : PGS
    7 U, K: N* r8 vMuxing mode                              : zlib* ]1 I- S& `/ z7 M/ m& {8 {
    Codec ID                                 : S_HDMV/PGS6 u- P6 Q; ^+ G) o
    Codec ID/Info                            : Picture based subtitle format used on BDs/HD-DVDs# o; p2 R2 N  g( w" f
    Duration                                 : 4 s 359 ms
    : G- r) v  X- L# g4 aBit rate                                 : 22.7 kb/s
      l/ U1 w# J  u4 C; t% cCount of elements                        : 2% s/ ^/ S8 W. u: ^+ r$ X' u
    Stream size                              : 12.1 KiB (0%)8 a, i" w% o$ X. K2 v
    Title                                    : Italian-FORCED-PGS
    ) J( M7 J: d3 T2 E# ELanguage                                 : Italian
    : m+ K6 d0 J! ODefault                                  : No
    # u" `5 I4 k8 w9 r# NForced                                   : No
    - d! @3 X+ ^& P: J  J4 h
    - W/ k, _, y  W& [4 Y* rText #14
    5 v4 x' k$ Z* U4 ^ID                                       : 29
    2 }* j7 I7 ^- t5 Q1 g4 N7 q0 B3 NFormat                                   : PGS
    3 W! x  k& b( cMuxing mode                              : zlib6 ], K! T2 E" ~1 D" V2 m5 {( E
    Codec ID                                 : S_HDMV/PGS
    + H# O9 ^% z. ~( H( I7 \* gCodec ID/Info                            : Picture based subtitle format used on BDs/HD-DVDs
    0 |6 R) B" l, @Duration                                 : 2 s 774 ms5 r  Q; ^3 M+ e$ `. @- I
    Bit rate                                 : 54.6 kb/s6 W( _" m& ~* |6 H: s
    Count of elements                        : 26 j7 w2 M% j5 C! k6 k+ O
    Stream size                              : 18.5 KiB (0%)
    % j' b: x6 P) Q. h6 A) ~8 sTitle                                    : German-FORCED-PGS
    % U% i- [7 V! Y. \% cLanguage                                 : German9 u& N6 T. t+ \8 d; I7 r# e, z
    Default                                  : No7 |' r2 s4 ~7 p4 ~1 a: x6 d
    Forced                                   : No( d5 W& m9 J) y' N- {
    - {3 i' U( k- J! P/ b* B
    Menu$ j/ c/ I  R+ v6 s1 p" O
    00:00:00.000                             : en:Chapter 01" I. F# I! R; c; u- Y) h
    00:04:35.817                             : en:Chapter 02
    ; T2 ?( h" [; v" N" F00:08:06.402                             : en:Chapter 03- L# M" h# c' a: T
    00:11:18.135                             : en:Chapter 04
    % d! ]; S" q/ w. A- J) P! L- A# {00:15:21.420                             : en:Chapter 05
      }' z3 \( t( y0 P00:18:57.136                             : en:Chapter 06
    3 ]: I0 Y  |2 h. \+ @: B00:25:05.795                             : en:Chapter 07* A9 Q/ t  c) Y5 u& [  e
    00:31:41.441                             : en:Chapter 08
    * v+ y. T8 m! _) k% j7 u9 j: r00:36:08.583                             : en:Chapter 09
    # ~  C  y2 l* e/ T4 ^" @6 K00:42:31.882                             : en:Chapter 10
    ; S7 V3 [8 A6 S2 t1 p00:47:01.193                             : en:Chapter 11# V/ z7 M6 o3 o$ m9 z; k5 q  w
    00:54:44.864                             : en:Chapter 12+ M. k: {1 Z& Q+ w" X! ~0 [
    01:00:43.431                             : en:Chapter 13+ y8 o: W1 M. e8 m. D9 h$ Y- m
    01:07:40.806                             : en:Chapter 14+ ^1 u, b5 M* l, C' ]" Z* N5 l
    01:14:38.098                             : en:Chapter 15
    . x( M$ g  ^8 h& N$ ?01:19:43.570                             : en:Chapter 167 T5 u1 i5 y9 M( j  _
    01:22:02.417                             : en:Chapter 170 Z- c. F6 h* {, \5 G
    01:28:53.202                             : en:Chapter 18
    : b# ^7 b( L. s% f6 F% |- i& v01:34:01.177                             : en:Chapter 19  k4 k6 i: c3 j- N' |" e" A
    01:38:10.050                             : en:Chapter 207 Z; ^5 X( o/ Z0 t' j# T) @
    01:45:23.567                             : en:Chapter 21' r/ ~, e3 Z! I
    01:49:13.838                             : en:Chapter 22( a* W, p! p4 q
    01:55:53.738                             : en:Chapter 23
    , F) o! J) M, K1 d01:58:49.080                             : en:Chapter 24

    : ~' |* G9 E4 C7 F* E
    游客,查看本帖隐藏内容请回复 | 加入VIP贵宾组可免积分免回复下载 立即了解 | 还不是会员:点击获取邀请码 Invitation Code

    相关帖子

    该用户从未签到

    0

    主题

    20

    帖子

    194

    积分

    Sponsor

    金币
    113 枚
    体力
    40 点
    toxcoo 发表于 2020-3-8 10:28:14 | 显示全部楼层
    每天都来蓝光论坛看看,我爱蓝光电影。
    " m. g% h3 u4 t, p6 QAfter reading the posts have nothing to do I Amoy posts!4 Y! J% g+ y+ O4 B) e8 ~2 @7 p- @" v

    本版积分规则

    小黑屋|Archiver|蓝光电影资源网

    GMT+8, 2020-3-31 05:51

    快速回复 返回顶部 返回列表