BluRayCD Forum

 找回密码
 立即注册【分享大片】

QQ登录

只需一步,快速开始

查看: 263|回复: 7
收起左侧

[4K极清电影] 蜘蛛侠:英雄远征/新蜘蛛人2 [4K REMUX无损版 自带中字] Spider-Man Far from Home 2019 2160p BluRaycd REMUX HEVC DTS-HD MA TrueHD 7.1 Atmos-FGT 67.80GB

[复制链接]
  • TA的每日心情
    慵懒
    2017-7-4 17:43
  • 签到天数: 613 天

    [LV.9]蓝盘精灵

    5310

    主题

    5662

    帖子

    6万

    积分

    Forum Moderator

    金币
    3396 枚
    体力
    25149 点

    卓越贡献勋章VIP蓝光勋章

    迅雷电影 发表于 2020-3-3 21:01:47 | 显示全部楼层 |阅读模式
    Following the events of Avengers: Endgame (2019), Spider-Man must step up to take on new threats in a world that has changed forever. ) Y. {3 W+ ]7 d  V6 U

    - S1 c# Z/ a0 U  c, g 01.jpg + t# [) m- z, H  S  A. b" |, W4 w& ?

    6 `8 Y: ?1 ]# W% Y$ |◎译  名 蜘蛛侠:英雄远征/蜘蛛侠:决战千里(港)/蜘蛛人:离家日(台)/蜘蛛侠:归来2/蜘蛛侠:英雄归来2/蜘蛛侠2:英雄离乡/蜘蛛侠2:远离家乡/蜘蛛侠:远离故乡/新蜘蛛侠2/蜘蛛侠2:离家出走(豆友译名)
    / K+ V" v$ K% M1 K- q! T◎片  名 Spider-Man: Far from Home
    % l4 y$ F; f$ \/ K6 r* V0 g◎年  代 20191 T7 \4 z' n& Q& h1 B) j
    ◎产  地 美国6 p$ r, U4 l& I2 q' a8 o
    ◎类  别 动作/科幻/冒险
    0 B5 G( ?3 D+ ]$ F1 K; @" [% L◎语  言 英语6 V2 ]: `; _* I' J+ r0 Q# J/ S
    ◎上映日期 2019-06-28(中国大陆)/2019-07-02(美国)7 N; u- l' g% z. e6 z9 g
    ◎IMDb评分 7.5/10 from 266,774 users! L3 i+ ^" f4 t* u- J" Q3 T& z
    ◎IMDb链接 https://www.imdb.com/title/tt6320628/1 [; @6 _6 ~; S
    ◎豆瓣评分 7.8/10 from 455,346 users
    4 D& z1 N- E* w) q0 Q◎豆瓣链接 https://movie.douban.com/subject/26931786/$ _8 H- z! o) _( H7 i2 Q9 \
    ◎文件格式 x265 + DTS + TrueHD# L$ H. R/ `/ p; M
    ◎视频尺寸 3840 x 2160" `  _1 Y5 _4 U6 }) w
    ◎文件大小 1DVD 67.83 GiB: g" {6 Q' c0 f# t( [  k% @5 b" p
    ◎片  长 2 h 9 min) H" e/ e  c' G: p
    ◎导  演 乔·沃茨 Jon Watts
    ( F! [" f) B# k7 [  T0 T  R& \◎编  剧 克里斯·麦克纳 Chris McKenna
    8 o: ?' z4 W0 ^  y  `       埃里克·萨默斯 Erik Sommers4 C. O! R1 d3 ?0 h8 I. s
           史蒂夫·迪特寇 Steve Ditko' J: ]( e7 H/ h5 a: ~2 u; b
           斯坦·李 Stan Lee
      y( ^+ ~  S, G* E- ]) M8 A0 J' g& G◎主  演 汤姆·赫兰德 Tom Holland
    # H  e6 w8 z. D, q9 [       赞达亚 Zendaya& ]1 V% R% }( Z) b
           杰克·吉伦哈尔 Jake Gyllenhaal2 ~" m, x' _; w- U9 @5 m- H
           寇碧·史莫德斯 Cobie Smulders- q0 g8 M7 _- `3 h' x
           塞缪尔·杰克逊 Samuel L. Jackson  Y+ I; q+ r; i
           乔恩·费儒 Jon Favreau
    6 H  \' [% t2 {6 U2 G; [       玛丽莎·托梅 Marisa Tomei
    9 w/ i" S( t! e8 B, _       雅各布·巴特朗 Jacob Batalon% I& G! P% P0 p9 n% h. ?, e% T* @; h
           安格瑞·赖斯 Angourie Rice6 n6 p$ h* a) n: A- f& i* Z+ _
           马丁·斯塔尔 Martin Starr
    # F; C+ S/ w0 o       瑞米·海依 Remy Hii
    ; e( S% T+ P% M6 B       纽曼·阿卡 Numan Acar
    ; V# S: c* E$ Y6 U       托尼·雷沃罗利 Tony Revolori
    6 h. c( o( M5 X( E# t) i       J·B·斯穆夫 J.B. Smoove
    6 B) Q5 V7 Z. Y( ~       赫米基·马德拉 Hemky Madera: L) B, ?( D  c+ e
           戴维娜·西塔拉姆 Davina Sitaram
    # u" N9 n; T2 {& I# k; K- w$ N       约瑟夫·朗 Joseph Long
    * H1 w9 W; T: I2 p9 U       露丝·霍洛克斯 Ruth Horrocks3 m* i  y7 Y) j
           哈廷·帕特尔 Hiten Patel  K5 A! ~; P' _* M
           杰罗恩·凡·康宁斯伯格 Jeroen van Koningsbrugge. N, D" e& p3 {& x& G4 ^: B6 T
           列尼斯·德洛桑托斯 Leonys Delossantos! `7 ^* z' O7 [3 E
           查利·蕾娅·埃斯奎尔 Charlie Rhea Esquér! N( o7 k+ _1 z8 |- f$ h
           费斯·洛根 Faith Logan
    2 u8 E7 Z6 _% Q9 w/ Q! v       J·K·西蒙斯 J.K. Simmons" I8 g& G3 [$ L* [  E
           小罗伯特·唐尼 Robert Downey Jr." F; I7 t. u6 x6 k
    1 S" s. {9 b" ]8 H* Y
    ◎简  介   
    2 P: g  y9 c$ W) I# `) l
    3 Z! n7 U1 r9 f2 i, H2 N  在与灭霸史诗般的战争结束后,地球似乎暂时回归和平。皮特(汤姆·赫兰德 Tom Holland 饰)回到了校园生活之中,他和好友相谈甚欢,并且有了心仪的女孩,然而内心最深处依然放不下对钢铁侠的追悼缅怀。去往欧洲游学的路上,皮特试图找机会和个性女孩米歇尔(赞达亚 Zendaya 饰)表白,谁知接连出现的元素怪兽打乱了他的表白计划。在这一过程中,与神盾局合作的神秘客(杰克·吉伦哈尔 Jake Gyllenhaal 饰)挺身而出,击退怪兽。自感不堪大任的皮特谢绝了尼克·弗瑞(塞缪尔·杰克逊 Samuel L. Jackson 饰),情愿将钢铁侠继承者的重任交到神秘客手中。( Q' c, \/ T: Q: T

    : T7 u# t+ r7 P: [6 A: x7 P  令他意想不到的是,更可怕的危机接二连三袭来……0 F( h8 v! t# J. {$ Q1 b
    / I6 L  X. ~; L
      After the events of Avengers: Endgame, Peter Parker and his friends go on summer vacation to Europe and there Peter finds himself trying to save his friends against a villain known as Mysterio." b3 I3 ~0 q4 X5 o
    1 h( f0 x: _, q  U9 b- x- C8 [
    ◎获奖情况  * h% S3 z: O) i; e

    4 e) T, t+ G; R# o8 G  第5届豆瓣电影年度榜单(2018)! m  ?. U! O3 e0 ]# U1 h0 ?8 \9 c
      最值得期待的外语电影(提名)
    7 [9 |2 b% y# L: ~: Y% [: e( y
      s) r/ b; h! V+ r
    Video #11 `: H( s( {9 f# P  N
    ID                                       : 1& n/ I* Y0 Z* z1 \% `, R$ `
    Format                                   : HEVC
    9 K* t2 l* U# f/ w! o$ EFormat/Info                              : High Efficiency Video Coding# j7 @& X. S0 J2 f1 \9 P, F
    Format profile                           : Main [email protected]@High
    " D: a5 X, t1 X( c5 j2 W5 g- f) n/ VHDR format                               : SMPTE ST 2086, HDR10 compatible
    1 E8 i3 y& m7 k$ iCodec ID                                 : V_MPEGH/ISO/HEVC' J. o6 K. O3 Z$ U% t2 V
    Duration                                 : 2 h 9 min, X7 m3 X' o2 G  }
    Bit rate                                 : 53.7 Mb/s* g* {3 ?4 B) {. A1 K1 u* _3 a
    Width                                    : 3 840 pixels- T+ d. z  H: ?+ a; [9 j. P, k
    Height                                   : 2 160 pixels
    8 D3 m3 e0 ^$ D& G% L; a; UDisplay aspect ratio                     : 16:9
    % `$ g0 n' }! \/ f8 lFrame rate mode                          : Constant
    5 t6 [+ ~" L! U+ {7 d, GFrame rate                               : 23.976 (24000/1001/37687) FPS3 C2 Z4 Q, L( D9 \* }7 o0 l4 t
    Color space                              : YUV; M) |4 h: ]% O, H) e7 @& o8 V
    Chroma subsampling                       : 4:2:0 (Type 2)
    : Y0 ]2 R% h6 \0 }4 ?+ a8 IBit depth                                : 10 bits
    % H: v# t' Y% _# N0 U. s4 GBits/(Pixel*Frame)                       : 0.270
    8 _6 J3 T- M- T+ B( D$ s- pStream size                              : 48.5 GiB (72%)
    # E5 B3 K: e  g8 U0 mTitle                                    : Spider-Man.Far.from.Home.2019.2160p.BluRayCD.REMUX.HEVC.DTS-HD.MA.TrueHD.7.1.Atmos-FGT& f2 b3 a6 H4 r1 c9 U$ X
    Language                                 : English; x5 H( v: l# u$ E5 W, S
    Default                                  : Yes/ }( z1 x' h) A) t$ @
    Forced                                   : No5 h' U3 m9 a" M$ y% G7 a
    Color range                              : Limited
    6 {7 Q6 o0 Q2 K7 w* U" V) Z! VColor primaries                          : BT.2020
    " \5 q0 B- D/ |2 w! GTransfer characteristics                 : PQ1 X5 v. q& R3 i4 J9 U; w9 {" d
    Matrix coefficients                      : BT.2020 non-constant4 r0 \, s. l3 m2 J) P3 p5 f8 c. [
    Mastering display color primaries        : Display P3
    " a4 i- q" f8 x$ J: {Mastering display luminance              : min: 0.0001 cd/m2, max: 1000 cd/m2
    7 B" E/ @' d) r, n7 K/ jMaximum Content Light Level              : 9978 cd/m21 L  E( x& z6 f, ]7 Q6 P5 S
    Maximum Frame-Average Light Level        : 614 cd/m2- L6 X' ]# T. f9 D/ F* e9 K  \
    $ [8 |0 t) {7 p
    Video #2
    / c! k; n2 m% ?' S, TID                                       : 25 x# h% B% t4 Y1 b
    Format                                   : HEVC
    ) _3 a; `8 t- P/ j. j* c; AFormat/Info                              : High Efficiency Video Coding
    4 j% C3 d; D, a" {Format profile                           : Main [email protected]@High, H* f& _( O7 k2 y( w1 _
    HDR format                               : SMPTE ST 2086, HDR10 compatible; L1 `# d$ T6 b; ^' K6 Z# O2 Y
    Codec ID                                 : V_MPEGH/ISO/HEVC$ C9 R- ?% B. h" E  d8 D
    Duration                                 : 2 h 9 min6 z3 f; ^0 N! q! c4 y  S
    Bit rate                                 : 2 095 kb/s
    + E) g4 H6 t/ p+ TWidth                                    : 1 920 pixels! I3 x" U" l& G0 J
    Height                                   : 1 080 pixels$ @/ R7 z2 v" f
    Display aspect ratio                     : 16:9
    " r7 T6 T1 g' c8 A5 j5 MFrame rate mode                          : Constant7 z) s8 q8 `/ j, ^# [
    Frame rate                               : 23.976 (24000/1001/37687) FPS( s+ g8 [3 N6 r: e: ?
    Color space                              : YUV4 I4 k2 q" F, R: m0 S9 m2 d. b
    Chroma subsampling                       : 4:2:0 (Type 2)
    + |0 W6 S. ^) h8 SBit depth                                : 10 bits+ [, o  R  j6 r
    Bits/(Pixel*Frame)                       : 0.0423 s7 k' h5 S1 Q7 K! u8 ]3 g! `0 {
    Stream size                              : 1.89 GiB (3%)+ C: u% ^9 N8 I0 o$ i
    Title                                    : Spider-Man.Far.from.Home.2019.2160p.BluRaycd.REMUX.HEVC.DTS-HD.MA.TrueHD.7.1.Atmos-FGT
    ; Q$ U% T4 E4 {8 fLanguage                                 : English7 c! ?* J) `7 c: k
    Default                                  : No
      k4 f1 M- r3 `% Z: q+ @; {1 [. [; gForced                                   : No
    . M0 i* r8 W. M4 d. ^9 y  M0 ?4 mColor range                              : Limited' F6 \5 n. W/ J% ?; K9 r
    Color primaries                          : BT.2020
    5 m0 y3 n/ Y" g! ?/ fTransfer characteristics                 : PQ! j  X! p. g/ b; R& y
    Matrix coefficients                      : BT.2020 non-constant2 _! ^; k" |2 \+ f3 C" H
    Mastering display color primaries        : Display P3' O6 V  w1 T4 ]. |( I- d( o
    Mastering display luminance              : min: 0.0001 cd/m2, max: 1000 cd/m21 S- ^$ d3 ^! i3 Y& o4 v; a
    5 B8 d0 }# p: R3 v, H7 T
    Audio #18 S! W3 G! i6 J4 h5 ^* P
    ID                                       : 3
    + Y" Y% A6 {- F1 W5 wFormat                                   : MLP FBA 16-ch& ~+ u5 B; \9 S* X( \% \# u
    Format/Info                              : Meridian Lossless Packing FBA with 16-channel presentation  t0 P4 F& E3 Q5 F
    Commercial name                          : Dolby TrueHD with Dolby Atmos' M8 U9 b6 f; A: [, S" [' W
    Codec ID                                 : A_TRUEHD
    ( X! c0 X% W1 W0 q1 rDuration                                 : 2 h 9 min
    9 T0 ?& I' r& c# n7 t3 Q0 H: A  PBit rate mode                            : Variable, n0 _8 @) F0 }+ `  F6 c
    Bit rate                                 : 3 077 kb/s
    3 `2 t- j/ B! K+ f2 JMaximum bit rate                         : 5 397 kb/s9 N. C. [; k5 P# j  e3 `
    Channel(s)                               : 8 channels  s4 [# ?* C/ m" e# o+ s
    Channel layout                           : L R C LFE Ls Rs Lb Rb& Q# Z. q) K9 e1 S9 o: a1 h
    Sampling rate                            : 48.0 kHz
    , j# }/ j( L! ^" F. K" r' k! \) e1 JFrame rate                               : 1 200.000 FPS (40 SPF)9 r$ v+ _% t/ U# E
    Compression mode                         : Lossless
    ' d) E) u0 o" n( zStream size                              : 2.78 GiB (4%)
    , h8 J! w; B: |9 ^+ ~" w+ [Title                                    : Spider-Man.Far.from.Home.2019.2160p.BluRaycd.REMUX.HEVC.DTS-HD.MA.TrueHD.7.1.Atmos-FGT
    + j$ x  [! w  rLanguage                                 : English
    ; ~. Y2 k  t5 ]( a- XDefault                                  : Yes
    , Z% S: G$ }- M) A+ NForced                                   : No
      H6 X5 p% S8 {$ Z2 mNumber of dynamic objects                : 11
    , D6 t/ X# l; F+ C2 `% UBed channel count                        : 1 channel3 m4 j; B' P7 x9 U5 B" H* E
    Bed channel configuration                : LFE; S2 d0 j% m5 l; v" q

    : Y# ]) i# A# L  i4 ]Audio #2
    ) N" h1 ^7 d+ T4 P7 x1 qID                                       : 4" j6 ~$ v* _) d
    Format                                   : DTS XLL
    8 p- l& A4 s7 g3 x' c4 D- WFormat/Info                              : Digital Theater Systems
    & B* L) Y  ^0 Y$ o( ACommercial name                          : DTS-HD Master Audio# Z: v# `5 C4 C
    Codec ID                                 : A_DTS
    / F  Q: w" s3 i, p6 }Duration                                 : 2 h 9 min
    : o/ b5 d' o" V$ d: H, Y) f" TBit rate mode                            : Variable1 X; r- a/ j& u0 X
    Bit rate                                 : 4 344 kb/s+ G$ v1 M1 q9 L* r2 }9 \1 Y6 A
    Channel(s)                               : 8 channels
    " e. L; p( \& g% nChannel layout                           : C L R LFE Lb Rb Lss Rss) a, ]: v- Q4 A% {
    Sampling rate                            : 48.0 kHz" D( U9 u; u/ S9 T
    Frame rate                               : 93.750 FPS (512 SPF)
    3 ?1 D1 u7 ]7 m& xBit depth                                : 24 bits
    4 A6 h; b5 i* k( [8 a2 u5 P& A8 GCompression mode                         : Lossless
    " J6 ^3 S8 G- R( d- R6 OStream size                              : 3.93 GiB (6%)
    8 p: J, ~8 i1 b+ V! |2 i+ t" \Title                                    : Spider-Man.Far.from.Home.2019.2160p.BluRaycd.REMUX.HEVC.DTS-HD.MA.TrueHD.7.1.Atmos-FGT
    0 E( P  x7 E  ?) C) CLanguage                                 : English
    # _, C% e9 [8 ^; o1 UDefault                                  : No
    / h: W, M7 f  @0 E' J7 ~. YForced                                   : No
    , s3 D% Z3 R$ O! l8 G2 Y4 E9 C
    9 g' F/ p( E3 Z* @4 x) W) wAudio #3
    . O; O$ Y/ I+ b- o+ B. Z: T* pID                                       : 5
    % F% x  a$ d* b  GFormat                                   : AC-33 I. w: d2 z6 ^: g
    Format/Info                              : Audio Coding 3# U/ D9 N) `# B5 |* q( l
    Commercial name                          : Dolby Digital
    ; E( o: h$ e& _' o: _3 ~Codec ID                                 : A_AC3
    - L# J! ?3 w; I2 z! B8 s: WDuration                                 : 2 h 9 min$ P  _+ q6 ]6 P# r
    Bit rate mode                            : Constant! O+ {1 S9 `' [. ?
    Bit rate                                 : 640 kb/s8 L2 O+ g/ d. j! T" O2 J
    Channel(s)                               : 6 channels0 B: x+ [% Z5 {" \
    Channel layout                           : L R C LFE Ls Rs
    ; i/ L! B- B% pSampling rate                            : 48.0 kHz
    ! Y3 h6 m& f+ B' d+ c+ t7 C  I' SFrame rate                               : 31.250 FPS (1536 SPF)
    9 u& V. p/ T7 JBit depth                                : 16 bits
    9 p; o  Q! o* r/ k2 u/ y! LCompression mode                         : Lossy2 H3 |; @; E: c0 e( \$ n4 o
    Stream size                              : 592 MiB (1%)
    6 j) K, F) X+ C0 q* _* CTitle                                    : Spider-Man.Far.from.Home.2019.2160p.BluRaycd.REMUX.HEVC.DTS-HD.MA.TrueHD.7.1.Atmos-FGT1 p1 u4 X1 [8 d
    Language                                 : English8 T- C* f' j6 M$ ?8 U& D1 `7 Q/ m1 A
    Service kind                             : Complete Main
    5 q" w% w- U2 W. F0 N, Y4 SDefault                                  : No" V, q. `9 b% S, u( ]
    Forced                                   : No
    " e, K! g3 u1 @2 S& G& O
    ! u+ O& A( t) J! l. S6 Z( ~4 C7 {Audio #4
    2 P4 D( Z8 r( A/ FID                                       : 6- x# v4 V; \+ \
    Format                                   : AC-3
    : ?2 u: M  T: l; ^" {, _4 O6 KFormat/Info                              : Audio Coding 3
    7 X& d0 {2 s4 e7 S% b# S& c9 ?Commercial name                          : Dolby Digital% U8 j$ l+ f7 K) t* E
    Codec ID                                 : A_AC3
    ) h0 J( @5 p8 g& o: y! lDuration                                 : 2 h 9 min
    6 D* s- q- z7 _) c) p. P$ |Bit rate mode                            : Constant
    & [/ Z' w/ i/ ]0 k( \Bit rate                                 : 640 kb/s3 k" A2 {7 o+ h! j4 _. P& X% m
    Channel(s)                               : 6 channels
    3 J+ A* Z+ c" M, MChannel layout                           : L R C LFE Ls Rs
    5 V: r* p; O( k! b4 ^Sampling rate                            : 48.0 kHz
    # q1 g- j" V/ m, A4 UFrame rate                               : 31.250 FPS (1536 SPF)$ |! I, D* v; t( `
    Bit depth                                : 16 bits+ N. u$ |( J( W3 Z9 C1 k. u
    Compression mode                         : Lossy: q+ o; \, `: J" a  n8 _) N5 Y3 F
    Stream size                              : 592 MiB (1%)/ w; T; X& I7 @6 n
    Title                                    : Spider-Man.Far.from.Home.2019.2160p.BluRaycd.REMUX.HEVC.DTS-HD.MA.TrueHD.7.1.Atmos-FGT2 B) Q: D" w/ [" Q
    Language                                 : English
    & d4 R" S) c: j4 f3 r3 oService kind                             : Complete Main! w2 a- p! p1 {7 F  p5 _
    Default                                  : No
      I0 i9 ]/ L& b1 O! p# {2 h0 v4 rForced                                   : No
    0 \, ^4 k" c  a/ J$ h1 J$ [# Q
    1 l  {, u/ d" h# ]" G' J, DAudio #5
    8 C7 m& a5 |( S3 A0 @' eID                                       : 7
    3 G! X) `$ F* MFormat                                   : AC-3
    # e; k4 {. V8 I. m) w: E- cFormat/Info                              : Audio Coding 38 J2 h& _6 n, Y( M7 V+ z& Q
    Commercial name                          : Dolby Digital& {4 p1 T; H' C6 ^, o
    Codec ID                                 : A_AC3. S4 b4 t5 D& E' ~/ q; c1 b" q
    Duration                                 : 2 h 9 min/ h/ r/ Q7 ^) o  i. a# ?
    Bit rate mode                            : Constant
    8 t+ J& O8 J* CBit rate                                 : 640 kb/s
      H4 y8 t1 l7 ]; zChannel(s)                               : 6 channels
    : A  C6 V) |& \) _6 r) v* K/ BChannel layout                           : L R C LFE Ls Rs
    , v) P  g6 d) s0 ?' C  RSampling rate                            : 48.0 kHz
    ; ^, ]& a- V4 ?$ N! R  k' `Frame rate                               : 31.250 FPS (1536 SPF)
    ( p- r/ n' B9 [  E" K( n$ e9 [6 EBit depth                                : 16 bits7 C. W$ I* j8 r* i8 c3 V6 L6 Q
    Compression mode                         : Lossy% o7 l) K  J5 y. f1 o6 g$ o  k0 C
    Stream size                              : 592 MiB (1%)8 U& A+ w- o* D; V+ N2 o; D
    Title                                    : Spider-Man.Far.from.Home.2019.2160p.BluRaycd.REMUX.HEVC.DTS-HD.MA.TrueHD.7.1.Atmos-FGT0 `, j5 p0 Z5 k4 x% B! \% I
    Language                                 : Czech
    " z" W# @' r# ~) {3 fService kind                             : Complete Main
    ! G8 I7 y  f) h9 z9 S( IDefault                                  : No3 P( z, f, c: @/ j
    Forced                                   : No
    $ t2 N' n# J  n  [& x, e- U. }* T& `) v
    Audio #6' u' c; B8 k* B0 ]' S) E
    ID                                       : 8- @( r3 O% p! Z& M  w) h
    Format                                   : AC-3
    0 c; `& C- {8 f8 DFormat/Info                              : Audio Coding 37 Y5 w" {9 t& {) f- E4 T
    Commercial name                          : Dolby Digital: Z! K6 _6 W) m3 _7 r' A
    Codec ID                                 : A_AC3
    & C: S, `/ M+ T  O4 R+ q& W0 h% {- _Duration                                 : 2 h 9 min2 k  [! H7 H- M$ M% _! I
    Bit rate mode                            : Constant
    7 N9 w0 h% {+ K: Y+ E. V1 K, Z& aBit rate                                 : 640 kb/s( O3 v9 F& M  u8 L) C/ E- ?" q
    Channel(s)                               : 6 channels
    * o! N+ n, ^8 q. K: l$ n" `5 }Channel layout                           : L R C LFE Ls Rs# \( H* N$ Y( [
    Sampling rate                            : 48.0 kHz) F' M; O* U, c( R  x
    Frame rate                               : 31.250 FPS (1536 SPF)
    % ^8 B4 x2 \% `1 K1 HBit depth                                : 16 bits
    , S$ S) f8 D& O, d/ @2 i2 H) SCompression mode                         : Lossy
    " y7 J. h: `7 g4 E; VStream size                              : 592 MiB (1%)+ \0 P6 h; a% R5 Z4 @
    Title                                    : Spider-Man.Far.from.Home.2019.2160p.BluRaycd.REMUX.HEVC.DTS-HD.MA.TrueHD.7.1.Atmos-FGT) j6 F1 I% x, M3 [6 Q$ [9 Y
    Language                                 : French
    7 C" [2 c0 X8 {0 ^Service kind                             : Complete Main% r% k6 G  J4 q3 z% \9 H- o
    Default                                  : No6 [& k( G* E3 ?$ ]
    Forced                                   : No/ m2 Y8 Q' r' n9 t8 {+ n8 d- c9 P+ r

    6 U: w# n  R2 h3 H! rAudio #7
    % d$ a" p9 P5 ~ID                                       : 9$ |- R  c2 H2 u1 v# g0 k0 K
    Format                                   : AC-3# _. ^! c' c% U0 p/ o, x' w
    Format/Info                              : Audio Coding 3
    ; i" P' \. m4 @Commercial name                          : Dolby Digital0 b7 J9 \: t6 [$ b, z) I
    Codec ID                                 : A_AC3
      k  x  Q" B: kDuration                                 : 2 h 9 min
    3 A! S9 {# O3 i0 T- dBit rate mode                            : Constant
    + u, `2 m: k: g+ ^' o* ~Bit rate                                 : 640 kb/s
    & k3 v3 ^! v. @0 ~( M$ eChannel(s)                               : 6 channels
    & q6 ^6 e" H  u( {; ^; G  Q6 m; l, f2 w# ]Channel layout                           : L R C LFE Ls Rs/ ?0 T) s  f2 ~( {' |
    Sampling rate                            : 48.0 kHz
    3 i" o: a" M' ]6 Q. ~9 p# R8 TFrame rate                               : 31.250 FPS (1536 SPF)5 `) c3 f# u0 J, ?5 l
    Bit depth                                : 16 bits4 f8 r  L( l$ [4 c. N% V
    Compression mode                         : Lossy, ~/ I& w8 x7 [3 j% P
    Stream size                              : 592 MiB (1%)
    % a% w# f7 k8 D+ O& y  q" Q0 VTitle                                    : Spider-Man.Far.from.Home.2019.2160p.BluRaycd.REMUX.HEVC.DTS-HD.MA.TrueHD.7.1.Atmos-FGT# k! S9 F% w  e- O2 n) e: \
    Language                                 : French  J. |8 x1 ?9 q' s
    Service kind                             : Complete Main
    * E$ m7 l1 H# m  d! uDefault                                  : No* ]: Z# K; y$ m' i" D$ e
    Forced                                   : No/ L4 p+ O" G2 k" L3 x6 o
    2 m- l1 z; P; E( c, Z- X8 z, T1 R
    Audio #8$ k( s' I- x  H3 B1 V5 S
    ID                                       : 10* D  x7 X- g/ D% J* \
    Format                                   : AC-3
    & F7 P) `0 c; r' c" v7 CFormat/Info                              : Audio Coding 3, J( _: J8 P& ]; d" z% b; z' Z
    Commercial name                          : Dolby Digital! r  d  ?' L- c9 \8 {
    Codec ID                                 : A_AC3& P  R" E- j" c: _8 M% i8 _9 t
    Duration                                 : 2 h 9 min
    5 [+ z( ?! M8 X6 i$ h. qBit rate mode                            : Constant% B' R) i* g# ^* w
    Bit rate                                 : 640 kb/s# p4 s- X! ?9 f
    Channel(s)                               : 6 channels, n! @' q1 s: Z
    Channel layout                           : L R C LFE Ls Rs6 [, O) J4 x) R, K# y& N9 U$ h
    Sampling rate                            : 48.0 kHz
    ' k8 ?9 S1 f$ QFrame rate                               : 31.250 FPS (1536 SPF)
    5 n+ O. A; U# c4 MBit depth                                : 16 bits6 F/ k4 F: M7 F) T# U3 M2 o
    Compression mode                         : Lossy
    % F7 ^: a/ M1 W) N  T+ ?Stream size                              : 592 MiB (1%)
    ; N  C" a, Y* z7 I5 ^6 x  n* f7 ?/ gTitle                                    : Spider-Man.Far.from.Home.2019.2160p.BluRaycd.REMUX.HEVC.DTS-HD.MA.TrueHD.7.1.Atmos-FGT# m7 n) F8 c. b1 A) l# H5 z8 W% y
    Language                                 : Hindi
    " u( l/ c' P: t$ `% }Service kind                             : Complete Main
    " d3 ?" h, L( Y. s9 C: D7 F" ~5 x! BDefault                                  : No
    0 {3 a( l7 A# T2 uForced                                   : No, x% c2 k. Y6 k( ^1 d! q/ l# J2 l

    : g5 h7 Z; j6 h0 ~5 uAudio #9
    4 G  L) s4 a0 g' g7 YID                                       : 11! \2 ?/ `+ i) o# V1 S
    Format                                   : AC-36 X8 V% S& u/ x' ~. Q
    Format/Info                              : Audio Coding 3
    $ ]! k7 W5 D2 A, L" hCommercial name                          : Dolby Digital5 s9 I) B. \) c, L6 ]
    Codec ID                                 : A_AC3
    & Y8 {3 @& z$ ]! B% N- V0 [8 S" R, f2 ]' eDuration                                 : 2 h 9 min
    6 V. P# U5 }& bBit rate mode                            : Constant
    0 d" y3 F& T' ^& C: z  c; ]6 IBit rate                                 : 640 kb/s( Z+ U! d( K- v! b  N5 B
    Channel(s)                               : 6 channels
    * M0 H; D/ |- B$ a/ Y; v# ?+ eChannel layout                           : L R C LFE Ls Rs* H- G; d  H% N5 b2 ^8 J
    Sampling rate                            : 48.0 kHz
    2 n1 ?* s$ @# A6 O+ H9 x# _Frame rate                               : 31.250 FPS (1536 SPF)) N, [/ c3 O, a; g1 i
    Bit depth                                : 16 bits
    ) W/ Y& k6 B- H1 ~Compression mode                         : Lossy0 n8 \! z% C  e7 q; L0 V9 ]
    Stream size                              : 592 MiB (1%)
    1 `& X' n( R1 U1 w7 L* WTitle                                    : Spider-Man.Far.from.Home.2019.2160p.BluRaycd.REMUX.HEVC.DTS-HD.MA.TrueHD.7.1.Atmos-FGT
    6 D- A5 i4 `4 K" T* a. w( XLanguage                                 : Hungarian* t& l' X1 R2 @' d$ ]. T! A8 @: l4 ]
    Service kind                             : Complete Main3 K& s. O( \; s% |. _8 w7 {0 |& n
    Default                                  : No
    9 X/ J/ k  S2 f+ C2 a4 a* jForced                                   : No
    1 M7 @9 r1 r- p5 ^, I& B  R9 G. Y( W9 u. r9 j7 j2 T& {  L
    Audio #10
    6 [8 z8 w, V) w6 |8 H' jID                                       : 121 \" \5 d* W7 f- q5 p
    Format                                   : AC-3+ f  I) |" o: m( K5 x
    Format/Info                              : Audio Coding 3
    / H# \0 y& f8 m1 r: V& U/ r; ACommercial name                          : Dolby Digital5 R+ M9 Z' `. C$ S
    Codec ID                                 : A_AC3
    & ?+ ~' o: t& e9 N, ADuration                                 : 2 h 9 min/ @/ r& d( Z) p( f; t
    Bit rate mode                            : Constant
    2 X2 G' E! U1 e6 H& @Bit rate                                 : 640 kb/s
    " e5 g6 ]) Q4 f" W, ~" `- \Channel(s)                               : 6 channels/ S; C. ^, G9 v2 t# V
    Channel layout                           : L R C LFE Ls Rs- b& u: L9 |7 E; q* M9 @& W
    Sampling rate                            : 48.0 kHz
    3 F: V* q6 ~& V) U% QFrame rate                               : 31.250 FPS (1536 SPF)
    4 h1 G, M. i; _" u. H4 CBit depth                                : 16 bits, i  v+ C5 E" s
    Compression mode                         : Lossy/ m# @) J% @, e, @% Q- f
    Stream size                              : 592 MiB (1%)! `. H( `' }) s: M, J3 }) ~# K; C
    Title                                    : Spider-Man.Far.from.Home.2019.2160p.BluRaycd.REMUX.HEVC.DTS-HD.MA.TrueHD.7.1.Atmos-FGT' i/ X( B$ x7 }9 \+ r' q3 P3 b
    Language                                 : Polish& k& Z5 _# G+ e% P8 r1 ]
    Service kind                             : Complete Main
    ( z# f' _% s9 B+ ]8 w) w! H2 o0 wDefault                                  : No
    : r2 k. l# I( LForced                                   : No2 e. c4 b5 v; D# \

    , `4 u, U# @- ~Audio #116 k) {# T# E* X& d! z
    ID                                       : 131 A0 w( ]0 W% A
    Format                                   : DTS XLL2 r$ f6 Y" `. K" N6 x) n
    Format/Info                              : Digital Theater Systems
    ) j" q3 O6 C3 Z0 D( ?) {Commercial name                          : DTS-HD Master Audio
    + O& R6 |( I7 E; A  KCodec ID                                 : A_DTS- c4 d' e% p! n$ H4 m
    Duration                                 : 2 h 9 min, P& l$ O; X% R: O/ l5 I
    Bit rate mode                            : Variable
    2 R5 T+ q: F' k4 ^4 bBit rate                                 : 2 361 kb/s
    6 o  f1 q+ K9 n: Z8 q8 ]5 iChannel(s)                               : 6 channels* U6 [. t+ A& L) z
    Channel layout                           : C L R Ls Rs LFE
    . k/ b; @/ |4 t4 C* k+ F' E, MSampling rate                            : 48.0 kHz
    8 R, J. K6 Z0 b( G( v7 JFrame rate                               : 93.750 FPS (512 SPF)
    ( B# f- w8 h4 m0 }& PBit depth                                : 16 bits
    , G# y3 Y1 Y7 G/ eCompression mode                         : Lossless/ Z3 b2 W: i, F$ R
    Stream size                              : 2.13 GiB (3%)$ o- }% V. i0 [5 D( f8 C0 m
    Title                                    : Spider-Man.Far.from.Home.2019.2160p.BluRaycd.REMUX.HEVC.DTS-HD.MA.TrueHD.7.1.Atmos-FGT, u* V, E  g1 H* H
    Language                                 : Portuguese5 S. R1 ]( @3 G# T; O" I  g1 _
    Default                                  : No
    8 @! w( m! S+ p5 [( m3 G( @6 h% sForced                                   : No- s$ g' G% _, q! k, A- A
    8 ~2 o$ {9 e8 n  y/ I; q
    Audio #12
    * D$ {, f& w( h) R$ P/ w& WID                                       : 14) i4 x- Q- R6 y; |3 G" Z- v, D2 V
    Format                                   : AC-32 n9 W* J5 }. p
    Format/Info                              : Audio Coding 3. G! E2 J7 F9 `8 i8 h  l# Q# F1 s2 W
    Commercial name                          : Dolby Digital
    & I; h- j0 K4 }; @Codec ID                                 : A_AC3. A# g/ G' R- H+ `* `# F& j  B3 A
    Duration                                 : 2 h 9 min
    7 B9 r" }# e. D& b' ^Bit rate mode                            : Constant; q- s# q: x5 T: C  ?, R* z, j
    Bit rate                                 : 640 kb/s
    " O& S0 G/ p) @2 L9 s* BChannel(s)                               : 6 channels
      c# A. g; `: ]/ ]Channel layout                           : L R C LFE Ls Rs
    * ~7 k, K7 s6 d: O2 i2 ?Sampling rate                            : 48.0 kHz
    # o+ f  C* F& n# x2 n( Y7 RFrame rate                               : 31.250 FPS (1536 SPF): X: X, J# M' w
    Bit depth                                : 16 bits# s' A; Q& f' d/ ^7 t! s  l
    Compression mode                         : Lossy! t9 D' g+ V$ X
    Stream size                              : 592 MiB (1%)( }# x5 [8 C* U/ f+ p6 M
    Title                                    : Spider-Man.Far.from.Home.2019.2160p.BluRaycd.REMUX.HEVC.DTS-HD.MA.TrueHD.7.1.Atmos-FGT- I) O, ^$ a: }7 L- q
    Language                                 : Slovak; G! `  b  |+ |
    Service kind                             : Complete Main; C$ R) e  k7 f2 ~# e( O1 I' o
    Default                                  : No
    " |' y1 I- g  ]4 Q0 D: ~Forced                                   : No
    3 Z3 n3 u1 D2 U4 p: U
    1 Z- S% a( a9 RAudio #13$ W( X0 N- [1 \9 t& C
    ID                                       : 154 ^  D1 D) }6 p* Q* M
    Format                                   : AC-3
    - h9 Z5 o+ l) |) ]. hFormat/Info                              : Audio Coding 3
    : P0 O4 J" A* X$ JCommercial name                          : Dolby Digital
    0 h3 O" r: ^' p; W% x  ~Codec ID                                 : A_AC3
    # A6 E+ B9 R1 P& x8 j( F) P& dDuration                                 : 2 h 9 min
    ) `  l" j( |  Q, s% J, u" E' TBit rate mode                            : Constant
    ( e" |' c6 o& Z/ A  K  _1 O* e9 wBit rate                                 : 640 kb/s
    # f( t: d8 G1 z) n  |Channel(s)                               : 6 channels
    8 H' c4 e. ~# n) ^/ U' M) x8 `" LChannel layout                           : L R C LFE Ls Rs2 L& A6 E1 Q/ j
    Sampling rate                            : 48.0 kHz1 \7 [3 i& F. _$ \# I" h" k
    Frame rate                               : 31.250 FPS (1536 SPF)8 X+ Q4 \* W# r; G: Y: s0 R# j, P
    Bit depth                                : 16 bits
    : ?4 c8 J4 L# v' f5 I& {) ICompression mode                         : Lossy
    / S4 p$ j5 a0 p: s! n9 x1 bStream size                              : 592 MiB (1%)/ E: b% ?0 {4 `! s9 H. s7 E
    Title                                    : Spider-Man.Far.from.Home.2019.2160p.BluRaycd.REMUX.HEVC.DTS-HD.MA.TrueHD.7.1.Atmos-FGT
    # F6 c' }4 V- n4 f! |  ELanguage                                 : Spanish
    & i* k( \3 c) ?2 ?Service kind                             : Complete Main3 z8 e5 o5 n% Z  C+ \6 {$ j" }# y
    Default                                  : No( v  ]2 d6 R, d
    Forced                                   : No
    % j6 o* {, a% a: j5 }# S
    1 W5 P8 w9 a/ ?% SAudio #14
    : G7 Y  b. O$ m8 K) TID                                       : 164 q  K9 q, |2 ?! W5 c! [8 R7 v' k
    Format                                   : AC-3* f2 }) n/ r; A/ c$ Y4 T# n
    Format/Info                              : Audio Coding 37 Z4 V' N; }8 d( E4 J8 L
    Commercial name                          : Dolby Digital" ~6 o- j" H  ?1 _) E2 r! w1 F+ f
    Codec ID                                 : A_AC3
    & k% u. W0 F: N' WDuration                                 : 2 h 9 min
    , Y9 V" h: c' d5 TBit rate mode                            : Constant! i) j9 @9 k4 X6 ^8 K1 \7 b
    Bit rate                                 : 640 kb/s" |$ W+ ^- \" i, o" I
    Channel(s)                               : 6 channels) k$ C* [& K& P. q$ L8 e0 f5 ^  z
    Channel layout                           : L R C LFE Ls Rs& i7 E5 P5 g, ^! |- F/ s
    Sampling rate                            : 48.0 kHz: s4 U4 \. m9 t( ^0 c6 m
    Frame rate                               : 31.250 FPS (1536 SPF)
    0 I( e' D, j/ f% J, ?Bit depth                                : 16 bits2 b9 N5 D, b7 _  @  l) z, E5 K
    Compression mode                         : Lossy
    0 _7 F% `4 n+ n# KStream size                              : 592 MiB (1%)8 i4 W5 `  a+ H' y  c" {
    Title                                    : Spider-Man.Far.from.Home.2019.2160p.BluRaycd.REMUX.HEVC.DTS-HD.MA.TrueHD.7.1.Atmos-FGT
    ) _5 z# c1 i- T7 o, LLanguage                                 : Tamil& D) o1 n& ~. K+ k
    Service kind                             : Complete Main; T8 U# T  m6 [1 [5 R" [2 [
    Default                                  : No
    4 v5 S/ H; P$ `( |, p1 GForced                                   : No
    ) k. B5 ?8 }* @, w: E) K* c8 g% X0 z5 U2 X; R2 M' m$ T0 P
    Audio #150 R9 p2 C5 w8 h% Y3 t
    ID                                       : 171 T% @4 v3 v4 q. `! T' [
    Format                                   : AC-3
    , I1 J1 T/ @# L% W5 i7 oFormat/Info                              : Audio Coding 3, W3 B# |, q! o" T! |8 K) ~& x
    Commercial name                          : Dolby Digital
    ) g4 J( \. o/ PCodec ID                                 : A_AC3* C& e$ V# s4 v1 b0 c5 x
    Duration                                 : 2 h 9 min
    % t0 C5 N) ^+ o1 [" {# Q$ \/ JBit rate mode                            : Constant2 y. t+ h' |4 T- z; [
    Bit rate                                 : 640 kb/s: K' X9 @6 d9 V1 n. V0 F
    Channel(s)                               : 6 channels2 R" `) L1 ?  C  Y" k0 [
    Channel layout                           : L R C LFE Ls Rs! q) y9 K- @" }8 n' V+ h3 F2 ?8 n
    Sampling rate                            : 48.0 kHz
    $ M  i, v: P% XFrame rate                               : 31.250 FPS (1536 SPF); B  G; X6 F) r
    Bit depth                                : 16 bits
    9 m, i* @1 n& E5 R6 f. }1 tCompression mode                         : Lossy4 Z% G2 k, r5 I( A' {* ^; {
    Stream size                              : 592 MiB (1%)% ?+ U& F& M/ V  p+ r4 r
    Title                                    : Spider-Man.Far.from.Home.2019.2160p.BluRaycd.REMUX.HEVC.DTS-HD.MA.TrueHD.7.1.Atmos-FGT' ~, q  B; }, a1 h: W* U% L, [2 a
    Language                                 : Telugu8 ?7 D+ e& L2 t& F
    Service kind                             : Complete Main
    & ]7 h7 r( `4 sDefault                                  : No( ~7 p( m- F0 {3 S# B
    Forced                                   : No
    6 s2 ^. z4 Q* z1 M
    - s4 {5 g7 R4 l! `% ^+ LAudio #164 |/ v+ j6 X* }+ A; j) V2 a
    ID                                       : 18- H) J0 M% ]" {7 g7 K
    Format                                   : AC-3
    6 d* V# \$ _6 O. E9 U/ PFormat/Info                              : Audio Coding 3
    ' i5 h, Z$ z% c' x) ~5 YCommercial name                          : Dolby Digital
    / Q7 r& ?- W: h& S) k- f/ ICodec ID                                 : A_AC3
    ( b- \: v# n$ X6 T* F  uDuration                                 : 2 h 9 min7 t1 l/ u2 |) U0 s# n7 Z3 A7 o
    Bit rate mode                            : Constant
    $ i7 [3 Y; m" Q& ]! ?- U* w- dBit rate                                 : 640 kb/s
    , M1 R: F1 _0 e% \Channel(s)                               : 6 channels
    - h! }+ S# [1 L7 [- y. `0 XChannel layout                           : L R C LFE Ls Rs- N; _3 n5 [5 B1 z
    Sampling rate                            : 48.0 kHz
    ( X) C; X5 i: q: J. rFrame rate                               : 31.250 FPS (1536 SPF)# x2 [- g. v& }3 C+ e/ ?
    Bit depth                                : 16 bits
    % p4 c$ q7 K  K$ DCompression mode                         : Lossy
    $ o, f. T! h5 M. q; X/ v7 Y1 P2 GStream size                              : 592 MiB (1%)
    # v* @, u% V1 M/ aTitle                                    : Spider-Man.Far.from.Home.2019.2160p.BluRaycd.REMUX.HEVC.DTS-HD.MA.TrueHD.7.1.Atmos-FGT) C8 c7 }- S$ Y- s" j7 Z
    Language                                 : Thai
    " M7 P& y8 m" R. pService kind                             : Complete Main
    2 [" t5 N7 k& x3 s) c  m$ SDefault                                  : No
    " g6 n, O2 H- r1 {! ]3 tForced                                   : No
    + r# v+ p) u8 q3 H+ t, `; f- J" z! e
    Audio #17
    ! k: v2 y0 a7 m. N2 _ID                                       : 19
    ; _* r2 n2 o3 N, W1 EFormat                                   : AC-3& x, i; V/ o: N
    Format/Info                              : Audio Coding 3
    ' V& a) Y/ P, o+ i4 O# ~: a7 LCommercial name                          : Dolby Digital! w' c  `( z7 N; ?) L
    Codec ID                                 : A_AC3
    . m! U1 c, y5 g1 D6 ~7 n' YDuration                                 : 2 h 9 min
    ! ~0 L1 r$ I! dBit rate mode                            : Constant& A$ ]* x7 Z  C  X
    Bit rate                                 : 640 kb/s
    / E0 G& `/ o* LChannel(s)                               : 6 channels
    6 t, }+ Q  j) Y/ ]& SChannel layout                           : L R C LFE Ls Rs4 I3 m, a( I0 B+ e7 l
    Sampling rate                            : 48.0 kHz+ [# @0 x  F0 D- J1 ~+ j8 M
    Frame rate                               : 31.250 FPS (1536 SPF)
    1 k# f" f' `* {) j/ E6 a- a2 S+ A' cBit depth                                : 16 bits
    $ Z# `0 F/ s" b2 d1 b/ \5 iCompression mode                         : Lossy9 t# O, G; X- V& W! @* f
    Stream size                              : 592 MiB (1%)) I# C, i) h7 H6 D' ^8 \' z
    Title                                    : Spider-Man.Far.from.Home.2019.2160p.BluRaycd.REMUX.HEVC.DTS-HD.MA.TrueHD.7.1.Atmos-FGT) a- m$ T7 u4 ?7 l+ n) u
    Language                                 : Turkish" I# ]; K# c' p
    Service kind                             : Complete Main; H3 p/ a. E- r8 K* y( N; o) r
    Default                                  : No7 M9 {, L. r0 q  Y  q7 \  X1 M
    Forced                                   : No; r' U  O! C1 l3 Q. H9 I9 {
    : K( I6 x/ o0 [6 Z1 Y0 U
    Text #1. v6 C4 L5 s% }" u3 i4 M! Z) [
    ID                                       : 20
    - p7 b& s: T6 P/ q- mFormat                                   : UTF-8
    + F9 a% o! i. |Codec ID                                 : S_TEXT/UTF8) @, f4 V9 o; ]# R
    Codec ID/Info                            : UTF-8 Plain Text" R# k; g! a0 t% T( J3 }
    Duration                                 : 2 h 7 min2 N4 y9 q6 L9 L7 B: j$ a, d- E
    Bit rate                                 : 65 b/s  z9 C2 l0 Y: Y6 h
    Count of elements                        : 1725* H" a6 B3 h2 H6 Q$ ^
    Stream size                              : 61.1 KiB (0%), M* f% L1 r7 o) a5 }
    Title                                    : English-SRT
    * D) S% k+ D; P6 L$ wLanguage                                 : English
    , e* O$ U/ Q( Z, h* |; LDefault                                  : Yes( \1 A; d/ c6 k' O# Z# E
    Forced                                   : No
    & u' Z6 ?1 D, N4 B) V' v0 S* F- K: [1 b# ~0 V  B0 H3 ?7 k& h
    Text #2, h7 {9 ~+ E0 t( d" J. c
    ID                                       : 21
    / i# }7 a% K% G( ^+ W' |Format                                   : PGS
    7 A1 A0 g$ `; O3 lMuxing mode                              : zlib
    ( n0 ~! q: u; ^! eCodec ID                                 : S_HDMV/PGS4 d& ?8 ?4 J- ?& S) M1 S
    Codec ID/Info                            : Picture based subtitle format used on BDs/HD-DVDs
    % C$ s  o4 _% E9 `Duration                                 : 2 h 7 min( y5 q" [+ ]: n
    Bit rate                                 : 38.9 kb/s; o) h3 h' s' {; Y# N
    Count of elements                        : 3450
    0 d/ e3 }# H& u8 E3 U: i5 A" JStream size                              : 35.5 MiB (0%)
    2 C9 q9 m5 I  [' u. y! R9 H2 L0 jTitle                                    : English-PGS* d, ?) z/ R  {) I# l
    Language                                 : English
    % |7 G2 h5 b& E; m7 q8 C1 dDefault                                  : No
    3 V& ^% i+ A* i& c( n9 T6 SForced                                   : No/ ~4 [# F) C# h5 z0 S% O

    8 S- c6 e5 s7 k" `- OText #3- o% X" \" j' H& ]
    ID                                       : 22
    3 l( |# K  E: [" `" DFormat                                   : PGS
    ( @# x% @7 m& \2 ]' ]Muxing mode                              : zlib
    ' P: a0 A9 G8 l9 G8 B7 H& iCodec ID                                 : S_HDMV/PGS5 m8 i* J0 C- H  `1 x
    Codec ID/Info                            : Picture based subtitle format used on BDs/HD-DVDs5 \2 @2 v' V3 F1 z
    Duration                                 : 2 h 8 min
    9 T' T( K% C# S- X/ m8 z7 r0 \Bit rate                                 : 42.1 kb/s4 W" _* u' ^7 V9 U+ X
    Count of elements                        : 38585 r6 `/ {$ J* ?& A3 ?
    Stream size                              : 38.6 MiB (0%)% h& a0 |2 t/ @( a* ?
    Title                                    : English-SDH-PGS
    " J$ ^% e: w/ e; \. vLanguage                                 : English
    8 v5 h% o; ?+ N0 M6 IDefault                                  : No$ S$ O) c9 `1 _! R  m; Z+ H
    Forced                                   : No  ~* \6 k4 L3 f& r# Y+ Y
    / N' S: U5 c& \: v
    Text #4
    - ?3 g: k' s* J4 e2 Q, v: @3 t  IID                                       : 23
    ) e/ |6 m  H4 l& t% p! X6 E2 TFormat                                   : PGS
    + i" m9 E6 t' ~* pMuxing mode                              : zlib9 @* L" h8 H0 K1 k' ]1 b
    Codec ID                                 : S_HDMV/PGS
    * }$ b& z  V4 Y% `Codec ID/Info                            : Picture based subtitle format used on BDs/HD-DVDs
    . U0 W7 n3 V- WDuration                                 : 2 h 8 min! v0 U4 @- D" K" G4 O5 z
    Bit rate                                 : 20.2 kb/s" u0 N! A2 k& n
    Count of elements                        : 3446, c3 [9 v6 |$ `0 g! [- C; R3 v
    Stream size                              : 18.6 MiB (0%)
    * y9 w0 F% W, {3 J3 `Title                                    : Arabic-PGS
    & G' b. G7 K2 h3 y6 m2 zLanguage                                 : Arabic& O6 U  P0 w. m& p) @: u! I
    Default                                  : No
    ! `# L. b6 a% a) s  u4 qForced                                   : No5 F, Y8 Y9 }* h5 X( {; F$ C8 U+ k+ }
    3 L* p% q) i# H# |& C2 u! N
    Text #57 I7 l" I: r: `9 w# Y1 [
    ID                                       : 24: G- N* u- R& i: [/ Z( w
    Format                                   : PGS
    / B! ?3 q5 R3 U2 _0 cMuxing mode                              : zlib+ }5 s2 j6 F; c3 f% O0 e
    Codec ID                                 : S_HDMV/PGS
    - t6 I$ b- u+ U) nCodec ID/Info                            : Picture based subtitle format used on BDs/HD-DVDs5 r1 A7 z0 C% ^. k" V1 [
    Duration                                 : 2 h 8 min2 t: G( o2 J0 @4 R6 Y1 ^. P
    Bit rate                                 : 34.7 kb/s
    ) O  L+ |  ]* C- `Count of elements                        : 3424
    4 r% b3 {: g* l+ uStream size                              : 31.9 MiB (0%)* `  Z- s8 |  S! i) [
    Title                                    : Bulgarian-PGS
    ' F5 {0 p; Z$ P9 |1 ]# q! `Language                                 : Bulgarian  L  o6 e8 v- l& t' ~" Y5 [
    Default                                  : No
    % b& s, m$ ]1 Q# X1 y& qForced                                   : No) b$ o4 j! S' L

    & p8 S; l. z- C* Y/ q! JText #65 R! M$ O( S1 z2 W- Q7 y8 [
    ID                                       : 259 H8 k" H" q( G6 H% J, U
    Format                                   : PGS
    ) s" A5 [; S4 j6 zMuxing mode                              : zlib3 z3 h3 v9 S5 t9 `5 @" |2 {/ J8 b
    Codec ID                                 : S_HDMV/PGS6 w9 U" o( y  g, e; z/ @, Z* O
    Codec ID/Info                            : Picture based subtitle format used on BDs/HD-DVDs: \% e! o' f4 H  K3 Y
    Duration                                 : 2 h 8 min
    9 D- D+ }3 w2 ?0 t1 L" M: IBit rate                                 : 31.5 kb/s
    . X# d0 P# T$ z2 A* b3 L# n, dCount of elements                        : 3460) ]9 {* d  J& L5 K# C
    Stream size                              : 29.0 MiB (0%)$ r# _! b. ^1 _/ ^
    Title                                    : Chinese-PGS
    7 T. z. U4 }+ W6 W& h: ALanguage                                 : Chinese4 x* Z5 Q$ X, ~9 g* B3 r$ t
    Default                                  : No6 h, Q/ w1 K4 |; P
    Forced                                   : No6 n, |7 n2 M7 ]& _- u
    . w  @+ h+ Y6 y( j" j
    Text #7
    ' I' r) x- N" {/ y$ q5 ~ID                                       : 26" I0 b/ n2 o0 L! E" F% ]
    Format                                   : PGS  {8 |  X. T$ `3 f8 v; A
    Muxing mode                              : zlib- @' R# A' G% ^3 p" u
    Codec ID                                 : S_HDMV/PGS8 D( H% [$ ^+ f
    Codec ID/Info                            : Picture based subtitle format used on BDs/HD-DVDs, E( x7 T7 _& U7 X/ {. Y
    Duration                                 : 2 h 8 min
      m4 n( ^2 ~2 v7 Q5 |  qBit rate                                 : 32.7 kb/s
    ! H  R% {  g% b3 {Count of elements                        : 3454
    9 k& s. R% G( b  _; ?5 H4 q' G$ b. mStream size                              : 30.1 MiB (0%); {% d& ], u' U' I. [
    Title                                    : Chinese-PGS
    8 u4 ]% ^0 Y% pLanguage                                 : Chinese) W& D% o& q& @5 X% j- e6 _
    Default                                  : No1 p0 X% s) R, B7 X
    Forced                                   : No
    ' |. R& k& \$ J7 k1 b
    . Q- J7 B1 D  i; _3 }8 c. sText #8- r5 f/ f4 Q6 ?  ]0 L8 T1 v; f
    ID                                       : 27
    : k: O9 {* T: }3 w+ g' m2 @3 FFormat                                   : PGS8 i4 o9 I) s$ r: e7 q( r9 V
    Muxing mode                              : zlib7 |, H8 k. l6 @* l1 J% m
    Codec ID                                 : S_HDMV/PGS5 F$ f: W( i' ]$ ~% S2 }' @5 q
    Codec ID/Info                            : Picture based subtitle format used on BDs/HD-DVDs
    * X; r/ r5 O/ p/ x. S, r5 vDuration                                 : 2 h 8 min
    ' W4 H' V9 @9 ]( G' NBit rate                                 : 28.0 kb/s
    8 V$ e- J* n5 H5 GCount of elements                        : 3496
    4 C" R( n& c' x0 I0 q) uStream size                              : 25.8 MiB (0%)
    2 S- o& }& \0 ]/ ^8 O. H5 aTitle                                    : Chinese-PGS
    " v) [1 ]) O- ILanguage                                 : Chinese
    ) y/ V2 x& F0 z* _/ ^' PDefault                                  : No- n) C1 m& j  e) v$ [
    Forced                                   : No
    & o5 c8 C, J; p3 j, Y$ p9 ]7 x' [: _/ o% p0 H5 l
    Text #93 _+ a( e$ b6 ?, o5 v/ [6 P8 h
    ID                                       : 285 h: k! W8 M+ n% c) N6 N/ y
    Format                                   : PGS+ {9 l- |( q  d1 u- p' \
    Muxing mode                              : zlib
      J* F' P) Z2 S/ H5 mCodec ID                                 : S_HDMV/PGS$ h; w+ ^) R: V- [4 f3 a+ U. a
    Codec ID/Info                            : Picture based subtitle format used on BDs/HD-DVDs! d* {8 c8 o" W
    Duration                                 : 2 h 8 min
    . p& y- }  z) c) j1 ~5 }; F* ABit rate                                 : 31.3 kb/s
    ) F- }2 Z+ G5 Z$ h" I0 kCount of elements                        : 3436$ z: `+ K/ y% l) j: X
    Stream size                              : 28.8 MiB (0%)
    ' y; ~" I! T% O2 WTitle                                    : Croatian-PGS% K) Q1 m4 W: @2 }, l0 I1 k
    Language                                 : Croatian
    # A) f8 W* G, j6 PDefault                                  : No* _6 I4 |; I0 o$ o
    Forced                                   : No
    8 b7 g5 V* O4 t3 s* t
      F1 X  T! u4 _) cText #10$ N7 H# D; ?$ M' ]- X% l! U
    ID                                       : 29
    " n6 I! g' k9 G' }% mFormat                                   : PGS; T+ R! p( f# D1 n5 V0 {
    Muxing mode                              : zlib
    ' u$ F" H5 r) ]1 g$ t" W1 G2 \Codec ID                                 : S_HDMV/PGS
    % Y/ m& ~6 z( jCodec ID/Info                            : Picture based subtitle format used on BDs/HD-DVDs
    5 ]5 d; n  s/ l# NDuration                                 : 2 h 8 min
    * O$ d1 w& R' e& i! ]Bit rate                                 : 34.1 kb/s6 I' q' P3 s" B% s3 r
    Count of elements                        : 3356
    8 Q# c+ [# e- @7 I, MStream size                              : 31.3 MiB (0%)
    ( O# w* W$ H5 m/ F& mTitle                                    : Czech-PGS. [0 `, j9 _. ]3 F8 p8 `
    Language                                 : Czech3 i/ @3 l' E. E/ @; g
    Default                                  : No
    ( U, u9 D9 W- _Forced                                   : No) M" ]- H4 [) k. `/ T4 P& e

    - E: f+ |- W6 ?% k9 b( X2 u0 VText #11
    % W* \3 q% Y4 GID                                       : 301 J" @8 C' x: N$ U$ E; @/ ]0 C
    Format                                   : PGS( i: _& ^6 G7 F' q' S
    Muxing mode                              : zlib* B- K0 \! W6 Q
    Codec ID                                 : S_HDMV/PGS: m5 A) q0 l( i9 C
    Codec ID/Info                            : Picture based subtitle format used on BDs/HD-DVDs; B$ R2 k: _+ v, R# h$ F4 ?
    Duration                                 : 2 h 8 min% s  b' @+ E+ @& i3 v: p
    Bit rate                                 : 31.6 kb/s; X! X) R' C* ^4 z3 y8 q* c6 p
    Count of elements                        : 3348' T2 u: ~/ s2 {
    Stream size                              : 29.1 MiB (0%)
    ; O" a3 ?+ C6 j" @Title                                    : French-PGS
    9 P( A! u2 D. @1 N; KLanguage                                 : French
    ; S& Y2 ~6 {# d, L# V3 t/ DDefault                                  : No
    * v- Q) E) o( T$ \. ^- ?+ \- P( R( eForced                                   : No* N! H( ~) |2 q5 Z7 w) S

    5 U; i0 V% c* G' K% b  ~Text #12
    ( b, O+ t0 a" S% f1 a) {ID                                       : 31
    5 D- I6 r; S3 L) F  x: A6 PFormat                                   : PGS
    1 M: @# v8 E0 v& |6 F) oMuxing mode                              : zlib
    % H4 ~# g6 U& e$ L0 `5 FCodec ID                                 : S_HDMV/PGS
    + L' D1 T4 ^. I; }) h4 GCodec ID/Info                            : Picture based subtitle format used on BDs/HD-DVDs4 N  I: W- @3 R/ v: @. l2 T
    Duration                                 : 2 h 8 min
    ) m  x0 R- z. a( y  `2 R5 B/ hBit rate                                 : 37.6 kb/s& E( B: M8 a) x3 l( X
    Count of elements                        : 3434' z( e5 _% r  W# S) _0 x2 C0 ^
    Stream size                              : 34.5 MiB (0%)
    2 }  T( q9 c: H9 WTitle                                    : Greek-PGS
    ) y: _$ k+ A  g; x* b# ?% O. Q1 pLanguage                                 : Greek
    . E/ j' I0 L# ~" ?+ r0 n3 vDefault                                  : No
    ) Y3 b+ G; Y0 m9 t- g& r4 I) z* uForced                                   : No
    ) b( K0 o! t6 P. |2 b! [( F- e2 z0 g
    Text #136 |: S& j1 _/ J
    ID                                       : 32
    ; A& d$ A% ?( }Format                                   : PGS
    + G4 m3 S( |" e# v9 t6 \% iMuxing mode                              : zlib# A+ Y4 ^4 k+ K( l
    Codec ID                                 : S_HDMV/PGS  A4 i1 L2 _& g( g6 k+ L
    Codec ID/Info                            : Picture based subtitle format used on BDs/HD-DVDs
    ) J& G/ Q  t5 m/ @  n  }8 V( MDuration                                 : 2 h 8 min: e& [0 L9 b/ r
    Bit rate                                 : 28.4 kb/s
    ; Z' c% `: v; h7 m7 Z, Q& ECount of elements                        : 3414' m: e6 z" X3 u4 Z8 y
    Stream size                              : 26.1 MiB (0%)
    - j) G9 @) Z$ GTitle                                    : Hebrew-PGS# R" h, h' \$ R: S$ D8 y
    Language                                 : Hebrew
    - M. k& @$ ]8 M  |3 `* oDefault                                  : No8 F& M, N5 H4 D9 L
    Forced                                   : No% X/ J- C5 g' p/ [7 x. |: P
    4 g9 c" R2 ?1 g9 _! \, d5 z
    Text #14
    2 z: }) O5 \- qID                                       : 33
    ! ^1 P; J  c6 }( P$ ]Format                                   : PGS
    ( r- g! r) n6 q0 @9 o2 gMuxing mode                              : zlib  d" n5 Z* J. b
    Codec ID                                 : S_HDMV/PGS
    3 k6 ~& r& S3 o% u, q6 jCodec ID/Info                            : Picture based subtitle format used on BDs/HD-DVDs
      ?' X; `  g# g( W0 qDuration                                 : 2 h 8 min9 C2 z0 X  w- c+ k
    Bit rate                                 : 32.9 kb/s2 t) }' s& h# ^  D& j
    Count of elements                        : 3082
    / |7 M# j  C' F8 m, N$ W2 x. V) EStream size                              : 30.2 MiB (0%)! p+ e2 U: E$ r5 f9 G; Q& x
    Title                                    : Hungarian-PGS0 v7 Z$ v6 b1 r3 O( I. z8 J# w
    Language                                 : Hungarian
    ' R! f6 K5 n1 t3 oDefault                                  : No
    : _- `" a' v8 t! ~/ u% iForced                                   : No. n$ s% }1 e8 r' \" _
    : ~; }$ H9 j1 Q& D) M! t
    Text #153 S6 c# {1 O9 n
    ID                                       : 34
    7 ?6 I# V; V' Y8 |. r+ U$ fFormat                                   : PGS; b+ |$ |3 L8 o# y) N$ Z) W# `2 c# y
    Muxing mode                              : zlib9 W' @( [, ]/ i& y4 j
    Codec ID                                 : S_HDMV/PGS
    7 e, ?9 J1 Z1 `# D$ ]# q1 {' |Codec ID/Info                            : Picture based subtitle format used on BDs/HD-DVDs
    - v' g% Q$ w' W+ g# dDuration                                 : 2 h 8 min5 S5 s* u- S  X7 [6 G# ~
    Bit rate                                 : 35.1 kb/s4 x: A( I1 A! ]: ^! Y
    Count of elements                        : 3270
    7 f) r' Y2 E$ v& iStream size                              : 32.3 MiB (0%)
    # S; R7 D, t7 C! r1 Z) h9 [8 h+ {Title                                    : Icelandic-PGS
    . e  b$ U7 V, u5 {5 Q; PLanguage                                 : Icelandic
    " u; e' `0 t9 ?$ C( j/ t# O& j5 y5 yDefault                                  : No
    6 O5 Y% a" G! FForced                                   : No7 I4 W7 n2 m: j

    " x; ?: l$ v' o& B( t  |Text #16. p! q5 a. d5 a2 }! G; C
    ID                                       : 35+ Q/ P* R- ?( j+ R- [" c& o
    Format                                   : PGS6 q0 G0 ~2 d9 A! P
    Muxing mode                              : zlib6 C2 ]  g$ X: r* T) Q7 N
    Codec ID                                 : S_HDMV/PGS
    $ z& {0 p5 A5 zCodec ID/Info                            : Picture based subtitle format used on BDs/HD-DVDs
    $ g) u% `6 b6 p8 ?: kDuration                                 : 2 h 8 min: s  i! Z9 m8 \7 Z& v, u
    Bit rate                                 : 37.8 kb/s
      L0 l; P" W  R$ a4 nCount of elements                        : 3326% y; s$ ]) X. ]+ e' m
    Stream size                              : 34.7 MiB (0%)  }% S: ?, p6 K2 A4 k2 v
    Title                                    : Indonesian-PGS  J% ^3 G8 q0 t0 P! d
    Language                                 : Indonesian1 o2 M5 i) V& A( d
    Default                                  : No/ Q9 [5 w+ p% u4 K# a+ T1 [1 Y
    Forced                                   : No& i0 Y/ @$ R! }  g2 s4 e, W$ D, y
    ' _1 x6 v2 H+ i! L: Q
    Text #17+ {, k* Y: j! b, |& m$ C& ?
    ID                                       : 36
    & ~) F# S$ I' ]/ A! E+ `Format                                   : PGS
    5 z- G2 x. C6 ^! `" _5 x3 AMuxing mode                              : zlib1 X% M+ X! K; N# C0 ^
    Codec ID                                 : S_HDMV/PGS
    1 p: L, j4 v  o( K+ \6 ~2 ACodec ID/Info                            : Picture based subtitle format used on BDs/HD-DVDs
      }; }# H" }8 }3 EDuration                                 : 2 h 8 min6 \0 F& b8 q' ^3 `+ y' s" L
    Bit rate                                 : 28.6 kb/s. L6 r9 u, M8 E& `
    Count of elements                        : 3482+ X5 Z9 s0 _; ^: M
    Stream size                              : 26.3 MiB (0%)
    - K! h5 W3 M2 ~' XTitle                                    : Korean-PGS
    : ], D: f( C8 N* m4 Z% RLanguage                                 : Korean
    2 t, _) }6 z% l* oDefault                                  : No8 L2 l) [1 Y9 p
    Forced                                   : No" r5 W# G" u+ N) U$ W

      u' t" z" r! j6 K2 sText #18
    * l( ~: \! ^& L1 UID                                       : 37
    / |: v. M/ T5 f  W2 I( }Format                                   : PGS# T$ y" R0 h' W+ `- M" U6 r
    Muxing mode                              : zlib! @& o3 w- M& e9 ?, n( _/ G
    Codec ID                                 : S_HDMV/PGS' U. q# c2 d) C; h
    Codec ID/Info                            : Picture based subtitle format used on BDs/HD-DVDs
    1 R0 R) }0 [9 ~1 O7 m2 q. fDuration                                 : 2 h 8 min, q" j) q! j0 a3 V3 U! w0 S
    Bit rate                                 : 32.1 kb/s* a7 O( b1 l3 o. Y, U. d
    Count of elements                        : 33260 A' k, {2 w: a' y; R' G
    Stream size                              : 29.6 MiB (0%)8 b7 I1 q& Y, e+ k
    Title                                    : Polish-PGS
    ; w2 y8 l$ V5 h  Y( C3 i& w5 ZLanguage                                 : Polish) X/ B5 y! l+ D7 Y% j
    Default                                  : No* F6 c1 x+ H/ c, l: i0 Q
    Forced                                   : No
    # j* `7 K# W" h( i: x6 |
    - R$ y3 G7 t0 E3 e0 hText #19' C" n: s" i3 {. x# V
    ID                                       : 383 B2 C$ V) r. N8 ]# i! r$ S5 O/ c
    Format                                   : PGS7 ?8 r2 |7 o; A; x$ k
    Muxing mode                              : zlib
    . \  U6 U6 _4 |. @& T: yCodec ID                                 : S_HDMV/PGS0 L. Q, f9 q* f: f, k* w6 c* _
    Codec ID/Info                            : Picture based subtitle format used on BDs/HD-DVDs! ^' Z4 C' @! {, E1 y, f' S+ [
    Duration                                 : 2 h 8 min) {- r! e5 }4 o4 X8 O
    Bit rate                                 : 34.4 kb/s, j8 C* Q0 G- Q# k! \
    Count of elements                        : 3350
    , h: J; R2 h. eStream size                              : 31.6 MiB (0%). O: i7 z0 Z( K8 K; y9 w: T
    Title                                    : Portuguese-PGS
    2 t( R. t* F9 ~( ?% e  q2 @+ PLanguage                                 : Portuguese
    6 m! i: {" ^! r4 ?( D6 UDefault                                  : No
    , h0 R/ W) f( S$ M% M" x& a5 FForced                                   : No3 v# @- Y. ]  ]$ V0 q

    1 H( ~$ @8 Q4 H% N8 `: S& p! J2 l2 JText #20
    : ]1 i7 H( q  tID                                       : 39
    8 H9 S+ w3 }3 T3 R# Q7 k( z% bFormat                                   : PGS5 N9 V0 Z, n- i  ]9 t$ n5 ^
    Muxing mode                              : zlib5 U- P$ R% p" k$ B9 J
    Codec ID                                 : S_HDMV/PGS* o7 t+ G6 Z6 t6 P4 d
    Codec ID/Info                            : Picture based subtitle format used on BDs/HD-DVDs$ J$ I: N" Q% b! U3 r& i
    Duration                                 : 2 h 8 min' A5 q* i# H7 N9 ~9 O. K5 b) O+ T
    Bit rate                                 : 37.0 kb/s! O2 H- b2 _6 o7 H
    Count of elements                        : 3350- I: O2 g8 d) D: K( y5 [( R1 X
    Stream size                              : 34.0 MiB (0%)
    ! K2 t1 e/ f" E0 wTitle                                    : Portuguese-PGS4 w; S: F" R" P0 L: i- r- M
    Language                                 : Portuguese! u/ l$ Z' x; Y7 G# t( ~
    Default                                  : No; G* u% e7 g/ y$ K, H& \
    Forced                                   : No1 j# l. r. b; p0 f

    : u5 G: [% t  D* ]7 s" XText #21
    ! R; @% ~' W5 L) g4 _ID                                       : 40
    2 C: L" c$ |5 i. }Format                                   : PGS; s, }, z0 h8 `# G, t- n! S4 o  K
    Muxing mode                              : zlib
    * u' O1 l- T5 \' d' z9 c) f" SCodec ID                                 : S_HDMV/PGS
    ) ?# {% `( Z1 d4 O- H. [, ]Codec ID/Info                            : Picture based subtitle format used on BDs/HD-DVDs# o. ?" w0 F7 `# q
    Duration                                 : 2 h 8 min: [+ ^+ ~; |& j6 H& e8 T
    Bit rate                                 : 35.0 kb/s
    0 ]* s' X, `; S+ }3 B  KCount of elements                        : 3176
    9 x1 V# d% N3 l; F8 XStream size                              : 32.2 MiB (0%)
    , m" P2 v' \- j; K1 P8 T9 V+ \Title                                    : Romanian-PGS
    + E& f0 x7 o# \& D! A: j3 FLanguage                                 : Romanian- h' U; l5 O* w$ X! y8 _' I+ e0 F
    Default                                  : No% R. h" p$ y" C3 Q4 g# L
    Forced                                   : No4 g/ N5 J( V4 G4 Z* L. H

    4 a+ c5 p' t8 K) k$ m# |% p) ]Text #22
    % b* q8 ]/ u# N. |- L" WID                                       : 41
    : s8 a  \1 G& a- u' JFormat                                   : PGS
    7 t  M8 d# b% S9 ]Muxing mode                              : zlib/ ^$ F- V! k5 ^) j% @
    Codec ID                                 : S_HDMV/PGS
    : n7 B3 p  Y6 X8 e/ r4 W& m8 R- }; hCodec ID/Info                            : Picture based subtitle format used on BDs/HD-DVDs
    # ?. `# M# B2 Y4 ]7 ADuration                                 : 2 h 8 min
    * F2 C1 e# D& \2 W0 \1 GBit rate                                 : 35.0 kb/s0 O) L, k: D. A4 q* l5 ^
    Count of elements                        : 3454
    8 ]* _1 ^1 y7 f4 ?4 {Stream size                              : 32.2 MiB (0%). n* `. l9 H6 Z* q; Q8 y8 y
    Title                                    : Serbian-PGS
    4 V8 @) _) f1 w$ q& {  ?# I7 |0 BLanguage                                 : Serbian
    . ~# a# d- C# D2 yDefault                                  : No- }4 L" w4 k# _
    Forced                                   : No
    % Z9 S! k# t; H/ @3 e( {9 L# ]' j; h
    Text #23
      @0 x0 t, Y% {, bID                                       : 429 v0 g% ^# q1 m- E* b3 w' M: _3 r
    Format                                   : PGS
      `+ L  E% m" o8 n9 [9 S$ {3 m6 W- ]Muxing mode                              : zlib$ W) U  `; I/ O7 i( e' b" @
    Codec ID                                 : S_HDMV/PGS8 Z- T: ?, a$ u+ m
    Codec ID/Info                            : Picture based subtitle format used on BDs/HD-DVDs
    : T' l% o- s) x: j9 N% I6 cDuration                                 : 2 h 8 min& T; E6 g9 m2 @5 v1 N
    Bit rate                                 : 31.6 kb/s
    : L% J1 Q* H: u9 c2 A: x& DCount of elements                        : 3438
    & k6 n& D) ~7 `* |9 Y" O; tStream size                              : 29.1 MiB (0%)' o# g/ y5 n4 f" U5 G
    Title                                    : Slovak-PGS
    # i3 m: ?7 X! e% |' R9 V2 M/ D* w. sLanguage                                 : Slovak# M, S% |1 C0 t0 d( W  K7 }6 Y
    Default                                  : No
    6 ]5 p9 ?4 ?2 X. {Forced                                   : No
    + Y! [# r* v4 I* ]) d) e
    " b2 i5 ]' P6 n. g% O/ b0 HText #247 z. N; ]$ ~( s2 O+ y* ?3 Y8 m
    ID                                       : 43) m; l0 {& x( D% r$ t5 g
    Format                                   : PGS
    : d! Y: x6 ~. x5 _' R  qMuxing mode                              : zlib
    ) I$ [9 z2 Y; g% n' W5 T5 M+ d) nCodec ID                                 : S_HDMV/PGS: {  U1 ^6 S7 s
    Codec ID/Info                            : Picture based subtitle format used on BDs/HD-DVDs7 F3 ?0 Q- |) E6 c/ S# [- M
    Duration                                 : 2 h 8 min
    5 L' H# A- g1 T" X7 NBit rate                                 : 29.6 kb/s) L) _/ M4 b1 K9 ~' Q: d
    Count of elements                        : 2920
    * s( t; X" W- s& x0 F6 y% KStream size                              : 27.2 MiB (0%)  C7 [2 j" L. k
    Title                                    : Slovenian-PGS
    9 j; l+ A6 d3 SLanguage                                 : Slovenian2 M3 f+ H5 O& e5 ?1 g8 V: j- k
    Default                                  : No
    7 [, I3 C& {& E& i3 f$ |6 b" WForced                                   : No
    % ?4 r7 E, |/ j
    4 E( I. @: g$ T; ]) y  BText #25
    2 B' z2 I  C. L" ]) v9 [ID                                       : 44: }8 ~) H2 |# K$ B/ F
    Format                                   : PGS
    ' y; M1 P; ^5 jMuxing mode                              : zlib, K+ c" Z# f  ^  m
    Codec ID                                 : S_HDMV/PGS
    / Q$ k2 `. S1 o; ^4 E/ WCodec ID/Info                            : Picture based subtitle format used on BDs/HD-DVDs  }3 f; ?8 g" ~4 }
    Duration                                 : 2 h 8 min2 J) m* S4 [+ `
    Bit rate                                 : 36.5 kb/s0 E. h8 ~/ l. U1 G1 I
    Count of elements                        : 3438
    , B* ^- S. N% ?/ D& t, i9 p& oStream size                              : 33.6 MiB (0%)7 d" u9 `5 q0 R4 u
    Title                                    : Spanish-PGS% i, A$ A7 b" U
    Language                                 : Spanish8 ?$ w5 b! l$ Q" d+ K; {
    Default                                  : No1 m' u( D, N+ b7 s/ n' R. S
    Forced                                   : No
    1 T1 A/ }) u! D0 ~; _/ e0 }
    + p- n, ~. ~( O: cText #26
    . N& o, i! D. q' ~8 VID                                       : 45
    ( ?$ w9 c2 ^/ c" KFormat                                   : PGS
    4 V, {* I. R3 L6 R$ ?Muxing mode                              : zlib, E6 \5 R" C6 A$ x& Q
    Codec ID                                 : S_HDMV/PGS6 H6 ?' e# j- m9 K
    Codec ID/Info                            : Picture based subtitle format used on BDs/HD-DVDs
    % `3 u& F6 R& ^. x9 `Duration                                 : 2 h 8 min! V5 W/ n7 [: ^+ Z$ i3 ~" a
    Bit rate                                 : 33.0 kb/s/ i% P+ }7 ^; y
    Count of elements                        : 35040 ^1 c$ v! L3 c9 T+ l# J
    Stream size                              : 30.4 MiB (0%); ^$ [6 \( I$ h9 W
    Title                                    : Thai-PGS4 L5 r1 U& s( M6 f) V5 E
    Language                                 : Thai
    7 L- [# J4 I8 G2 cDefault                                  : No
    ( @) ~- |$ M  J% U' n0 ~) PForced                                   : No
    6 F$ h8 C& v- [. V  J2 O' n7 u0 G: p& T8 s. O& S, g; {
    Text #27
    4 V0 i9 ~; s/ C  \ID                                       : 463 f$ h7 v7 M7 Y& L  V" q8 ?5 @9 J
    Format                                   : PGS
      z% |& R. f6 q8 @, n/ e* T# S2 K1 yMuxing mode                              : zlib
    + Q- F2 y$ p/ X& b' I' FCodec ID                                 : S_HDMV/PGS/ e7 E3 {+ ?) a1 A1 w$ p# |
    Codec ID/Info                            : Picture based subtitle format used on BDs/HD-DVDs# s. a* O3 J/ D6 {8 X$ Z: Y
    Duration                                 : 2 h 8 min
    $ M. [# j: f2 RBit rate                                 : 36.7 kb/s
    6 O: h5 c7 @' H$ I2 q5 OCount of elements                        : 3436
    2 H+ E3 S9 k& E5 X9 UStream size                              : 33.8 MiB (0%)
    , ~) L1 z* W2 l  g) o! g4 T3 V3 XTitle                                    : Turkish-PGS
    8 b/ P' h- J- r- i& {  E% U) RLanguage                                 : Turkish1 H+ q; D( q; B/ `2 p) H! V
    Default                                  : No
      M* P6 f5 Q6 ]9 z7 WForced                                   : No
    7 y, {# e# C% f- G8 f# G, L8 K  w
    Text #28
    ' C8 E) |% X3 ]4 e$ cID                                       : 471 F. O, J1 j/ c+ p3 l8 q  v) Y1 h
    Format                                   : PGS
    / _! e) W# D7 k! h' HMuxing mode                              : zlib& k" a; f8 C9 f. m9 }
    Codec ID                                 : S_HDMV/PGS
    : [' b3 b. _2 v  p/ SCodec ID/Info                            : Picture based subtitle format used on BDs/HD-DVDs: L8 b+ k5 p) u" o) v) {* d
    Duration                                 : 2 h 8 min
    # Y. |: d! W/ S$ A3 T" wBit rate                                 : 237 b/s
    + N* L2 ?2 O5 V* W8 ]Count of elements                        : 22
    . V) F; e6 C* LStream size                              : 224 KiB (0%)
    . M8 ~' g8 ?! E+ Y4 f) ~, @Title                                    : French-FORCED-PGS
    ) X/ x" I" \. r0 ^3 X/ V6 i$ ?' eLanguage                                 : French( \1 q' p8 Q! k' V
    Default                                  : No* q% h) E1 r& c7 K2 `# v0 ~' A
    Forced                                   : No* ~8 Q4 s+ u% A# V: l$ L
    5 }- g7 M- `& h+ s
    Menu  C; g& u4 `$ A3 a! n
    00:00:00.000                             : en:Chapter 01
    # m& m( z# R& t) a$ D) C2 m00:09:35.032                             : en:Chapter 02
    1 x/ h; m! Z2 A00:16:06.715                             : en:Chapter 031 l% o. @: W# _) V
    00:25:18.475                             : en:Chapter 04/ `9 ~8 p9 R0 K4 {
    00:35:26.332                             : en:Chapter 05. H& i. h( g6 m: f$ ?
    00:41:57.014                             : en:Chapter 060 x: e* B# Q( ^
    00:49:49.736                             : en:Chapter 07# _. m$ L! |1 v" u
    00:57:09.134                             : en:Chapter 083 V: ~. s1 e% C& j2 s3 q6 B
    01:04:50.636                             : en:Chapter 09
    7 |  X5 H" W/ |7 _2 N- V7 z01:15:57.052                             : en:Chapter 10# Q& [) T/ _* b; v2 z8 c
    01:22:49.089                             : en:Chapter 11
    8 a. Z  R6 A' |; F( Y6 Q, N  W01:29:25.193                             : en:Chapter 12: _. T8 j8 s" J5 x! v: B2 U% t
    01:36:43.214                             : en:Chapter 134 e  V# A! ~2 I6 Y$ x- K; ^
    01:44:46.989                             : en:Chapter 14
    4 f: m3 |# S# i, M01:52:17.147                             : en:Chapter 15
      b- m5 a+ w; }( f- K9 n$ @5 Y01:57:45.433                             : en:Chapter 16
    Spider-Man: Far from Home 4K Blu-ray, Video Quality  . I5 a4 B& r/ ]( y" S/ a
    ! J: |' ^% Y2 o

    1 T3 {3 \+ r7 N. {' C# Z. \) KFor a full UHD video review, please click here.3 Q/ g- h) E- C& p/ a
    - D4 X# x4 X8 ~1 u
    Spider-Man: Far from Home 4K Blu-ray, Audio Quality  + i: y( w0 A* E. Q) @: a# _
    ( A$ z  w& a' ?% ^& F3 Y
    ' \3 L0 ^, k' L* ^. |
    游客,查看本帖隐藏内容请回复 | 加入VIP贵宾组可免积分免回复下载 立即了解 | 还不是会员:点击获取邀请码 Invitation Code
  • TA的每日心情
    奋斗
    2020-3-6 18:59
  • 签到天数: 5 天

    [LV.2]路过蓝盘

    30

    主题

    560

    帖子

    2077

    积分

    Sponsor

    金币
    150 枚
    体力
    746 点
    lanpanshuma 发表于 2020-3-3 23:03:37 | 显示全部楼层
    楼主发贴辛苦了,I*老*虎*U!
    ) v: l9 f' v6 CBlu-ray Film Forum is now my home!
    ) A' l+ T: D2 s0 x" w
    该会员没有 ...

    该用户从未签到

    0

    主题

    6

    帖子

    169

    积分

    Sponsor

    金币
    139 枚
    体力
    17 点
    johnsonlou 发表于 2020-3-8 17:11:50 | 显示全部楼层
    kankanaskdkfnaskfdnskafdsjakjfosdifojweofjodskfsdfjowekfojsdoafasfdsf

    该用户从未签到

    0

    主题

    6

    帖子

    199

    积分

    Sponsor

    金币
    135 枚
    体力
    50 点
    zwzw4 发表于 2020-3-9 08:57:41 | 显示全部楼层
    不知道这个电影我看过没有,下载了试试看
  • TA的每日心情
    无聊
    2017-7-3 12:26
  • 签到天数: 87 天

    [LV.6]常住蓝盘

    547

    主题

    1418

    帖子

    1万

    积分

    VIP advanced

    金币
    999 枚
    体力
    3557 点

    公主勋章卓越贡献勋章

    21cn 发表于 2020-3-14 02:00:58 | 显示全部楼层
    感谢楼主分享好片
  • TA的每日心情
    无聊
    2017-7-3 12:26
  • 签到天数: 87 天

    [LV.6]常住蓝盘

    547

    主题

    1418

    帖子

    1万

    积分

    VIP advanced

    金币
    999 枚
    体力
    3557 点

    公主勋章卓越贡献勋章

    21cn 发表于 2020-3-14 02:01:16 | 显示全部楼层
    感谢楼主分享好片
  • TA的每日心情
    开心
    3 天前
  • 签到天数: 42 天

    [LV.5]暂住蓝盘

    35

    主题

    98

    帖子

    579

    积分

    Sponsor

    金币
    128 枚
    体力
    215 点
    QQ
    zhangwenbin 发表于 昨天 16:19 | 显示全部楼层

    2 j3 w/ D" a3 F0 D/ n- I0 R- r[4K极清电影] 蜘蛛侠:英雄远征/新蜘蛛人2 [4K REMUX无损版 自带中字]
    蓝光论坛里 ...

    本版积分规则

    小黑屋|Archiver|蓝光电影资源网

    GMT+8, 2020-3-31 06:14

    快速回复 返回顶部 返回列表