BluRayCD Forum

 找回密码
 立即注册【分享大片】

QQ登录

只需一步,快速开始

查看: 141|回复: 6
收起左侧

[4K极清电影] 阿拉丁真人版 [4K REMUX无损版] Aladdin 2019 2160p BluRaycd REMUX HEVC DTS-HD MA TrueHD 7.1 Atmos-FGT 60.60GB

[复制链接]
  • TA的每日心情
    慵懒
    2017-7-4 17:43
  • 签到天数: 613 天

    [LV.9]蓝盘精灵

    5310

    主题

    5662

    帖子

    6万

    积分

    Forum Moderator

    金币
    3396 枚
    体力
    25149 点

    卓越贡献勋章VIP蓝光勋章

    迅雷电影 发表于 2020-3-11 21:03:43 | 显示全部楼层 |阅读模式
    A kind-hearted street urchin and a power-hungry Grand Vizier vie for a magic lamp that has the power to make their deepest wishes come true.( `0 x6 u, x2 }& v0 T

    $ P/ [) Z7 J/ c 01.jpg
    " t$ h. q0 E. u. }  K
    . r2 ^5 X6 G5 O& b: |- }: V◎译  名 阿拉丁/阿拉丁真人版! I6 l% \6 Y+ J6 w6 ?: O4 W# j3 P
    ◎片  名 Aladdin
    % q! T; s! v- ~6 G% z( K; y◎年  代 20199 x! K3 m( h8 C& ?( S2 B5 m
    ◎产  地 美国
    / I& V7 V) i% |◎类  别 爱情/歌舞/奇幻/冒险6 _0 b" p- p5 j) [1 g! K8 }" m
    ◎语  言 英语
      m' |! ]3 C* T◎上映日期 2019-05-24(美国/中国大陆)  O0 a; {9 K% q4 Q
    ◎IMDb评分 7.0/10 from 189,672 users! S% M  a5 U& t2 P% g7 s) W7 S
    ◎IMDb链接 https://www.imdb.com/title/tt6139732/
      F% M% f, ~8 R◎豆瓣评分 7.5/10 from 229,335 users
    ) m! f- Y" ]% G◎豆瓣链接 https://movie.douban.com/subject/26891256/
    : ]. y6 \0 G2 i◎文件格式 x265 + DTS + TrueHD
    4 w0 C  K2 x8 m0 d◎视频尺寸 3840 x 21601 T% m: Y# L4 @* c/ F. N
    ◎文件大小 1DVD 60.60 GiB
    # F# r/ [: r  a) p◎片  长 2 h 7 min) @0 H; F' ~; `3 v; P$ h+ S8 }
    ◎导  演 盖·里奇 Guy Ritchie! d1 s* {! @3 Y4 e1 G  Z( m# e
    ◎编  剧 盖·里奇 Guy Ritchie
    " R# V$ e4 V! R       约翰·奥古斯特 John August0 Q3 b9 f" a+ w( |( N# q* S
    ◎主  演 梅纳·玛索德 Mena Massoud) j$ ?% B6 ?8 S2 g+ I
           娜奥米·斯科特 Naomi Scott
    0 \# w+ B, g% h2 V3 J; o& o4 u       威尔·史密斯 Will Smith  C0 Y4 ^! L& e# ~
           马尔万·肯扎里 Marwan Kenzari' E; H; ^9 a% H: r. V
           纳维德·内加班 Navid Negahban
    " O+ I) M, `3 m$ D# u+ J5 Y       纽曼·阿卡 Numan Acar
    : A6 E4 q( a5 x& [" \       艾伦·图代克 Alan Tudyk% Z% H0 U# I$ ~) X+ w* a+ E- B
           比利·马格努森 Billy Magnussen% ?9 r8 T$ N5 C% {6 ]3 o8 [. B* q3 B- ^
           纳西姆·帕杜雷德 Nasim Pedrad0 S8 z5 X6 v/ B5 f
           卡米尔·雷米泽斯基 Kamil Lemieszewski% b( {# g' }, ~( r
           乔伊·安沙 Joey Ansah# H; t% g* G9 N
           贾格·帕特尔 Jag Patel- g) x* d+ F5 L. I
           贝恩·科拉科 Bern Colla?o
    2 m7 ^$ e! ]$ k3 K) p; _       凯西·克莱尔 Cassie Clare
    & N. R5 n7 c1 K; R5 s       威尔·布拉格罗夫 Will Blagrove) A7 Y. e) L! v. ^0 e" _' K' I
           哈廷·帕特尔 Hiten Patel# _0 t$ O8 i+ q: ?" E( O) K0 c$ v# ?
           阿米尔鲍特罗斯 Amir Boutrous
    $ E: \" }# d% ~2 q. j/ O$ o       埃里克·可可 Eric Coco7 x# o% c/ u3 s2 ~* p1 Q
           弗兰·塔格 Fran Targ
    / h) s* R5 C# R4 O8 p       阿玛尔·阿达蒂亚 Amar Adatia
      {- b$ @# W. p' V' L4 D4 B       乔丹·A·纳什 Jordan A. Nash
    6 L7 j" Q4 S# z  |( C       通恰伊·古奈什 Tuncay Gunes
    5 Q4 T5 w/ g4 y# D" x. b3 ?       塞尔哈特·梅汀 Serhat Metin' b2 s/ G7 K: Q* _  I# I3 k
           凯文·马塔迪恩 Kevin Matadeen
    # |6 x! m. ]# |9 L7 H       保利娜·博内瓦 Paulina Boneva
    " [% G7 c- v- d9 }; b1 }       塔希尔·布尔汉 Tahir Burhan
    ! o9 G" D) b6 K9 S       亚当·柯林斯 Adam Collins
    ) w) X( @- ^/ {2 }9 _# q7 q. a9 L$ \6 Q' W2 p8 o
    ◎简  介  0 k, @- n+ l; j9 w

    & t* f3 @# }( ~( H* w  在充满异域风情的古代阿拉伯王国,善良的穷小子阿拉丁(莫纳·马苏德 饰)和勇敢的茉莉公主(娜奥米·斯科特 饰)浪漫邂逅,在可以满足主人三个愿望的神灯精灵(威尔·史密斯 饰)的帮助下,两人踏上了一次寻找真爱和自我的魔幻冒险。
    + A& z$ ^. C8 g$ z3 z3 \
    8 n2 ~, U- t' @( O  A street rat frees a genie from a lamp, granting all of his wishes and transforming himself into a charming prince in order to marry a beautiful princess. But soon, an evil sorcerer becomes hell-bent on securing the lamp for his own sinister purposes.
    9 v/ E# t: S2 c5 ]! L% f9 H" x) W$ ]: f
    Video/ R4 E! n$ V$ x
    ID                                       : 1) _7 e& S- ~5 g8 U; Z" w
    Format                                   : HEVC7 t5 Q' D) q' d$ b2 {
    Format/Info                              : High Efficiency Video Coding
    - h5 a. e3 q& W, VFormat profile                           : Main [email protected]@High; {/ x  z" H" R2 Q) O- X
    HDR format                               : SMPTE ST 2086, HDR10 compatible
    9 S$ k. [9 U9 t! ^( KCodec ID                                 : V_MPEGH/ISO/HEVC
    % _3 T# f; X! j& h5 B6 H! wDuration                                 : 2 h 7 min7 l0 I# T: h0 Z; _- F; K6 H+ T
    Bit rate                                 : 49.0 Mb/s
    0 U2 @8 v" D* C' d( B7 a# UWidth                                    : 3 840 pixels
    * S: R/ C& _: CHeight                                   : 2 160 pixels$ t0 q9 `( {2 P
    Display aspect ratio                     : 16:9
    1 W" }' R: W7 K! w+ yFrame rate mode                          : Constant
    ' j4 `- l) M" VFrame rate                               : 23.976 (24000/1001/37687) FPS
    6 X9 q: U+ W; hColor space                              : YUV# F/ \9 z6 S* ]1 U/ e2 G3 ~, P
    Chroma subsampling                       : 4:2:0 (Type 2)
    3 a* O+ n# c, E. B9 @0 `Bit depth                                : 10 bits: j, N1 M" |% L. \4 [% C$ q# I( S* _
    Bits/(Pixel*Frame)                       : 0.2460 d: W, _* z  y/ f# Q
    Stream size                              : 43.8 GiB (72%)$ R: T' @% b  E% S
    Title                                    : Aladdin.2019.2160p.BluRayCD.REMUX.HEVC.DTS-HD.MA.TrueHD.7.1.Atmos-FGT
    5 ]" N3 z2 `( Z7 V7 a) U7 iWriting library                          : ATEME Titan File 3.9.0 (4.9.0.0)
    ' ^; l/ B% G0 d1 lLanguage                                 : English5 V4 M4 Y( V( m! l+ [' }( l" \
    Default                                  : No: ^: [0 M- }- h# `; [  R
    Forced                                   : No
    . h" i# m: j( A/ S0 g7 qColor range                              : Limited7 R! r/ K$ E$ b  [8 ~4 {
    Color primaries                          : BT.2020
    * R* \7 }; Y0 d& M3 z4 O- hTransfer characteristics                 : PQ
    2 M6 g: ]* h) _+ V( D7 X7 {Matrix coefficients                      : BT.2020 non-constant5 W4 r( P, w7 e1 N4 I9 X8 r
    Mastering display color primaries        : Display P3
    " q& `2 ^' x$ @) j( r7 C$ W7 `Mastering display luminance              : min: 0.0050 cd/m2, max: 4000 cd/m2( ?) {' Y4 S+ o, W
    Audio #1
    4 m/ t9 C& y" i8 ?! I+ EID                                       : 2
    ( Q( L7 w/ M) i/ T, ^9 QFormat                                   : MLP FBA 16-ch
    & ?# }+ z/ W) g0 y9 d: R' r/ cFormat/Info                              : Meridian Lossless Packing FBA with 16-channel presentation# x1 i/ v4 ]5 B0 J1 m$ @, C+ P6 K
    Commercial name                          : Dolby TrueHD with Dolby Atmos
    5 {; H* i2 s4 MCodec ID                                 : A_TRUEHD+ L7 y. m* ]; @' X5 p
    Duration                                 : 2 h 7 min
    1 x. `' q' c% S7 o7 s( m' @0 zBit rate mode                            : Variable$ m4 g! |0 W  s3 m0 V9 c3 t3 k8 t
    Bit rate                                 : 4 877 kb/s" o# [/ q# V3 _
    Maximum bit rate                         : 9 060 kb/s
    $ S  H- j+ z9 e. WChannel(s)                               : 8 channels
    , v7 }- v: n! A* O4 ^& K7 y: WChannel layout                           : L R C LFE Ls Rs Lb Rb
    - Y% l+ C1 V) o) T  _" D% }Sampling rate                            : 48.0 kHz7 B, _8 B' |4 F; N$ Z4 \4 r
    Frame rate                               : 1 200.000 FPS (40 SPF)
    9 [# ^% a' M5 v. F9 ?( nCompression mode                         : Lossless
    8 Q1 S2 V- X/ i2 _Stream size                              : 4.36 GiB (7%)
    ) w; K+ {; v3 sTitle                                    : Aladdin.2019.2160p.BluRaycd.REMUX.HEVC.DTS-HD.MA.TrueHD.7.1.Atmos-FGT& m$ x+ F7 H4 d0 {3 Z
    Language                                 : English
    7 q# J. @! F7 @  u9 ZDefault                                  : Yes
    ) y8 J! o- p! S4 f3 }  y8 `Forced                                   : No9 o) F3 l3 f: i
    Number of dynamic objects                : 13
      l; e" k$ `3 r4 vBed channel count                        : 1 channel
    1 F' t8 h3 c1 Y. x" k! q  iBed channel configuration                : LFE
    7 Y5 H: X0 C" [  l# |2 I! hAudio #2/ o: j9 C8 d$ n5 |. }
    ID                                       : 3
    - j9 Z  e! r8 vFormat                                   : DTS XLL% z8 O- T, R4 @; c9 x8 k0 P
    Format/Info                              : Digital Theater Systems) Q1 D3 ~$ L  I8 K
    Commercial name                          : DTS-HD Master Audio
    ; m8 J7 c! K/ j* cCodec ID                                 : A_DTS; C7 L' O5 i) G, h0 N% T# L8 @" y
    Duration                                 : 2 h 7 min0 a# u& t& l" \* n% [& A
    Bit rate mode                            : Variable
    - W" n# [% u! ZBit rate                                 : 4 165 kb/s
    : u/ J& R$ X/ X' K! GChannel(s)                               : 8 channels; w1 z1 N/ O6 {: O  G* i" j
    Channel layout                           : C L R LFE Lb Rb Lss Rss& d7 L$ E) E8 K# b+ X, E$ T
    Sampling rate                            : 48.0 kHz
    ! s/ q- h! l- _5 L6 n$ A1 K" TFrame rate                               : 93.750 FPS (512 SPF)
    3 @- ^8 [. _+ \" |1 a$ ABit depth                                : 24 bits" R& K/ m! T2 A4 N8 ~
    Compression mode                         : Lossless
    * @* g  A5 t5 `1 P2 e& iStream size                              : 3.72 GiB (6%)) [$ z/ E" s  B  ]1 }$ C
    Title                                    : Aladdin.2019.2160p.BluRaycd.REMUX.HEVC.DTS-HD.MA.TrueHD.7.1.Atmos-FGT
    % p9 y4 p1 K' W) {3 h0 ULanguage                                 : English4 M" `8 L' g2 `: p
    Default                                  : No
    2 d8 a' ?( k7 @& |Forced                                   : No8 i+ }  `  A2 S& J0 Z
    Audio #3
    ( @2 {  x; R- i/ ^ID                                       : 46 [( P- V3 K- w& _
    Format                                   : AC-3
    $ R  y9 i, [/ m+ tFormat/Info                              : Audio Coding 3& K& r) E  T* e& _
    Commercial name                          : Dolby Digital+ \% b' j( u  m" y9 G# A. V: ^6 ^
    Codec ID                                 : A_AC3
    2 V4 [$ t2 v( A8 ?Duration                                 : 2 h 7 min
      H/ I& i, u5 |, w( YBit rate mode                            : Constant$ |& H) L  x/ z1 j& z7 d
    Bit rate                                 : 640 kb/s3 D; b, y( |* n+ ~
    Channel(s)                               : 6 channels
    $ R. w' L  J, RChannel layout                           : L R C LFE Ls Rs
    3 n" H1 O3 i6 J. v: h) ^Sampling rate                            : 48.0 kHz5 H$ A6 u; p8 g6 r
    Frame rate                               : 31.250 FPS (1536 SPF)0 u2 C* h+ L' C/ H1 S
    Bit depth                                : 16 bits; L& K. n6 M- ?
    Compression mode                         : Lossy4 q. V: I' ]( I4 v' t
    Stream size                              : 586 MiB (1%)% P/ S; Y+ F( `. N) X6 E
    Title                                    : Aladdin.2019.2160p.BluRaycd.REMUX.HEVC.DTS-HD.MA.TrueHD.7.1.Atmos-FGT4 v& Q; H" S. z! O7 |6 V
    Language                                 : English
    9 w8 j" Z# R! s) s- {1 _; l, Y5 MService kind                             : Complete Main. u+ N# J5 u  I5 L0 Q- K
    Default                                  : No
    + B" W: v3 h, Y" ~) \Forced                                   : No- }5 I" p1 Y. r2 m4 U
    Audio #4
    " D" y: k9 H, S- |0 B  U7 f9 [ID                                       : 58 G0 D0 ~8 z3 a# W$ _+ q
    Format                                   : AC-3. c, Y) @6 G: c1 y! j3 w
    Format/Info                              : Audio Coding 3/ [+ r: C1 i0 p; P
    Commercial name                          : Dolby Digital1 ?  O/ O# }& H
    Codec ID                                 : A_AC32 j, k; g$ [3 ~( h  a
    Duration                                 : 2 h 7 min! Q' |' T% G" F: ?( k6 Q  D
    Bit rate mode                            : Constant" h" R; p- a, {1 m; K1 q) R. Y
    Bit rate                                 : 320 kb/s
      L' r9 T2 @+ \* a' ]) a+ RChannel(s)                               : 2 channels
    1 ~; @0 g2 L9 T* UChannel layout                           : L R
    % O& _. }/ Q" u( A  w0 ISampling rate                            : 48.0 kHz
    2 d! A- g5 [: O1 k/ Y  VFrame rate                               : 31.250 FPS (1536 SPF)
    ) R# d6 j9 A2 y: D7 |  d( K' @" iBit depth                                : 16 bits
    5 R; f8 b- g, a. l9 A; d0 g6 q( XCompression mode                         : Lossy
    0 L8 F. e; x, `+ B# e8 t7 i3 a$ `; mStream size                              : 293 MiB (0%)
      [  o! s7 W; @) S7 x. ITitle                                    : Aladdin.2019.2160p.BluRaycd.REMUX.HEVC.DTS-HD.MA.TrueHD.7.1.Atmos-FGT; ~# K3 c0 y1 x: \) H$ c# N3 r
    Language                                 : English+ }' X  _& d8 _# N, o5 M6 k$ @& p
    Service kind                             : Complete Main# E; A: z! Q( @: D* o( P8 t$ W2 A
    Default                                  : No
    # t8 ]! i! K! h! B1 S4 u- ZForced                                   : No# |2 P( X" J( Q: @" g1 D
    Audio #53 m5 m+ u& J8 j& Z2 }- t- A0 O( m
    ID                                       : 6
    2 l( h8 }1 O; d# |! UFormat                                   : E-AC-3
    % I# w" Q/ X/ Z: MFormat/Info                              : Enhanced AC-3
    , x! q& V* i8 S" d# ]Commercial name                          : Dolby Digital Plus
    + J" k* }* P) |  O& l! R( P2 iFormat profile                           : Blu-ray Disc
    : F. J/ [9 i! t; `9 ?( LCodec ID                                 : A_EAC3
    0 V; ]$ d0 w  a/ K) bDuration                                 : 2 h 7 min* M! M4 c( Y( ^- _9 J) N: b% R
    Bit rate mode                            : Constant
    7 ~6 ^5 z0 ~7 {8 kBit rate                                 : 1 024 kb/s
    8 z5 I3 s  P' R* RChannel(s)                               : 8 channels
    % D/ _0 }; G- c% N1 yChannel layout                           : L R C LFE Ls Rs Lb Rb5 j5 o9 Y2 P7 ]/ J0 g
    Sampling rate                            : 48.0 kHz
    5 Q4 z1 s: _8 I5 K4 gFrame rate                               : 31.250 FPS (1536 SPF)  D9 k2 [4 r: Z; f- @# a
    Compression mode                         : Lossy* w$ L, f$ T" B7 D
    Stream size                              : 937 MiB (2%)
    0 a5 z1 b6 Y) l0 fTitle                                    : Aladdin.2019.2160p.BluRaycd.REMUX.HEVC.DTS-HD.MA.TrueHD.7.1.Atmos-FGT4 p4 Z5 \; I( I4 N' L
    Language                                 : French' E' d6 t; N& E* T
    Service kind                             : Complete Main
    6 S0 \; A& z% q* Z# F. V8 L5 F& TDefault                                  : No6 R9 c" ^) q' j! O5 ]4 \
    Forced                                   : No6 ~: H4 V! N7 F( H1 G. V
    Audio #6  K! U* F2 c& V% {5 W% f
    ID                                       : 7
    , Y$ r% E' f: K- M; RFormat                                   : AC-3
    / {! D3 @5 S- s& S" A8 ?  HFormat/Info                              : Audio Coding 3
    0 i" x( R" V5 {; R( WCommercial name                          : Dolby Digital
    8 B: r' _4 I' j6 b9 C& ?Codec ID                                 : A_AC3
      U3 ~- L  x5 h1 `# _Duration                                 : 2 h 7 min
    : y; j) W7 V3 M9 x7 }! X' u2 x+ SBit rate mode                            : Constant" l9 A6 T* ~& X6 J; ~3 x
    Bit rate                                 : 576 kb/s
    , w, R/ v+ W7 KChannel(s)                               : 6 channels/ m5 T! _1 V! K) n: k
    Channel layout                           : L R C LFE Ls Rs' t, _# u8 t! [% V& }
    Sampling rate                            : 48.0 kHz
    : w4 ^& a. _0 t/ m. }# B1 A  MFrame rate                               : 31.250 FPS (1536 SPF)
    * b+ J4 R5 A9 [) ?  |! N5 ~; IBit depth                                : 16 bits; Y# ~* W! f  `9 G7 l
    Compression mode                         : Lossy: v) D% F) ?3 a
    Stream size                              : 527 MiB (1%)
    / U- M/ ^1 [, n5 {) f2 B$ XTitle                                    : Aladdin.2019.2160p.BluRaycd.REMUX.HEVC.DTS-HD.MA.TrueHD.7.1.Atmos-FGT
    ( g# x3 z: S, J+ {/ BLanguage                                 : French
    $ v. y6 k# |! g- m1 c6 s7 i1 IService kind                             : Complete Main! \1 t& [5 Q" Y- f- W: o) {
    Default                                  : No2 t( t' k+ {( e- H
    Forced                                   : No- g( I4 ?2 L! J# ?1 a1 p, \
    Audio #7( y+ e. {8 V  g9 @
    ID                                       : 86 r' x7 I1 q: h) S3 W- \
    Format                                   : AC-30 J6 Q4 `" U* O: U& I; @8 {( [
    Format/Info                              : Audio Coding 3
    7 X1 s7 s5 V) ?) H- zCommercial name                          : Dolby Digital" q0 h; h% J8 v# }7 u
    Codec ID                                 : A_AC3/ a1 q- C  C0 H
    Duration                                 : 2 h 7 min
      [" Z3 P+ T- Z. ^1 wBit rate mode                            : Constant. W+ ^. _5 e# ?4 D7 Z9 ]- K
    Bit rate                                 : 640 kb/s
    9 I! V: M6 D+ s2 }0 ?6 AChannel(s)                               : 6 channels
    & \% q9 z* b8 t1 B. X" u( c: o  gChannel layout                           : L R C LFE Ls Rs
    9 c3 P8 [9 \( d9 T$ rSampling rate                            : 48.0 kHz
    * o3 D) S1 N! Z9 o  n0 SFrame rate                               : 31.250 FPS (1536 SPF)
    # G4 t1 K+ J) u9 U9 o' l, B3 KBit depth                                : 16 bits
    5 K7 U; S  \$ x- J) V1 L* W" Q/ hCompression mode                         : Lossy* j6 \( F/ T8 s" R2 O1 T' n8 C
    Stream size                              : 586 MiB (1%)
    3 u3 _. c% H  V  M: vTitle                                    : Aladdin.2019.2160p.BluRaycd.REMUX.HEVC.DTS-HD.MA.TrueHD.7.1.Atmos-FGT
    " J: ^  v7 Y7 C0 B2 `8 xLanguage                                 : French6 M" @" l) ?' j! T
    Service kind                             : Complete Main
      O( ?! H' S+ @# c' _4 l2 T% [Default                                  : No
    4 \2 D. S' r" f* u3 aForced                                   : No+ a0 \; v$ K6 H! Q& V
    Audio #8- J) R5 d, `: c8 q( A* L( e
    ID                                       : 9, W/ B! U; l% d- C( `  f5 [3 }
    Format                                   : E-AC-30 }6 R$ D' i: M- {+ w
    Format/Info                              : Enhanced AC-3
    9 J9 \- N0 d5 V7 |) X% TCommercial name                          : Dolby Digital Plus
    9 v. u8 ]5 f, d4 M5 f4 BFormat profile                           : Blu-ray Disc
    / E, ~! q6 W. y4 J) `Codec ID                                 : A_EAC3( ]3 t" ^$ |! L9 m
    Duration                                 : 2 h 7 min5 v; p" {  [* J- G
    Bit rate mode                            : Constant# i: ^! ]5 U; C
    Bit rate                                 : 1 024 kb/s
    ! ?% R8 N9 J. H% Z1 k  BChannel(s)                               : 8 channels
    % w' F4 @6 p/ B8 h6 T8 X, e: g& }Channel layout                           : L R C LFE Ls Rs Lb Rb
    $ ^2 S/ `2 i; |) L0 tSampling rate                            : 48.0 kHz/ [. c9 Q) o9 r  O
    Frame rate                               : 31.250 FPS (1536 SPF)
    0 e, l) F, l  X8 U  r+ m8 ?Compression mode                         : Lossy
    $ Z0 ?+ I3 K( Z$ k& [; ~) l# i% rStream size                              : 937 MiB (2%). G) q. G6 B9 A( g- p2 c% u: W5 ^
    Title                                    : Aladdin.2019.2160p.BluRaycd.REMUX.HEVC.DTS-HD.MA.TrueHD.7.1.Atmos-FGT$ j- l- v( J& k8 d7 f) ~% r3 N7 M
    Language                                 : Spanish
    0 s8 _. x8 a; x5 Y& f$ rService kind                             : Complete Main8 a- k5 K4 s7 C2 B5 d8 m7 z
    Default                                  : No
    2 W( h: U1 O$ d- p. C  UForced                                   : No$ o) k( E+ ]# t( N' l$ N
    Audio #9
    & T! N. T$ M1 W+ dID                                       : 10
    5 {! b+ e# D- w, C6 Z2 m' M- m( i. {Format                                   : AC-3
    0 X9 m; R3 z1 D" o* K" u) bFormat/Info                              : Audio Coding 37 L; B  H0 H& n6 v( }  g
    Commercial name                          : Dolby Digital/ |4 F" H% \  P$ }/ d! y) O% p
    Codec ID                                 : A_AC37 @( `* |, ?3 q' G$ `
    Duration                                 : 2 h 7 min
    % O1 T& d; O# ~% V/ u5 Q& ?- r) E6 s3 PBit rate mode                            : Constant
    0 l% v) ~' K" t( f3 g8 L* D5 g- @& Z5 jBit rate                                 : 576 kb/s1 c: o( ?2 x! i' m  w
    Channel(s)                               : 6 channels
    ' H( O& \9 ?$ D: e7 tChannel layout                           : L R C LFE Ls Rs
    , L$ Z# H" \# \5 i% KSampling rate                            : 48.0 kHz5 |& F) m: }- h2 i% {! _6 _
    Frame rate                               : 31.250 FPS (1536 SPF)
    % t  l9 }0 ?( Q* F' i# CBit depth                                : 16 bits( _; q2 m) y, W5 K% e+ E3 g
    Compression mode                         : Lossy& U$ x0 e  g0 e9 X8 l2 l5 O
    Stream size                              : 527 MiB (1%)
    7 w( u3 k4 u% I" _1 UTitle                                    : Aladdin.2019.2160p.BluRaycd.REMUX.HEVC.DTS-HD.MA.TrueHD.7.1.Atmos-FGT
    , {6 O2 \+ J: Q1 f7 ALanguage                                 : Spanish+ e; @4 Z$ y! ^: x) u
    Service kind                             : Complete Main
    1 J  p% i; u, @' f" g$ oDefault                                  : No
    + @2 o! Q% h, @  Q& ZForced                                   : No
    ' g5 S! L; V, F1 s8 V% qAudio #10
    / o, p( D. B5 {ID                                       : 11
    $ b# n" ]6 D; V4 I1 D) k7 eFormat                                   : E-AC-3
    / n9 h- b# j0 t  L1 B, s' yFormat/Info                              : Enhanced AC-38 Q8 I, X1 A3 z, y" h/ `! h7 u$ h
    Commercial name                          : Dolby Digital Plus
    8 Y# ]0 ^0 R+ Z+ F( cFormat profile                           : Blu-ray Disc5 X$ c1 R6 l7 Q( W
    Codec ID                                 : A_EAC3# I/ ~2 ^% T2 \% O" f+ r, w
    Duration                                 : 2 h 7 min
    # l- G" f# e! b4 h/ N# J) s* l6 Y/ hBit rate mode                            : Constant6 e' H( Z( w/ i8 J
    Bit rate                                 : 1 024 kb/s
    $ V! Q4 P& E9 tChannel(s)                               : 8 channels
    3 @& A6 Q9 C7 l4 ~Channel layout                           : L R C LFE Ls Rs Lb Rb- c! U' q9 v  V, W' N# ^" l" a
    Sampling rate                            : 48.0 kHz* [7 Y0 G5 I7 i- m! ?4 A; b
    Frame rate                               : 31.250 FPS (1536 SPF)7 s* i3 j, S* L8 _7 u* N2 a
    Compression mode                         : Lossy
    5 F! P7 q! `9 v" G) yStream size                              : 937 MiB (2%)
    ; O4 z: O' {" Y6 H  |: T6 bTitle                                    : Aladdin.2019.2160p.BluRaycd.REMUX.HEVC.DTS-HD.MA.TrueHD.7.1.Atmos-FGT2 i/ W& r5 V) q' _( |! ]
    Language                                 : Italian! H( K. k/ }7 F2 ]1 S( y: f8 B
    Service kind                             : Complete Main! t$ K# z3 Q% q* A  g
    Default                                  : No! {3 C; @- m8 F2 M6 S( I; J
    Forced                                   : No
    3 t$ ]7 Z4 s( `# c/ j4 t3 \Audio #11: o" x8 U9 y) Q- g- |7 i
    ID                                       : 12
    / z2 b. L  }) cFormat                                   : AC-3  O* I2 z8 i& }* d% d
    Format/Info                              : Audio Coding 3
    ( ]- \, P" D/ H0 iCommercial name                          : Dolby Digital
    . o% W8 t' b$ N& l6 }- W# s  X% A+ _Codec ID                                 : A_AC3
    & p( d% M2 d, eDuration                                 : 2 h 7 min
      e' _1 w4 ~- \) GBit rate mode                            : Constant
    . a& z4 r' E- J# I  RBit rate                                 : 576 kb/s1 l2 l9 w; v8 u2 i) N& K
    Channel(s)                               : 6 channels
    8 N# s' l1 J$ ]Channel layout                           : L R C LFE Ls Rs
    # e& \( x2 l# m  P9 eSampling rate                            : 48.0 kHz* G- M+ H: z+ P7 l9 p3 v( l
    Frame rate                               : 31.250 FPS (1536 SPF)8 C8 J& f8 y) _2 y$ [- `
    Bit depth                                : 16 bits9 a# Z4 e2 b* A
    Compression mode                         : Lossy5 V" w# X2 U9 L
    Stream size                              : 527 MiB (1%)
    : E$ Q# m  k# `Title                                    : Aladdin.2019.2160p.BluRaycd.REMUX.HEVC.DTS-HD.MA.TrueHD.7.1.Atmos-FGT
    # F5 w' _+ f: \0 JLanguage                                 : Italian7 d3 q( M) s: R9 S0 W
    Service kind                             : Complete Main4 }+ u$ e* D' h6 Z4 y
    Default                                  : No
    ; L7 |& L8 l$ \( ]( `Forced                                   : No* p* w2 d: g* B" W
    Audio #12
    * Q9 F5 Z$ @& [8 i+ Y- Z% x! R; _ID                                       : 13' `& C- N  }( t$ P' P  `# g9 Y3 S+ h  J5 X
    Format                                   : E-AC-3
    6 Q. j- M( ~6 d" G7 uFormat/Info                              : Enhanced AC-3+ C  l- b5 R, h4 \
    Commercial name                          : Dolby Digital Plus3 w( E: y" c( U' D: U
    Format profile                           : Blu-ray Disc8 _0 [1 M* i# N$ t4 j. w
    Codec ID                                 : A_EAC35 \, g2 I. r- k" y' J4 l) u& C
    Duration                                 : 2 h 7 min# u. [" b) z& t
    Bit rate mode                            : Constant
    * d/ M+ v6 d" B2 B7 l* u1 rBit rate                                 : 1 024 kb/s0 v) _+ P7 N( `4 o4 ~. G% x( U
    Channel(s)                               : 8 channels
    ; u& n: ^( K8 z$ z0 O; U, @3 ^Channel layout                           : L R C LFE Ls Rs Lb Rb" @+ O6 R* n! A: Z5 L' i0 c3 n& `9 Q
    Sampling rate                            : 48.0 kHz
    % y6 I! d0 y2 J* j+ IFrame rate                               : 31.250 FPS (1536 SPF). H+ q9 j3 E% F1 @
    Compression mode                         : Lossy
    : }! B( `' x$ s! H- oStream size                              : 937 MiB (2%)
    & d3 b$ h5 S7 n& U9 mTitle                                    : Aladdin.2019.2160p.BluRaycd.REMUX.HEVC.DTS-HD.MA.TrueHD.7.1.Atmos-FGT
    / I# D* b# S2 }( c/ U; [3 v6 ?Language                                 : German- L% R) m6 R5 [2 u
    Service kind                             : Complete Main) B" H/ s) U  r9 f
    Default                                  : No$ T& T9 h' U- x" `+ s
    Forced                                   : No
    9 ?' i: }2 K  z$ C. S" BAudio #132 e3 @& q" g+ {% G" e2 W
    ID                                       : 14
    : Y4 D- b8 Q7 ^4 `Format                                   : AC-3
    ; A, s* X6 G, O0 y  ^Format/Info                              : Audio Coding 3
    ' m  s, l' M. S2 d7 M# LCommercial name                          : Dolby Digital0 d9 ~! S( \! x) ?) E6 g
    Codec ID                                 : A_AC3  P  j6 ?9 g5 A
    Duration                                 : 2 h 7 min
    2 G* k. `" U7 Q) x2 f' @Bit rate mode                            : Constant
    ! k1 f. m) `# S2 L  JBit rate                                 : 576 kb/s
    ! y& C( L5 X7 m4 ^Channel(s)                               : 6 channels1 C& {! |, U& ^/ X9 c
    Channel layout                           : L R C LFE Ls Rs
      k. }8 D: e! A# Y! Y' wSampling rate                            : 48.0 kHz1 ]" M4 R* t5 q& j! W8 i
    Frame rate                               : 31.250 FPS (1536 SPF): Z2 L5 o+ |, U+ ~( r: `; U0 k% _
    Bit depth                                : 16 bits
    * f/ r0 i9 ~" y, U* p6 O! {Compression mode                         : Lossy7 Z4 D1 O4 v4 {$ E5 k  X
    Stream size                              : 527 MiB (1%)
    4 {5 X+ A8 b6 j- j: RTitle                                    : Aladdin.2019.2160p.BluRaycd.REMUX.HEVC.DTS-HD.MA.TrueHD.7.1.Atmos-FGT
    $ Z* U" d) X2 o, ~Language                                 : German
    + `5 F( X6 T! s" y/ j; {3 A4 OService kind                             : Complete Main" K7 H0 G7 ~  `9 P
    Default                                  : No
    " y+ C* {' E0 c' z+ v$ `0 OForced                                   : No- D; J3 w# f1 i! T+ s: ?' B" N/ n% W
    Audio #14
    ! x* F- R3 C1 ^  ], RID                                       : 15
    : a8 s4 o4 Z& m" n5 c" S4 oFormat                                   : E-AC-3$ z& C) k! N/ a9 i' H7 G- w9 j
    Format/Info                              : Enhanced AC-3
    3 d$ _- D8 g  n# ^' F" |, C- B$ h. aCommercial name                          : Dolby Digital Plus" n& L. N6 J; I( L# R: r
    Format profile                           : Blu-ray Disc$ `! }" H6 B( K
    Codec ID                                 : A_EAC3+ Z! V$ K6 a  v7 {: j# M
    Duration                                 : 2 h 7 min
    + y4 T9 `+ T# xBit rate mode                            : Constant8 M; s1 a8 c3 ~' m* x1 B
    Bit rate                                 : 1 024 kb/s
    % t' W, V, u% B) Y3 CChannel(s)                               : 8 channels1 _9 s. y" b  T1 x0 S; I7 W6 K& {
    Channel layout                           : L R C LFE Ls Rs Lb Rb
    3 r) e* A7 R) S: a5 v( iSampling rate                            : 48.0 kHz5 _9 I3 f" i& j
    Frame rate                               : 31.250 FPS (1536 SPF)/ X- a" L5 }' @/ A" g% `$ A( u( B
    Compression mode                         : Lossy1 I; ]4 P2 h; T( e
    Stream size                              : 937 MiB (2%)1 l1 q" C5 B* c' G7 {' X
    Title                                    : Aladdin.2019.2160p.BluRaycd.REMUX.HEVC.DTS-HD.MA.TrueHD.7.1.Atmos-FGT
    - p9 @% I! d! v$ [  S+ P2 l# Y" lLanguage                                 : Japanese
    ' e/ n$ Z! j* IService kind                             : Complete Main8 G7 {1 l  K& z' H- l  r) h
    Default                                  : No3 D3 @0 t3 G5 {& w1 a; V% R
    Forced                                   : No
    3 [& v+ m0 A) @# w) e2 c) kAudio #15* L# [# c/ ?7 i
    ID                                       : 167 b, {& r- ~* h1 N$ L' G2 V
    Format                                   : AC-31 {1 a. t4 X: L! R
    Format/Info                              : Audio Coding 32 D+ o! F3 h+ V: N4 E0 X' `
    Commercial name                          : Dolby Digital
    , J; ^& Y3 O4 d9 u, Y) j0 r8 K2 yCodec ID                                 : A_AC3
      y) g" Z5 L& EDuration                                 : 2 h 7 min
    # i3 c# y7 R( a6 UBit rate mode                            : Constant$ p/ W! g/ y! f
    Bit rate                                 : 576 kb/s
    4 |/ l1 H' `& L  Q, z. ?Channel(s)                               : 6 channels
    0 p( [! X' P; B+ p1 Z7 iChannel layout                           : L R C LFE Ls Rs$ t& @# i% ]" k8 |9 @8 V
    Sampling rate                            : 48.0 kHz& Y( d" N8 G  U% \, i4 e! L- I4 x- U
    Frame rate                               : 31.250 FPS (1536 SPF)
    0 A2 i% R" W, h( D5 {  R5 R3 cBit depth                                : 16 bits% r) `% i1 M6 q1 K# ^
    Compression mode                         : Lossy$ c# z5 ]% ^# ?  A
    Stream size                              : 527 MiB (1%)
    . R' |# V8 I; _7 ^8 {0 fTitle                                    : Aladdin.2019.2160p.BluRaycd.REMUX.HEVC.DTS-HD.MA.TrueHD.7.1.Atmos-FGT
    $ a& r8 d- J. T2 F2 hLanguage                                 : Japanese- F1 l' \& \1 t
    Service kind                             : Complete Main' ?' W$ q" Q' W# ]
    Default                                  : No% d, s( p2 d9 n6 N
    Forced                                   : No
      O% Z6 Z7 ?) N+ q. Y$ ^Text #1
    ' ]: g& Q1 d. z3 C5 y3 d% b/ u. DID                                       : 17
    7 n" w5 z: [& W2 \+ jFormat                                   : UTF-8: ?# ]7 r. Q: \$ H+ p- e
    Codec ID                                 : S_TEXT/UTF8
    4 F9 P& g+ q! wCodec ID/Info                            : UTF-8 Plain Text
    % _$ g" i" E9 i4 gDuration                                 : 2 h 6 min
    ! A- E2 g+ z, C2 D; @% O+ b& eBit rate                                 : 63 b/s: v* L3 @* f6 d0 w8 ]2 R0 E
    Count of elements                        : 21116 r, r0 }# N' P+ H  S$ ^
    Stream size                              : 59.1 KiB (0%)% Z2 q) B3 F1 F+ P+ W
    Title                                    : English-SRT5 S* [% j' ]7 Q+ }
    Language                                 : English+ Y5 [8 K+ J( \& C
    Default                                  : Yes' Q& B, O# ]# J5 l7 N
    Forced                                   : No- L0 a) Q2 j: O6 D
    Text #2
    + o( R% ?0 h! hID                                       : 184 R9 J" c% G3 A$ \
    Format                                   : PGS" w$ g! z3 j( I3 ^
    Muxing mode                              : zlib
    " s/ W. H- i; {% a4 K  SCodec ID                                 : S_HDMV/PGS6 P9 E! b3 e) T; N
    Codec ID/Info                            : Picture based subtitle format used on BDs/HD-DVDs
    8 Y9 \$ F) G, _2 n8 ODuration                                 : 2 h 7 min
    5 l0 u# [( `* E9 O' nBit rate                                 : 46.8 kb/s
    ( V% n2 _- X) HCount of elements                        : 4858
    & W9 g4 p+ m& `Stream size                              : 42.5 MiB (0%)
    , K: F+ o: w2 e) j" m* {Title                                    : English-PGS
    & O, w! H  v& m( bLanguage                                 : English
    0 [5 _5 j+ R7 O. I- zDefault                                  : No: |, Y, k" ]8 s2 c
    Forced                                   : No7 z2 I, h6 t$ J' p5 A& Q3 T
    Text #3
    + \/ s2 d% M4 x( Y9 mID                                       : 19
    ; X- u/ {* ^' v: hFormat                                   : PGS5 H3 k& N  S, S/ ~* V
    Muxing mode                              : zlib
    # A. N6 I/ D1 v, w, R  TCodec ID                                 : S_HDMV/PGS5 M2 k( x: z8 H8 {$ ^, y% R6 C) z2 U
    Codec ID/Info                            : Picture based subtitle format used on BDs/HD-DVDs# M( T6 f3 H3 Q. e7 y) |
    Duration                                 : 2 h 6 min
    " l4 ?: T5 F9 RBit rate                                 : 32.2 kb/s$ w; [6 {, i$ c& R& L* l& q+ n
    Count of elements                        : 3422
    0 v! E1 y9 K  g+ ~( dStream size                              : 29.2 MiB (0%)
    " }. B- w# `! S) N8 J  Q% `2 ZTitle                                    : French-PGS  K8 g% e. Z, N- J( C: n% k
    Language                                 : French
    " x% o7 [* {9 Y2 {! nDefault                                  : No
    9 x6 ~' G5 H9 r6 c6 F5 z) A9 MForced                                   : No
    : Z  [7 V% S9 M% u6 eText #4/ \/ ?  M, `6 G: G
    ID                                       : 20
    5 k& G5 e1 v+ aFormat                                   : PGS
    2 A, l' [+ J5 _: I" g7 s' jMuxing mode                              : zlib& u- `9 y, B8 y" K
    Codec ID                                 : S_HDMV/PGS
    5 _: W' F4 v" n3 [8 QCodec ID/Info                            : Picture based subtitle format used on BDs/HD-DVDs$ M1 F) N. |) F! B% i) M
    Duration                                 : 2 h 6 min
    ) u2 b9 A6 [5 }, D1 k( o/ kBit rate                                 : 36.1 kb/s
    % K9 k$ T" |" E3 r% P2 V0 wCount of elements                        : 3600
    + N9 R- C4 S0 \/ ]8 t1 SStream size                              : 32.7 MiB (0%)
    & ]6 b  ]# ]$ h* n9 Q; oTitle                                    : French-PGS4 ~5 I4 p. r1 J: n
    Language                                 : French. g+ \% `$ T+ A' m" C; e6 k
    Default                                  : No$ A, j8 N4 M/ U( C( L
    Forced                                   : No. a" J1 K% K9 k8 A
    Text #5/ ~5 U! b9 g7 }; |; N, H: k
    ID                                       : 21
    / q3 o3 _- x+ U( C8 I8 MFormat                                   : PGS
    . ^5 Q3 r! C+ z. O0 PMuxing mode                              : zlib
    " w$ t6 A% }8 R: LCodec ID                                 : S_HDMV/PGS/ U% n; P2 h, u( J
    Codec ID/Info                            : Picture based subtitle format used on BDs/HD-DVDs
    5 E, \# I0 [1 v5 r+ L- R2 CDuration                                 : 2 h 0 min
    , f" c( h/ ?3 d1 @Bit rate                                 : 37.9 kb/s; |# z5 S2 J" v3 B( Y  D7 y
    Count of elements                        : 3570
    6 x& n2 d3 h) q( U  [Stream size                              : 32.6 MiB (0%)' ^1 l' x  R& L% N
    Title                                    : Spanish-PGS
    % @5 Q% P4 C7 }$ R1 vLanguage                                 : Spanish2 f5 S& r& ^! q  W& k1 n
    Default                                  : No( Y9 r1 y8 r2 s
    Forced                                   : No9 w+ I- L: [4 a
    Text #6% c2 @4 ~% q$ Y; H' f
    ID                                       : 227 G8 u, m4 X( m7 m+ r  v  i" h
    Format                                   : PGS& h8 J! ^) s" O4 g
    Muxing mode                              : zlib
    - r% m9 H5 Q# z7 \0 v! SCodec ID                                 : S_HDMV/PGS; y( V7 i2 L! \( L
    Codec ID/Info                            : Picture based subtitle format used on BDs/HD-DVDs/ z3 e) d' H& D, R6 d& n) s
    Duration                                 : 2 h 6 min
    5 z4 a' z2 q, C  zBit rate                                 : 34.8 kb/s3 B  W( F: E, Z
    Count of elements                        : 3570
    0 d" t4 R0 _# w- O8 ?Stream size                              : 31.6 MiB (0%)
    1 _  \" m1 F, [) ^* C, hTitle                                    : Italian-PGS# O- c& A  I3 G9 w' e5 v+ Y
    Language                                 : Italian& I# ~) G, g5 t" n
    Default                                  : No
      s' h) M& t% ~7 e1 d$ Y- u( HForced                                   : No
    & @7 R6 A+ @2 a2 b8 b6 GText #7
    " F! m2 l- p( V2 _" @ID                                       : 23
    ; V3 Q2 i/ x% ?' h$ wFormat                                   : PGS
    : u4 ^% \" @% E9 h0 ^Muxing mode                              : zlib( |0 r. u( c) b1 m
    Codec ID                                 : S_HDMV/PGS! `  C1 x& R! [; [+ N" ^
    Codec ID/Info                            : Picture based subtitle format used on BDs/HD-DVDs3 N% E! F9 v0 O. S" m+ Z2 S: |0 e
    Duration                                 : 2 h 6 min- y, b( H4 ^& x* p
    Bit rate                                 : 35.5 kb/s9 e1 J* |% c: k& q
    Count of elements                        : 3846$ L* r6 h' _1 N- H2 _1 k1 Z" t. @
    Stream size                              : 32.2 MiB (0%)2 _7 h* X" N* _2 W6 x+ j
    Title                                    : German-PGS
    , U9 \- X" `. V4 ^Language                                 : German
    " P1 x' T& w+ R& f: C7 V" bDefault                                  : No
    ; U' h; T6 a  q- A; ]9 N4 l5 T' CForced                                   : No
    ) }3 I# e/ F- F* Z2 `  ^Text #8
    , j: i% H$ j$ {) |, `6 e$ `ID                                       : 24
    4 O  F/ m0 A4 p1 E5 m$ C" M( qFormat                                   : PGS9 H) U! ^  H6 c' @
    Muxing mode                              : zlib* k8 e  P& p+ Y9 A0 d% W. S# Y
    Codec ID                                 : S_HDMV/PGS+ V$ g* l! l/ x6 {
    Codec ID/Info                            : Picture based subtitle format used on BDs/HD-DVDs0 W  H* R0 Z+ \) t( H
    Duration                                 : 2 h 6 min/ g' e) z  }2 x" \( O, M
    Bit rate                                 : 27.0 kb/s
    & A, |; v3 X' KCount of elements                        : 33224 Z& i+ ^5 }% I
    Stream size                              : 24.6 MiB (0%)/ _  a- D+ P) r' G1 T/ ~
    Title                                    : Japanese-PGS7 X1 b( l, _7 N! O# E7 V1 S
    Language                                 : Japanese
    # e; b7 ?  m- R& D5 IDefault                                  : No
    % F" y7 d! F# ]/ ]$ v# ]% SForced                                   : No
    & g# S4 z7 _# CText #90 M. q" j9 R: ^3 `5 u# ^
    ID                                       : 25# B0 a1 b; P# q$ Z) w( s
    Format                                   : PGS
    ; d' K. m0 y5 o4 A# N) vMuxing mode                              : zlib" o) r5 {2 j& L1 p3 H. o% l0 H
    Codec ID                                 : S_HDMV/PGS% Q8 [# T5 h; s7 ]+ x! p; T
    Codec ID/Info                            : Picture based subtitle format used on BDs/HD-DVDs& @. u% j. E8 n  W1 y
    Duration                                 : 1 s 356 ms
    ( v1 e2 f& D/ B7 a# n' OBit rate                                 : 60.6 kb/s
    1 t6 h% A8 N3 i% |- xCount of elements                        : 2* f; n9 a7 J3 ]7 B4 W) X, h  D
    Stream size                              : 10.0 KiB (0%)1 `  Q  k2 L0 K2 B
    Title                                    : French-FORCED-PGS
    3 Y( f( n3 Z" L) hLanguage                                 : French  T. o$ d4 S( Z% n8 f& ~
    Default                                  : No7 |; d. ~& r) ^$ w" d7 Q
    Forced                                   : No
    ) {& r8 v6 _" u4 ZText #10* K6 m9 O5 z, a* i6 R" Z( S
    ID                                       : 26
    ! O4 A- e& ^& }Format                                   : PGS: |7 Y; i* ]$ v8 \, k) x5 O& R
    Muxing mode                              : zlib$ a1 ?  S' G, }1 L
    Codec ID                                 : S_HDMV/PGS
    6 S, _+ m+ F/ M8 n: b% s2 t* d& UCodec ID/Info                            : Picture based subtitle format used on BDs/HD-DVDs+ F7 N" {0 P6 [' f6 J3 ^
    Duration                                 : 1 h 58 min. ?! v7 o; ?! P: i& U- e5 w
    Bit rate                                 : 621 b/s
    ' X8 ?) ]; e7 A) x6 e9 R$ I: h$ f( {Count of elements                        : 82% `1 o  O. d# q1 `" O  p# \1 U
    Stream size                              : 539 KiB (0%)
    1 i& z. H4 p/ y' Q4 K3 l! e  A6 fTitle                                    : French-FORCED-PGS/ x( L/ D7 G. U; m( ]9 J$ R
    Language                                 : French; Z/ `, u6 ^5 x5 C4 e& X
    Default                                  : No
    " H8 S2 p9 Y) Y2 v% hForced                                   : No2 f5 G8 B# [( G, E2 x/ _4 v
    Text #119 Y' C7 R7 `/ T/ o1 }
    ID                                       : 27( o% ^# g) H3 t. B2 b2 o4 o( h
    Format                                   : PGS
    2 k6 H# u/ ]4 LMuxing mode                              : zlib
    ; E, b, C  j$ H0 |& J* `Codec ID                                 : S_HDMV/PGS+ M) {7 t9 t* K$ b" w) f) Z
    Codec ID/Info                            : Picture based subtitle format used on BDs/HD-DVDs$ t9 y; j3 Q; O1 d5 W( f' V5 P$ g& t
    Duration                                 : 1 h 11 min
    ' I4 J8 H7 \' s! \% v$ bBit rate                                 : 41 b/s
      K7 W- |. ^( bCount of elements                        : 41 v* P9 C% R4 \7 u7 b
    Stream size                              : 21.8 KiB (0%)9 {) h' _0 J1 @( x3 M0 ~: @
    Title                                    : Spanish-FORCED-PGS
    + R; ]# Q" F5 C& [; iLanguage                                 : Spanish7 b9 ]% s, Z0 ~% Y& S- F% O
    Default                                  : No$ [5 J$ l# M1 d
    Forced                                   : No
    ( V! ~8 W; h( w% |/ w: g8 JText #121 |$ b% ?( p1 @. h6 v! G3 E% u& I
    ID                                       : 28
    5 d4 y0 t  n6 ?Format                                   : PGS* G! Z8 v  R3 v$ u1 I/ J$ u7 V5 s
    Muxing mode                              : zlib/ S' y; S  x* _
    Codec ID                                 : S_HDMV/PGS
    $ X/ S7 C; q# T9 r( L# A& k2 n1 dCodec ID/Info                            : Picture based subtitle format used on BDs/HD-DVDs
    $ Y+ U9 p8 M* L  }( z, SDuration                                 : 1 s 606 ms
    % h# g, f8 T5 _* v) D3 M. n7 UBit rate                                 : 49.2 kb/s
    ( }7 u  G! }5 g4 ]7 u( N; zCount of elements                        : 21 R+ ~- d7 y# p$ J+ r
    Stream size                              : 9.65 KiB (0%)
    5 M: y$ P* z+ D( @. kTitle                                    : Japanese-FORCED-PGS- N9 K1 r6 ?. d: d- H. _' }) ~
    Language                                 : Japanese( G2 a- s) x9 O/ Y0 n1 p: F0 n( D9 w
    Default                                  : No6 ]' w- E4 D% q/ x1 \! u' u% d
    Forced                                   : No
    , @" q1 o: ], X8 {( UMenu5 s: F' X1 c4 R' C2 G! L2 v; c
    00:00:00.000                             : en:Chapter 01' a1 S( F( k6 e# H. @3 O" S& d
    00:04:49.372                             : en:Chapter 02( {5 Q* Z" f7 T, P
    00:13:04.325                             : en:Chapter 030 h9 N0 K' A: Z( S$ K, C- T; P! W6 v
    00:18:55.759                             : en:Chapter 04
    9 V3 V* H0 x2 U( U% m5 F) f00:26:18.410                             : en:Chapter 05+ B2 x1 m, l, k3 c3 F, ?8 ?8 Z
    00:30:26.282                             : en:Chapter 06! p: }- |+ m6 Z1 u
    00:39:51.889                             : en:Chapter 07
    $ f8 ?0 p! A2 H1 R4 k3 K00:54:50.161                             : en:Chapter 08$ @& e0 E2 W! O% P/ K
    01:02:18.651                             : en:Chapter 09* f+ d; J+ k" P, t) L9 g( R' X
    01:09:19.488                             : en:Chapter 10
    / w& G' h! R/ ?. ~: v7 n+ M01:21:53.033                             : en:Chapter 11, I. y$ s& L1 v' o% U3 H3 ^
    01:33:51.417                             : en:Chapter 12
    , X/ o% y& N0 n01:38:48.005                             : en:Chapter 13
    - N" t' r2 ^- T1 K2 K; x* H; V01:45:19.396                             : en:Chapter 146 |: I/ h1 S& n+ G* I* E
    01:53:07.030                             : en:Chapter 156 s3 M& a- \. |' Q
    01:59:38.462                             : en:Chapter 16

    ' [$ @1 a6 ^3 y  H# W# q% r2 T+ J
    游客,查看本帖隐藏内容请回复 | 加入VIP贵宾组可免积分免回复下载 立即了解 | 还不是会员:点击获取邀请码 Invitation Code
    论坛网友
    论坛网友  发表于 2020-3-12 23:28:15
    感谢楼主分享
    - @6 }9 ^- s! O" N
  • TA的每日心情
    开心
    2020-2-28 09:34
  • 签到天数: 3 天

    [LV.2]路过蓝盘

    1

    主题

    33

    帖子

    197

    积分

    Sponsor

    金币
    80 枚
    体力
    53 点
    QQ
    davidqin 发表于 2020-3-15 13:03:47 | 显示全部楼层
    每天都来蓝光论坛看看,我爱蓝光电影。
    , O$ B- |2 Q: y( W! {! l+ pBlu-ray Film Forum is now my home!
    & J3 S# y* s* k* \0 ^+ v

    该用户从未签到

    0

    主题

    20

    帖子

    194

    积分

    Sponsor

    金币
    113 枚
    体力
    40 点
    toxcoo 发表于 2020-3-16 21:09:39 | 显示全部楼层
    每天都来蓝光论坛看看,我爱蓝光电影。
    9 k6 Z# q6 {& o& a& S5 G* xBlu-ray movies Community: my favorite!! V* z8 q( J+ F1 |- O. [
  • TA的每日心情
    难过
    2020-2-28 13:00
  • 签到天数: 3 天

    [LV.2]路过蓝盘

    0

    主题

    28

    帖子

    164

    积分

    Sponsor

    金币
    71 枚
    体力
    41 点
    QQ
    hjl595663961 发表于 2020-3-21 17:53:49 | 显示全部楼层

    0 k) E( u$ D( B楼主发贴辛苦了,I*老*虎*U!

    该用户从未签到

    0

    主题

    41

    帖子

    311

    积分

    Sponsor

    金币
    13 枚
    体力
    210 点
    zuiqingfeng 发表于 2020-3-22 19:07:33 | 显示全部楼层
    感谢楼主分享好资源
  • TA的每日心情
    无聊
    2017-7-3 12:26
  • 签到天数: 87 天

    [LV.6]常住蓝盘

    547

    主题

    1418

    帖子

    1万

    积分

    VIP advanced

    金币
    999 枚
    体力
    3557 点

    公主勋章卓越贡献勋章

    21cn 发表于 2020-3-23 18:07:29 | 显示全部楼层
    这么好的帖子不回对不起自己!
    ( n- ^0 X1 M  r6 m9 cThe decisive Replies sink is I get the sinking feeling great sense of accomplishment!% O  `! m& @, ?6 N2 e- J8 e6 S7 _

    本版积分规则

    小黑屋|Archiver|蓝光电影资源网

    GMT+8, 2020-3-31 07:26

    快速回复 返回顶部 返回列表