BluRayCD Forum

 找回密码
 立即注册【分享大片】

QQ登录

只需一步,快速开始

查看: 7|回复: 0
收起左侧

[科幻恐怖] 自杀小队/X特遣队/自杀突击队 [3D上下格式] Suicide Squad 2016 THEATRICAL 1080p 3D BluRaycd Half-OU x264 DTS-HD MA 7.1 + TrueHD 7.1 Atmos-FGT 19.19GB & 19.34GB

[复制链接]
  • TA的每日心情
    慵懒
    2017-7-4 17:43
  • 签到天数: 613 天

    [LV.9]蓝盘精灵

    5310

    主题

    5662

    帖子

    6万

    积分

    Forum Moderator

    金币
    3396 枚
    体力
    25149 点

    卓越贡献勋章VIP蓝光勋章

    迅雷电影 发表于 前天 02:30 | 显示全部楼层 |阅读模式

    7 s( _' ?4 j5 V2 N# a% K/ ~% b! n7 d' ?0 w2 W2 B7 U4 s4 v* a
    ◎片  名 Suicide Squad / Task Force X / Bravo 14
    : |4 H- R) A5 Y5 W◎译  名 自杀小队/X特遣队/自杀突击队(台)/自杀特攻:超能暴队(港)/犯罪敢死队, r8 @1 @& ]" x) z' [
    ◎年  代 2016
    & Z' e3 O2 r$ r% L◎国  家 美国" m% o$ W8 G2 G& b
    ◎类  别 动作/犯罪/奇幻
    7 P" E) D, G* ^2 b◎语  言 英语/日语/西班牙语' B- i7 t  L7 S8 s% T
    ◎上映日期 2016-08-05(美国)
    & ^6 a2 |( E: ]3 g6 Q◎IMDb评分 6.0/10 from 569,931 users
      ~3 X; ]2 P6 F. w: E1 i◎IMDb链接 https://www.imdb.com/title/tt1386697/2 x% S- P2 S0 _5 I
    ◎豆瓣评分 6.5/10 from 198,127 users. z  B. f2 J! \* r
    ◎豆瓣链接 https://movie.douban.com/subject/3569910/
    8 |% n0 W! U5 Q( ]) u: j◎片  长 2 h 20 min! m/ X) S8 E2 {/ `: E: r/ i) e
    ◎导  演 大卫·阿耶 David Ayer4 X1 e4 f4 r! [9 I6 p7 P
    ◎编  剧 大卫·阿耶 David Ayer& [  ?5 O; z, O9 h6 A/ w. |
           约翰·奥斯特兰德 John Ostrander
    6 F* r" l; `# Q/ \8 s  f" R◎主  演 威尔·史密斯 Will Smith
    ! C0 u' D' J& H       杰瑞德·莱托 Jared Leto
    & O- l" x  z6 r4 v; m/ e       玛格特·罗比 Margot Robbie
    : t& N$ S( H4 I! i. [8 p       乔尔·金纳曼 Joel Kinnaman
    $ l5 \' u4 ?( t- s: J       维奥拉·戴维斯 Viola Davis9 G7 y" z& b4 t
           本·阿弗莱克 Ben Affleck, b: S! y/ V, L2 C
           杰·科特尼 Jai Courtney, t. Q! L0 y2 t/ Q( z
           卡拉·迪瓦伊 Cara Delevingne
    ) {3 {7 l! B+ a; i       杰伊·赫尔南德兹 Jay Hernandez
    # J) h( B& ~' @7 M       斯科特·伊斯特伍德 Scott Eastwood5 e8 }" J6 N6 |6 M, ~3 }' e5 z; G
           阿德沃尔·阿吉纽依-艾格拜吉 Adewale Akinnuoye-Agbaje2 \' j! l' s) c
           埃兹拉·米勒 Ezra Miller
    " d# a5 V5 t3 u2 v) \% U       科曼 Common
    6 k9 C) ?0 T, |, ]4 a       亚当·比奇 Adam Beach
    4 j2 {3 E# N- `/ }' B       吉姆·帕拉克 Jim Parrack
    % [6 o7 b, c  W1 [1 U       伊克·巴里霍尔兹 Ike Barinholtz
    1 W2 R. n% [0 h+ |& _' X       亚历克斯·梅拉兹 Alex Meraz
    : |3 }" ~; Q" ~       凯伦·福原爱 Karen Fukuhara
    / K5 C( r/ I4 H  g4 @       雷蒙德·奥鲁巴维尔 Raymond Olubawale
    ; |  w- F, c/ g" `9 r( `       大卫·哈伯 David Harbour
    2 Q- Z/ _4 s( }  w( ]
    : [% P. _  Z5 V' Q- f  \◎简  介   $ o, y2 F* i2 T& k) O; p

    - }5 V" e7 u) q( S" Q8 u  @) v  阿曼达(维奥拉·戴维斯 Viola Davis 饰)身为政府秘密机构的领导人,面对社会中出现的层出不穷的暴力恐怖袭击事件,决心启用一批被关押在监狱中判了无期徒刑的超级反派们,他们是小丑女(玛歌特·罗比 Margot Robbie 饰)、死亡射手(威尔·史密斯 Will Smith 饰)、回旋镖队长(杰·科特尼 Jai Courtney 饰)、复仇恶魔(杰伊·赫尔南德兹 Jay Hernandez 饰)和杀手鳄(阿德沃尔·阿吉纽依-艾格拜吉 Adewale Akinnuoye-Agbaje 饰)。
    * w0 R6 H" J$ C  B5 `2 A
    ( D6 w8 C. V+ y+ w. \' z  他们所要面对的,是拥有强大法力的魅巫(卡拉·迪瓦伊 Cara Delevingne 饰),她和她的哥哥一起制造了一种非常危险的武器,企图用此控制全人类。除此之外,阿曼达还必须提防为了解救女友小丑女而不惜一切手段的危险人物小丑(杰瑞德·莱托 Jared Leto 饰)。
    # z! u6 U9 o- R1 R, M8 Q. E# q
    : M2 q! c; w& V6 ?* t8 U5 W4 c  A secret government agency recruits some of the most dangerous incarcerated super-villains to form a defensive task force. Their first mission: save the world from the apocalypse. 6 G$ @9 F6 E+ O+ K- T

    1 o8 N7 C* [# m# @6 g5 N4 e
    Video  }2 [& l0 j6 K6 g: c
    ID                                       : 1
    * c6 x8 X+ ^. `, ~5 _( G4 DFormat                                   : AVC$ G( U: P# Z5 ^  [7 M# I
    Format/Info                              : Advanced Video Codec
    # g7 F* i6 V3 O* kFormat profile                           : [email protected]& r% l$ e' O0 R4 n
    Format settings, CABAC                   : Yes- q! m& {8 Y; A) k+ g" G+ M
    Format settings, ReFrames                : 2 frames& g6 ]" [; G0 R" `* Q2 Q
    Codec ID                                 : V_MPEG4/ISO/AVC
    - ^0 N1 Y9 X  N: T5 D) xDuration                                 : 2 h 20 min
    # }+ W7 ]$ j$ H8 o4 M  zNominal bit rate                         : 16.0 Mbps
    5 ~, r; Z, w; uWidth                                    : 1 920 pixels3 ~( c2 m/ Q: ^1 s% G
    Height                                   : 1 080 pixels
    2 Z( R' m* M' A; YDisplay aspect ratio                     : 16:9
    * s, J# G# ?1 |# q3 Z$ CFrame rate mode                          : Constant& C% {. b4 W2 Q9 `& H2 u
    Frame rate                               : 23.976 (24000/1001) fps
    % o6 q8 r. v* `) b; S* J$ KColor space                              : YUV
    + w- w# }+ |5 \. g6 j4 F  w9 UChroma subsampling                       : 4:2:03 C; g8 E$ S- A
    Bit depth                                : 8 bits
    9 ]. w% ^9 N9 k! w6 p. xScan type                                : Progressive
    7 r& O, I( T) a, T& P7 z: A) dBits/(Pixel*Frame)                       : 0.322
    % ^( `- z  b- t& K" x/ vTitle                                    : Suicide.Squad.2016.THEATRICAL.1080p.3D.BluRayCD.Half-OU.x264.DTS-HD.MA.7.1-FGT
    & g! x- h. `, s# N+ f3 I& b; RWriting library                          : x264 core 142
    , i- y! O' G" r; m2 {, L* FEncoding settings                        : cabac=1 / ref=1 / deblock=1:-1:-1 / analyse=0x3:0 / me=hex / subme=5 / psy=0 / mixed_ref=0 / me_range=16 / chroma_me=1 / trellis=0 / 8x8dct=1 / cqm=0 / deadzone=21,11 / fast_pskip=0 / chroma_qp_offset=0 / threads=8 / lookahead_threads=2 / sliced_threads=0 / nr=0 / decimate=1 / interlaced=0 / bluray_compat=0 / constrained_intra=0 / bframes=2 / b_pyramid=0 / b_adapt=1 / b_bias=0 / direct=1 / weightb=0 / open_gop=0 / weightp=0 / keyint=24 / keyint_min=13 / scenecut=40 / intra_refresh=0 / rc=abr / mbtree=0 / bitrate=16000 / ratetol=1.0 / qcomp=0.60 / qpmin=0 / qpmax=69 / qpstep=4 / ip_ratio=1.40 / pb_ratio=1.30 / aq=1:1.008 I  ?/ m% N/ g' u6 G
    Default                                  : Yes& _! m4 d2 ~3 ]' K! j
    Forced                                   : No
    7 X: y, P+ Q" f! u$ }; T7 dColor range                              : Limited
    9 L6 c# ]5 p; t6 Y6 h  x# c- xColor primaries                          : BT.709
    2 L% }$ w3 Q4 p% r! e8 n' nTransfer characteristics                 : BT.709
    8 m0 f3 n' d9 A. TMatrix coefficients                      : BT.7097 O7 D8 ^# K  S/ Q5 i

    ! x3 b, c! `) H. u: J2 D2 P4 n$ \Audio #1
    & p1 _; {1 I' M& N/ j1 WID                                       : 2
    / r# A3 M5 o; Y) C2 ~) BFormat                                   : DTS0 ]7 @- z- F: D+ ~- A$ h9 {! X
    Format/Info                              : Digital Theater Systems2 Z( }- ?& }& \% \, l
    Format profile                           : MA / Core
    2 P6 S% b" j, ^& r# RMode                                     : 16
    / \7 r& [. F2 f( T8 HFormat settings, Endianness              : Big
    6 @- U* u$ I+ l/ LCodec ID                                 : A_DTS
    * s  C, F4 K7 n; \1 g! H8 w- T7 |Duration                                 : 2h 2mn
    ' L9 `% [4 L3 s! T' n/ n3 vBit rate mode                            : Variable / Constant
      n$ o7 s- a& }Bit rate                                 : Unknown / 1 509 Kbps  U* _8 M% {! J0 {" Y" n  u0 j: v5 Q$ P
    Channel(s)                               : 8 channels / 6 channels" `; S+ j3 E* z8 I3 w' s$ i* }9 M4 Y
    Channel positions                        : Front: L C R, Side: L R, Back: L R, LFE / Front: L C R, Side: L R, LFE
    / r2 i% _' ?5 K+ Q7 B2 lSampling rate                            : 48.0 KHz, S1 C: K) Y7 o
    Frame rate                               : 93.750 fps (512 spf)
    ; z& _% f, O- M. Z. ~Bit depth                                : 24 bits
    7 r( @# C$ l7 d8 Z- lCompression mode                         : Lossless / Lossy
    8 k2 K# [1 B1 @. M* FTitle                                    : Suicide.Squad.2016.THEATRICAL.1080p.3D.BluRaycd.Half-OU.x264.DTS-HD.MA.7.1-FGT" A8 D+ _7 [( X* J
    Language                                 : English8 }% e: j  M5 q) m  C
    Default                                  : Yes
    ) X* Y& G2 V, D& G  hForced                                   : No
    4 f5 d; n% e# e- W( O3 V- O
    : \9 M! ?$ u" ^6 g1 o) K, a0 gAudio #2- K" v$ f& F; R# C5 _% Q7 {
    ID                                       : 3( b0 P% Q: P1 y/ }+ Y( \0 @5 v/ Q
    Format                                   : AC-3/ d9 t) R4 I, L2 Y0 V1 Z
    Format/Info                              : Audio Coding 3
    + _; `7 L7 Q) {- N0 I0 c5 qMode extension                           : CM (complete main)* T4 P( l+ _5 m
    Format settings, Endianness              : Big" Y8 }/ P4 E: ?+ w  o/ b
    Codec ID                                 : A_AC3
    ( t9 o4 G3 i' l+ |) F  @: XDuration                                 : 2h 2mn/ H5 N$ z/ e- e+ y
    Bit rate mode                            : Constant! P7 ^+ b7 G9 Z  U9 X  j
    Bit rate                                 : 384 Kbps
    , k4 Q3 O% q3 e. V' m. KChannel(s)                               : 6 channels. [  _+ s6 h& N+ l
    Channel positions                        : Front: L C R, Side: L R, LFE; k2 u  ?6 u6 Z% }6 r& T
    Sampling rate                            : 48.0 KHz4 e8 D4 Y3 o& H0 Q3 l* _
    Frame rate                               : 31.250 fps (1536 spf)& B  F/ b4 v$ c% ~
    Compression mode                         : Lossy
    ! J6 m) a+ I0 `7 {7 a2 YStream size                              : 338 MiB (2%)( j+ u& H6 {* X. j; d% N8 r# E0 [
    Title                                    : Suicide.Squad.2016.THEATRICAL.1080p.3D.BluRaycd.Half-OU.x264.DTS-HD.MA.7.1-FGT- Z$ i: t4 h8 H0 M* \
    Language                                 : English
    5 ]! x# R+ P( d# n+ v& Y9 t* JDefault                                  : No
    : @. _9 t! T9 ~/ `% KForced                                   : No
    $ N( \0 J! M: s$ M$ l, l
    ' K8 p9 r2 d" @9 I4 {' ?2 \Audio #3
    ( L8 C/ v2 y  K, k  `4 y2 UID                                       : 4- s4 ?" B6 K4 c; h: _. u; }
    Format                                   : AC-3
    * C" \" o! W9 L* @# J( `8 sFormat/Info                              : Audio Coding 3
    1 v5 i# i/ k6 Z+ R4 f0 E0 G( bMode extension                           : CM (complete main)
      t. W! v/ z4 X2 j+ j: i( HFormat settings, Endianness              : Big* i: u+ s* w( [7 }4 R
    Codec ID                                 : A_AC3! C7 ~. J: g# Q6 X8 S/ o
    Duration                                 : 2h 2mn
    4 J7 m- W7 z4 |- R9 Q4 x7 |9 @Bit rate mode                            : Constant. W: X5 [  }' P9 `! P% Z* a9 d6 ^
    Bit rate                                 : 448 Kbps3 {6 x, `9 p- I2 l+ n
    Channel(s)                               : 6 channels
    ! W, r+ _2 }: lChannel positions                        : Front: L C R, Side: L R, LFE1 m7 c9 p/ g7 ?+ V
    Sampling rate                            : 48.0 KHz
    / R& w4 x3 @) X1 S/ _& VFrame rate                               : 31.250 fps (1536 spf)/ }* F' u4 v/ [: a4 U
    Compression mode                         : Lossy
    2 I  ]+ l& G4 n" e' Q' j. A4 QStream size                              : 394 MiB (2%)
    ; ]( O1 O" X% H7 I$ ?( nTitle                                    : Suicide.Squad.2016.THEATRICAL.1080p.3D.BluRaycd.Half-OU.x264.DTS-HD.MA.7.1-FGT
    $ [* Q7 b( ]. J9 s6 r1 T! F, f  iLanguage                                 : Czech
    3 U4 u. F9 l7 Z, j; F8 tDefault                                  : No  \2 g1 f$ n1 M$ ?" R) W1 ]4 q
    Forced                                   : No* R3 @8 m' {; m" Q
    : e: n; s. x; B/ g
    Audio #4
    . D" O( `( i8 Z5 C8 R$ v9 oID                                       : 5* ^1 w# e. }1 B) ~1 D$ n# C1 y8 Y
    Format                                   : AC-3
    6 S* w8 ]( z2 q: V7 KFormat/Info                              : Audio Coding 3
    2 A  c  r( t  lMode extension                           : CM (complete main)2 ~4 A* _- j4 |# A
    Format settings, Endianness              : Big
    & T& ^. X/ g- _4 Y4 X( S: R: ACodec ID                                 : A_AC3
    1 J+ |: H% j0 E5 ^Duration                                 : 2h 2mn6 y; k. e0 L0 s5 Q
    Bit rate mode                            : Constant
    ' Z; q9 y% J% d3 z$ eBit rate                                 : 448 Kbps
    ) c. ?; [5 D- A4 m1 }+ kChannel(s)                               : 6 channels3 \& N  o+ U* F5 G" W3 T+ Q
    Channel positions                        : Front: L C R, Side: L R, LFE
    * @/ U5 ]. E: A1 g5 vSampling rate                            : 48.0 KHz/ v1 |0 R9 ^9 o) P. S$ Q. q2 r
    Frame rate                               : 31.250 fps (1536 spf); ~! z' e. O- y5 z. ~
    Compression mode                         : Lossy
    9 s  r( j, r& l7 K" @Stream size                              : 394 MiB (2%)" ~: w- e1 P( J, y6 E' D$ Z
    Title                                    : Suicide.Squad.2016.THEATRICAL.1080p.3D.BluRaycd.Half-OU.x264.DTS-HD.MA.7.1-FGT6 D$ [0 C' E( W7 ?
    Language                                 : Hungarian# {$ ?1 r, H) t: y9 H7 u) f/ c
    Default                                  : No
    1 V/ M! f  T- S9 f& \* [Forced                                   : No
    # b  ]6 t$ Z/ u! q3 w, c' @0 I- `9 a8 L) G) @
    Audio #5
    : u; j8 }! }# R* t; `+ nID                                       : 6$ U$ a6 u9 s/ e4 O: A2 o& R# R5 w
    Format                                   : AC-3
    2 E1 R* I9 _% n+ C, @9 Y- kFormat/Info                              : Audio Coding 3
    & v2 A4 \+ U" E5 J6 n2 {+ ZMode extension                           : CM (complete main)
      w1 o. M/ o0 y% U8 dFormat settings, Endianness              : Big" G( X1 T. a  i7 `6 \$ v. s
    Codec ID                                 : A_AC3
    7 r% D6 w* M% ?4 iDuration                                 : 2h 2mn
    0 _) v! k( M1 Q9 V; W9 WBit rate mode                            : Constant+ f" [& t9 D; L" X+ ~1 |
    Bit rate                                 : 448 Kbps/ u, [- i  v4 X  a; ]
    Channel(s)                               : 6 channels9 j2 O6 f; r1 X) y8 E
    Channel positions                        : Front: L C R, Side: L R, LFE- Y" h+ T' s8 s1 W' G
    Sampling rate                            : 48.0 KHz3 `8 m# h  u0 R) p; j/ A9 c
    Frame rate                               : 31.250 fps (1536 spf)
    + x; C6 \" o) W, C7 [Compression mode                         : Lossy
    1 d& z% j! ~) F4 D1 g9 mStream size                              : 394 MiB (2%)- L6 T) |; w7 z6 }- l' V
    Title                                    : Suicide.Squad.2016.THEATRICAL.1080p.3D.BluRaycd.Half-OU.x264.DTS-HD.MA.7.1-FGT& X7 ^* y4 Y. {' i1 e
    Language                                 : Polish" ^7 g1 M8 k* b  _; V, b7 ?) w
    Default                                  : No
    - X1 O  r2 J7 z/ i/ }7 WForced                                   : No
    - e# w. M5 x! @1 ]" h2 x0 [; P" `$ ~
    Audio #6
    ( j# S2 V/ V! c% r: u, U4 EID                                       : 7
    " I- e" b% _5 C" SFormat                                   : AC-3
    $ j1 ]  w; }% M1 VFormat/Info                              : Audio Coding 3, Z9 F3 G2 ~# W6 {& D0 T6 i6 @
    Mode extension                           : CM (complete main). j- P1 z% G- m) }( Y1 p
    Format settings, Endianness              : Big8 k$ i  c* U7 S# y- s( `5 q
    Codec ID                                 : A_AC3/ p( h$ A) F, t* T5 X/ m
    Duration                                 : 2h 2mn) w8 s$ S& p2 b8 e% j/ h
    Bit rate mode                            : Constant
    + a  b. u8 T# S+ E# _+ MBit rate                                 : 448 Kbps, o- t. q9 H3 s, I
    Channel(s)                               : 6 channels- @; G- t, }! L& B; J
    Channel positions                        : Front: L C R, Side: L R, LFE' [: Z+ a* U* U# `/ U7 W" V' ]
    Sampling rate                            : 48.0 KHz. `- [( g( q' @  |- X7 I6 A
    Frame rate                               : 31.250 fps (1536 spf)( i; C. F& c0 Q; [
    Compression mode                         : Lossy# g) `: ?. {! k! D
    Stream size                              : 394 MiB (2%)
    0 L# \3 Z6 K. I( x, u% w, ?0 HTitle                                    : Suicide.Squad.2016.THEATRICAL.1080p.3D.BluRaycd.Half-OU.x264.DTS-HD.MA.7.1-FGT
    + x; v- [8 U0 r$ w! B0 `0 \Language                                 : Russian- |8 f( `5 e3 l9 H: t3 g& C
    Default                                  : No$ r+ O6 L. T- Y- ~+ ]
    Forced                                   : No8 A4 C. I  d; Z4 r3 p

    " X+ q6 Z2 ~% p3 {( i7 WAudio #7
    1 T7 y( C3 Z# s- R$ f' RID                                       : 8
    ! M2 n. C0 v) W7 z8 f! TFormat                                   : AC-3+ ~8 t! K1 _% J9 i9 F( c
    Format/Info                              : Audio Coding 30 p0 {2 x& a, W' A7 Y# J/ Q% N2 `
    Mode extension                           : CM (complete main)
    7 v5 l7 d. B" }) D& aFormat settings, Endianness              : Big
    3 z) S3 B9 {6 N1 GCodec ID                                 : A_AC3" P/ t: s! w% E4 i, I
    Duration                                 : 2h 2mn% ?7 X2 F: d1 X
    Bit rate mode                            : Constant
    - }3 s4 I2 {% T. G0 Z. S- vBit rate                                 : 448 Kbps
    . T# q  ^1 y$ e( s5 G; }+ tChannel(s)                               : 6 channels6 b7 \3 s2 f. n& j
    Channel positions                        : Front: L C R, Side: L R, LFE
    ' c8 t1 S/ _' t  h: Y+ o* R" x$ Q$ \Sampling rate                            : 48.0 KHz! V; }+ T7 l- H3 E) G' _
    Frame rate                               : 31.250 fps (1536 spf)
    4 k$ y2 Q% [: c# k: E9 }1 RCompression mode                         : Lossy2 J+ |2 p  F5 a1 M0 _
    Stream size                              : 394 MiB (2%)9 T" X% l8 T: t; O( V$ ]
    Title                                    : Suicide.Squad.2016.THEATRICAL.1080p.3D.BluRaycd.Half-OU.x264.DTS-HD.MA.7.1-FGT/ L4 R* F0 k% s
    Language                                 : Turkish
    0 M% }2 ~7 c7 p) }Default                                  : No. C8 y. |, H  a/ O* _
    Forced                                   : No, N$ s2 r1 p  p/ O! E, ~

    . J! D: f* g7 E. P! q) }Text #1
      s# [/ z' x- B0 n$ ^ID                                       : 9
    ! F6 Q- ?, Z. IFormat                                   : PGS2 l" D* U# _- q! }0 F0 \
    Muxing mode                              : zlib! t* f+ y+ m. U: H$ Y% F) h( o
    Codec ID                                 : S_HDMV/PGS
    & T4 `% S; K0 ?$ A/ @2 i- GCodec ID/Info                            : Picture based subtitle format used on BDs/HD-DVDs8 G3 _0 |8 A; [2 O" R1 G
    Title                                    : English-PGS, m0 O( t+ _; ~2 y( }  ?( j
    Language                                 : English& x+ a8 I8 L! s" K. }
    Default                                  : No
    ! m5 M* ~! B& N3 i$ t. [Forced                                   : No
    6 r; W+ L  E# r5 j6 ~- c) A% d7 M  S9 @* w+ h
    Text #25 u8 S& m4 S& G7 c
    ID                                       : 10
    6 U3 S% m1 `- j  |8 Y) |* SFormat                                   : PGS' ~/ O( a& n& x* a2 s
    Muxing mode                              : zlib
    1 x# }; s" }0 ]Codec ID                                 : S_HDMV/PGS% Q7 j+ Q8 Q# x/ o- _6 o" u5 e1 A% @
    Codec ID/Info                            : Picture based subtitle format used on BDs/HD-DVDs
    , r+ v, v6 q/ ^1 jTitle                                    : Korean-PGS( C) W0 U0 d$ G) y8 }, M
    Language                                 : Korean! w: _4 y" L! K  S* M
    Default                                  : No1 d# z. D& M, \/ ^3 y
    Forced                                   : No* h- `2 r+ s  W8 y  a0 Q- B

    4 B+ {" J6 a  ^% ]1 Q8 ?Text #3* w6 V) @5 s; S) z/ P+ A2 ~
    ID                                       : 11: ~3 k& n% W2 O# ?
    Format                                   : PGS7 H" V# t) m7 N# \  m
    Muxing mode                              : zlib1 Q2 m1 @% B* q. z5 }! o3 x
    Codec ID                                 : S_HDMV/PGS
    4 m& c8 M! U! h6 v- b# q' RCodec ID/Info                            : Picture based subtitle format used on BDs/HD-DVDs
    8 Y' A2 U6 f9 B/ N0 W9 qTitle                                    : Arabic-PGS
    * Y8 q% u' H  Y9 l2 ALanguage                                 : Arabic
    $ g8 q9 g' O0 d, M! VDefault                                  : No
    % N% ]. U; y3 Q; L4 Q; ?" [: gForced                                   : No  ?. |- t' S! f; a8 N( O6 J0 S9 K

    , U! b1 I! J0 P" H- G' o" BText #4+ l! x" I4 Y5 B; G8 b  z3 x
    ID                                       : 12
    - B& A6 [7 l/ R$ h# B! z! ~1 UFormat                                   : PGS
    3 {/ D  V; S: r, I+ SMuxing mode                              : zlib
    0 t1 ?4 j5 J' R1 n6 K0 H4 fCodec ID                                 : S_HDMV/PGS
    : _% [8 _* z" L$ E. L2 vCodec ID/Info                            : Picture based subtitle format used on BDs/HD-DVDs4 e" ^, a9 W% F2 }& {1 M
    Title                                    : Croatian-PGS$ p; _3 R  d9 U, m
    Language                                 : Croatian: }2 y) [1 I' c6 m& j/ z
    Default                                  : No5 I6 c* Z; D3 h; b8 k; z
    Forced                                   : No0 d! H- }5 f$ d: N) k( F8 R
    ' V8 b# n9 ~. c/ c6 B5 G
    Text #5
    & W; S7 o' f7 ]ID                                       : 13
    : o( P6 E2 I3 Q& I) |9 g# C# ~Format                                   : PGS
    ! K; p# l/ y7 ?3 S4 c* O' ]: c8 e7 B0 LMuxing mode                              : zlib: L$ f2 N8 q* c
    Codec ID                                 : S_HDMV/PGS
    7 O1 ]* y( B2 N* q6 \5 FCodec ID/Info                            : Picture based subtitle format used on BDs/HD-DVDs
    0 Y: e& O$ o5 n; h# X% BTitle                                    : Czech-PGS
    2 \" u6 x6 F! p2 F2 zLanguage                                 : Czech: k# v; r+ d3 l
    Default                                  : No
    * U' ?& |8 j* @4 ~3 u8 O" `Forced                                   : No
    ; F6 e( B4 t* n, C; G4 F
    , o2 d6 U& G; b. J/ {Text #6
      J; [% O- S2 l9 HID                                       : 14# {1 T0 [  ?+ R0 P6 ]
    Format                                   : PGS
    ' U/ k! ?" L; _1 m0 ]Muxing mode                              : zlib
    ( i! m3 V- b" @) x% I. X2 vCodec ID                                 : S_HDMV/PGS
    # ~$ i) [5 S$ S3 n& P! Q- fCodec ID/Info                            : Picture based subtitle format used on BDs/HD-DVDs# w% l; c# H- ^. }
    Title                                    : Estonian-PGS
    : c! L7 G# K! g- O2 B# ]0 t5 r* cLanguage                                 : Estonian" V3 w/ k* H, p7 I) z
    Default                                  : No
    ; K/ R) l2 D6 G/ oForced                                   : No/ |* v9 s  r% j3 M0 @1 B1 {2 p

    5 B  m' X5 C) g* V, m" S0 q5 SText #7
    ; q0 y  Z5 G. M1 XID                                       : 154 N- t/ `4 _  W5 i  j9 L
    Format                                   : PGS  E" f5 }8 q) q
    Muxing mode                              : zlib+ o( J" P/ M7 x4 W( r; \
    Codec ID                                 : S_HDMV/PGS6 x6 g; \( A: y
    Codec ID/Info                            : Picture based subtitle format used on BDs/HD-DVDs) A$ s( F( @1 s$ @" h3 y) d3 d
    Title                                    : Hebrew-PGS
    ; t$ c$ {5 |% W$ x* s$ }Language                                 : Hebrew( o2 j# A" G& M. ~! p7 X/ [7 c. c
    Default                                  : No
    6 H$ Z- B8 ~+ c9 o0 b5 D9 ^Forced                                   : No3 y' K* ~$ ^4 R5 z' C$ p
    : h2 b2 q" R% i5 e+ ]
    Text #8
    ! s+ n5 S  W. c8 J% \ID                                       : 16( K; A5 X! \$ f% O2 r1 y& K, B8 X2 ?
    Format                                   : PGS/ e, z$ H0 j* s9 k! _& w
    Muxing mode                              : zlib
    / F" V6 J, I! ]! l8 tCodec ID                                 : S_HDMV/PGS
    % K; Q- L: e. N% ]Codec ID/Info                            : Picture based subtitle format used on BDs/HD-DVDs
    2 t' Q/ Q' e; ?1 J9 mTitle                                    : Hungarian-PGS! j7 o* O4 Y, m5 y$ F& F9 h- O: h
    Language                                 : Hungarian2 i; d1 r. \. P
    Default                                  : No/ x% F% v5 p" C* G
    Forced                                   : No0 i3 Q- G# M& |6 S

    ) {' a3 s& P1 C" OText #93 q' j/ f; k: k3 A$ p
    ID                                       : 17
    * `( z+ F& s5 @% z) F5 N" ZFormat                                   : PGS3 B9 F" M1 Q" w9 ^7 o* y8 @6 n9 T! @
    Muxing mode                              : zlib8 N" X) Z0 ~; ]7 |* t' C  Z8 W# s
    Codec ID                                 : S_HDMV/PGS
    3 p* S- N" @/ {; l7 E+ r% yCodec ID/Info                            : Picture based subtitle format used on BDs/HD-DVDs
    + O) W+ e4 |& l. p# xTitle                                    : Latvian-PGS
    2 r4 y  Q8 t9 B: w) SLanguage                                 : Latvian
    , R" A: P9 T, j  l: X7 i6 G  TDefault                                  : No1 g: F. Z. B' j: Z  X' ?$ T
    Forced                                   : No
    ) d; P5 D' A; U
    / Q/ c5 }/ R! m& _8 ~/ N; c/ c7 @- HText #107 ~( ~: n! p1 o* c( c: H
    ID                                       : 189 h' v: Q- C7 ^/ ?# y& {
    Format                                   : PGS
    5 }! O+ i. @; yMuxing mode                              : zlib
    3 `& `# e4 E$ ^$ c7 ]0 ?, WCodec ID                                 : S_HDMV/PGS+ [4 Q9 _6 X6 V+ a7 B
    Codec ID/Info                            : Picture based subtitle format used on BDs/HD-DVDs
    . _, ]" [& D; l: z: WTitle                                    : Lithuanian-PGS
    . g) y4 N: K5 }. \# LLanguage                                 : Lithuanian+ k4 _1 B: ~+ m
    Default                                  : No* K. `) N8 ~+ ]% C9 O; u
    Forced                                   : No) T" Q0 L) ~4 U7 T/ m

    3 i& i0 _! Y7 f& t9 FText #11
    : Z$ z  _5 M: b3 z/ _$ W0 oID                                       : 190 C3 k( \# R7 l2 a* v( t
    Format                                   : PGS
    9 j& z$ q8 N9 O! A7 h% lMuxing mode                              : zlib1 g3 v, ~( y) E6 I0 N
    Codec ID                                 : S_HDMV/PGS
    " e# e" D- K, D8 G7 B6 M+ h0 wCodec ID/Info                            : Picture based subtitle format used on BDs/HD-DVDs# K3 |3 g- y6 }- }3 M: s: P3 L
    Title                                    : Polish-PGS( L+ h  E/ C- f+ I" L0 q1 t  f# {
    Language                                 : Polish* ?3 X+ W, j$ B
    Default                                  : No# a, O; Z; B  }/ h: p
    Forced                                   : No  {; t9 l6 p1 K1 [" n
    ! V  J6 R$ W* S+ P- E! ?5 [5 |) `
    Text #12
    ' t1 }6 c% F! @1 }5 AID                                       : 20$ Y, w5 Q% {. _0 w8 U% W
    Format                                   : PGS7 e% [! B: C/ C( U8 D
    Muxing mode                              : zlib0 m& d4 \4 Y6 `( k; h9 K, c, R2 T/ E
    Codec ID                                 : S_HDMV/PGS
    6 H1 t1 @2 b( d, s% }Codec ID/Info                            : Picture based subtitle format used on BDs/HD-DVDs1 u  S; I4 S! E! C9 u5 ]$ G- }
    Title                                    : Portuguese-PGS
    6 U% C2 ^0 O8 r: e9 yLanguage                                 : Portuguese
    ( O% D) n+ Z  B# y5 m# }; Z5 wDefault                                  : No
    4 M4 r1 L1 \! @2 O: k- K6 H, w8 B0 pForced                                   : No
    % j" o2 G2 \5 ]" b0 R2 H2 n7 H1 M: ^+ D( }8 ~  l
    Text #13
    - G4 n* c# }2 MID                                       : 21' R9 l' \6 o2 {7 T& N
    Format                                   : PGS1 i1 S+ r+ ~7 J5 A+ U& m
    Muxing mode                              : zlib
    ) V, o0 y5 p) {. LCodec ID                                 : S_HDMV/PGS9 F. |) B& G) {7 g. [* T
    Codec ID/Info                            : Picture based subtitle format used on BDs/HD-DVDs" [3 R0 A+ u; ~- E
    Title                                    : Romanian-PGS
    - `/ k6 h' u) L  n8 `Language                                 : Romanian- }- h0 [2 {2 p3 M1 _- z/ f$ ~
    Default                                  : No  p, Y* S: t1 P, k3 S7 r8 c+ A) b
    Forced                                   : No8 d3 w# f$ Z2 a$ l' Z) c
    - ^: i3 n2 V6 }# P5 R6 J
    Text #14
    ) }. }8 J1 ?8 f% y( QID                                       : 22) D& @2 }, R0 Z. w$ `5 [9 H
    Format                                   : PGS7 C3 B3 \( B7 s  Q! n" m
    Muxing mode                              : zlib
      o2 O1 }5 p/ ?Codec ID                                 : S_HDMV/PGS9 M' y6 S( n  O- M* U0 S( t
    Codec ID/Info                            : Picture based subtitle format used on BDs/HD-DVDs
    # M3 f  g8 o# Z& a% JTitle                                    : Russian-PGS
    3 s3 f8 g0 b0 T- a/ e7 r0 _Language                                 : Russian8 O: y0 P% ]5 o2 @/ O
    Default                                  : No: _0 D) |8 s7 z! I" C' L
    Forced                                   : No
    7 b+ v% B" O- P0 e# j- A3 S! D' [! K( z3 g
    Text #15+ n- P, a4 Y# |- Q1 I* U
    ID                                       : 23
    . e3 V5 x% }/ w8 E- }( M4 \/ {1 [2 TFormat                                   : PGS
    7 L; }! `% `* W3 R( QMuxing mode                              : zlib" y+ H1 U! D+ s  {+ b* S
    Codec ID                                 : S_HDMV/PGS
    # c/ T; F% k1 F+ ECodec ID/Info                            : Picture based subtitle format used on BDs/HD-DVDs4 O& Y9 M. O8 I& N+ b" r
    Title                                    : Slovenian-PGS
    7 \% _/ @! }  H, c! e8 MLanguage                                 : Slovenian$ l1 |" w  L2 l7 l! f3 i
    Default                                  : No, d5 @& e* a% t3 M
    Forced                                   : No
    8 o9 f6 e+ [/ }5 t+ Y) D4 G/ P- X& M$ s( O7 u4 u: E- p0 B
    Text #169 F: f' e; w4 W! p+ R8 _7 s# L
    ID                                       : 24, t& ]9 w( G1 d: g7 z
    Format                                   : PGS
    0 b9 U& L( Y# `. {! _% uMuxing mode                              : zlib  }( O' Y+ F* o  ~+ r& _9 {
    Codec ID                                 : S_HDMV/PGS% B) A- b: {  d* ]9 F# }
    Codec ID/Info                            : Picture based subtitle format used on BDs/HD-DVDs) C  Z4 g4 ]' k& F8 o% s
    Title                                    : Turkish-PGS; `4 |1 ?( \! h6 k
    Language                                 : Turkish
    + B) i: Y( h2 F! JDefault                                  : No" E" r  ^# k+ t& J4 p8 k, Z
    Forced                                   : No
    8 F8 ?* q" p1 @! r" e% f& R
    ; H- f. |! t$ i3 j- j( O' yText #17% L: o: R. a' q# U8 e6 G8 A" l
    ID                                       : 252 D5 c+ J+ W6 T2 _: g, r/ p
    Format                                   : PGS
    1 N+ G% w! b+ k) f) m: V+ bMuxing mode                              : zlib
    5 T' G3 f% Z0 [Codec ID                                 : S_HDMV/PGS" M2 ^+ K' {  S* @" Z$ |* u
    Codec ID/Info                            : Picture based subtitle format used on BDs/HD-DVDs3 ~7 i7 F1 `# [6 ?
    Title                                    : Czech-FORCED-PGS
    : O+ F# S5 g- h3 z/ nLanguage                                 : Czech
    $ B- @; X# c: y- f! bDefault                                  : No4 |( j% F4 L$ u* Z7 l% S
    Forced                                   : No
    : I1 E" T6 t; V7 a0 y. r. j
    * K+ i4 K# @( \; S$ f! J1 T7 vText #18
    0 Q/ P0 ^  Z$ J2 O: sID                                       : 26
    1 Q- m; x3 Y* L, D7 ?& SFormat                                   : PGS
    $ a9 t" C6 A( O& z4 Y4 B. f5 v1 x3 oMuxing mode                              : zlib
    - @- @0 H$ C5 \( ~: YCodec ID                                 : S_HDMV/PGS7 M% A; u4 y$ ~( O
    Codec ID/Info                            : Picture based subtitle format used on BDs/HD-DVDs
    & ]' f: v1 e, o4 g. }8 T9 H4 G& VTitle                                    : Hungarian-FORCED-PGS
    / @/ ^" K7 A7 m4 c9 WLanguage                                 : Hungarian8 r" W( g) M- m8 N8 i9 |
    Default                                  : No
    $ }" y0 I  d! \* A  xForced                                   : No
    4 U; l( g3 p. s. y8 U; i+ u' q1 p
    9 K" v( l/ n3 j( aText #19
    , {( N: {- ^$ _: L# ZID                                       : 27" d; c/ m/ B+ m. R' C+ t; ^* v
    Format                                   : PGS1 N/ Z# u7 O& h* g8 m
    Muxing mode                              : zlib
    : Z. c; z/ k- D: ?; f) T' bCodec ID                                 : S_HDMV/PGS
    3 d0 q7 W, C+ `  R9 b, bCodec ID/Info                            : Picture based subtitle format used on BDs/HD-DVDs
    1 Z" _# U! I/ p; V8 mTitle                                    : Polish-FORCED-PGS+ R* T  \& `7 c( C  S/ T3 y
    Language                                 : Polish
    , Y- f2 m1 R. f/ O* L( [Default                                  : No
    . }3 h) i* {/ _3 l. \0 B1 B2 _0 gForced                                   : No/ W6 P5 L/ L" d2 i

    3 C1 B2 ~7 C) b) L2 W, U9 IText #20( L6 F% P6 B/ H6 b! Q( ^
    ID                                       : 28
    - Y, @3 x) H# D6 AFormat                                   : PGS
    " u) {- L- _9 R: F: uMuxing mode                              : zlib3 c9 L3 h  j- O( E
    Codec ID                                 : S_HDMV/PGS( H$ A1 h# F: G! ]& Q/ M9 K
    Codec ID/Info                            : Picture based subtitle format used on BDs/HD-DVDs
    : w1 ]" Z. ]1 |, Q% k+ [$ _Title                                    : Russian-FORCED-PGS
    ) u! [8 y, k7 Z+ MLanguage                                 : Russian
    ' [8 q; u" W* \7 Z5 ?Default                                  : No4 T% @0 y5 \' ~% k) |3 I5 N
    Forced                                   : No; w: V' T5 Y+ y( x3 j4 L; N& n

    5 E6 o- G0 m" M+ p+ a% G& ~Text #21# Z% j9 P4 @  C1 V
    ID                                       : 29
    & @- g" ~. [5 X( u4 z  uFormat                                   : PGS
      O0 N& U7 X) _9 i% ^Muxing mode                              : zlib" G8 i+ d/ z( u9 C+ w% T7 C
    Codec ID                                 : S_HDMV/PGS
      }3 H1 T4 P) _( u, mCodec ID/Info                            : Picture based subtitle format used on BDs/HD-DVDs
    , w; g4 a/ w/ q/ b- gTitle                                    : Turkish-FORCED-PGS% [" i* E( R2 L3 C; q
    Language                                 : Turkish
    % J- o) G5 ~! i/ K' R* W( eDefault                                  : No8 d7 _/ v# v1 x* {
    Forced                                   : No
    7 h4 T3 {) O, @; @' \% C& z2 m1 X# X2 t* R" G7 T) Z
    Menu+ d0 J$ e, F$ y& F' R
    00:00:00.000                             : en01)00:00:00:000
    % e3 ?+ r  m6 D( L4 e' d00:09:07.505                             : en02)00:09:07:505
    0 S* @& k. H6 ^2 T0 d& F00:19:03.725                             : en03)00:19:03:725
    3 g" E  B8 Z- F7 o00:29:27.140                             : en04)00:29:27:140) z. {/ \; ~; Q" U+ g
    00:39:17.313                             : en05)00:39:17:313
    4 a$ D7 m9 O& Z  W00:50:21.226                             : en06)00:50:21:226/ R+ h; k1 c+ m  X
    01:00:10.106                             : en07)01:00:10:106/ {# z9 U! \6 I. _$ q4 R8 V& G; P3 F
    01:11:46.927                             : en001:11:46:927
    & \2 E. Z# k, u4 }$ F4 D& ]: E4 [01:22:46.127                             : en09)01:22:46:127  \' ~; k0 Y3 J2 M
    01:32:01.098                             : en10)01:32:01:0987 `2 I; Q) T7 }" p7 |
    01:39:21.830                             : en11)01:39:21:830
    % Y( Y- K8 l3 g* g3 `* Z! y* j01:52:27.991                             : en12)01:52:27:991+ l& M1 L3 ]# Y
    02:02:53.240                             : en13)02:02:53:240
    0 j3 s3 A- Y' O
    ! l5 _+ v3 L( o0 O( H& D0 d( zNotes : $ x* G) [" \+ r" F6 R
    Converted the TrueHD 7.1 track to DTS HD-MA 7.1
    Video3 o( L/ F, \, {4 L$ W9 B
    ID                                       : 1
    + c7 b, f$ p4 l, t) k8 LFormat                                   : AVC
    ; w7 T! F/ m8 Z* H% P7 T5 NFormat/Info                              : Advanced Video Codec1 `! B9 P! j, B& {% N  ?% H
    Format profile                           : [email protected]
    " i8 ?/ E" O- |+ cFormat settings, CABAC                   : Yes
    0 t; v/ f3 ]8 o: G2 z  `. u& iFormat settings, ReFrames                : 2 frames: x% g& D* w$ Y. o% D( W4 a7 t
    Codec ID                                 : V_MPEG4/ISO/AVC) Y" S/ e* @4 @5 k, T% {
    Duration                                 : 2h 2mn; o' U5 h0 k/ O7 e4 G
    Nominal bit rate                         : 16.0 Mbps
      V0 }2 ?  A- a7 r, ?Width                                    : 1 920 pixels
    , A% B  Z. O% v- K2 [( e+ PHeight                                   : 1 080 pixels
    ! Z: o, S1 k  W) J; K+ X: ?, BDisplay aspect ratio                     : 16:99 M" V* M) O; }) {3 R6 S
    Frame rate mode                          : Constant
    # ~6 z9 I3 S1 ?2 W( oFrame rate                               : 23.976 (24000/1001) fps
    $ V3 I! g) F" e, @+ \% JColor space                              : YUV
    5 p4 N0 Q/ }0 YChroma subsampling                       : 4:2:0
    1 H5 @& X% p( I( Z- a% `  M% J( `Bit depth                                : 8 bits: R4 ?+ h6 c7 x( \3 n0 G
    Scan type                                : Progressive
    & `1 o2 j, c% @& t7 gBits/(Pixel*Frame)                       : 0.322! z1 C% q+ U. Y
    Title                                    : Suicide.Squad.2016.THEATRICAL.1080p.3D.BluRaycd.Half-OU.x264.TrueHD.7.1.Atmos-FGT
    8 D2 o1 d7 Y7 H; ?% uWriting library                          : x264 core 142
    , w4 W: x/ z- V. gEncoding settings                        : cabac=1 / ref=1 / deblock=1:-1:-1 / analyse=0x3:0 / me=hex / subme=5 / psy=0 / mixed_ref=0 / me_range=16 / chroma_me=1 / trellis=0 / 8x8dct=1 / cqm=0 / deadzone=21,11 / fast_pskip=0 / chroma_qp_offset=0 / threads=8 / lookahead_threads=2 / sliced_threads=0 / nr=0 / decimate=1 / interlaced=0 / bluray_compat=0 / constrained_intra=0 / bframes=2 / b_pyramid=0 / b_adapt=1 / b_bias=0 / direct=1 / weightb=0 / open_gop=0 / weightp=0 / keyint=24 / keyint_min=13 / scenecut=40 / intra_refresh=0 / rc=abr / mbtree=0 / bitrate=16000 / ratetol=1.0 / qcomp=0.60 / qpmin=0 / qpmax=69 / qpstep=4 / ip_ratio=1.40 / pb_ratio=1.30 / aq=1:1.00
    ; v) b3 p# M/ O+ v9 M* d9 RDefault                                  : Yes
    ; S3 g& c9 q+ yForced                                   : No& d5 J  h: a4 O+ U: v
    Color range                              : Limited
    ) z5 z- E; T+ _) v* IColor primaries                          : BT.709
    . b) W+ ?8 Z  v0 l' bTransfer characteristics                 : BT.709
    2 v; C3 M+ B, C0 vMatrix coefficients                      : BT.709
    . ]9 r3 ?4 [- T0 N1 e7 F4 z9 r5 T
    Audio #1+ y2 [$ _, d  d7 O1 c
    ID                                       : 2
    * Q/ X' E* B  A/ \7 G+ F: QFormat                                   : Atmos / TrueHD
    . t* q6 l- h- w- K5 CCodec ID                                 : A_TRUEHD
    % T  U0 H: W* o' m  XBit rate mode                            : Variable
    ) e6 w8 ?* S6 K) i5 _9 iMaximum bit rate                         : 5 847 Kbps
    - S) P/ O( g, k! q4 ^Channel(s)                               : Object Based / 8 channels7 o; X. N/ O- J: V# ^
    Channel positions                        : Object Based / Front: L C R, Side: L R, Back: L R, LFE: Q! P+ [. O- d6 z3 t5 a. M
    Sampling rate                            :  / 48.0 KHz
    " |% Y8 T0 d  B, ~: [- a9 |, ~Frame rate                               : 1 200.000 fps (40 spf)
      Q' E$ j0 h5 g2 R# iCompression mode                         : Lossless
    6 b) w3 T' H! p! STitle                                    : Suicide.Squad.2016.THEATRICAL.1080p.3D.BluRaycd.Half-OU.x264.TrueHD.7.1.Atmos-FGT% p! X( N  P+ V* y5 e; S7 I2 X
    Language                                 : English
    9 A" f- N; c* C& W, ~; Q* I  X" [Default                                  : Yes
    * C1 a6 A) F, b0 A) g5 b' e" X7 U" EForced                                   : No
    : u: B8 h" Z4 J- V4 p$ r) Z! N! N* @# i# j- ]: i
    Audio #20 v" G8 s/ B" J, s
    ID                                       : 3
    0 r! n2 H0 Q& k/ z5 XFormat                                   : AC-3
    # e; g" Q7 L7 BFormat/Info                              : Audio Coding 38 s$ X" d) i" k. L
    Mode extension                           : CM (complete main)# s3 g& `; D! k  g" H
    Format settings, Endianness              : Big1 S% W8 J/ V7 E: G2 o, E: @
    Codec ID                                 : A_AC3' }- j3 {0 x& R0 x2 S2 t
    Duration                                 : 2h 2mn9 q4 g& Z$ A/ H4 j0 M$ S/ m! y
    Bit rate mode                            : Constant# T% u  w" B9 N" m% C* \
    Bit rate                                 : 384 Kbps: g6 n, P5 x$ O( o
    Channel(s)                               : 6 channels' G$ @% r: H4 Q+ Q; w8 N6 W' |" N5 Z
    Channel positions                        : Front: L C R, Side: L R, LFE
    . |4 e5 t& M! pSampling rate                            : 48.0 KHz
    ( `7 }/ `& J5 ]8 {6 s( OFrame rate                               : 31.250 fps (1536 spf)$ m/ y$ d9 D0 @) q$ O! b
    Compression mode                         : Lossy
      ~& w3 q2 g/ |1 C3 ^: P; R7 pStream size                              : 338 MiB (2%)5 H+ E$ O: y8 q5 p) U' \
    Title                                    : Suicide.Squad.2016.THEATRICAL.1080p.3D.BluRaycd.Half-OU.x264.TrueHD.7.1.Atmos-FGT- b# `7 Q5 M  O9 a  L& e  [0 T# _4 q
    Language                                 : English; y0 O1 u/ h% j, }) g3 J0 p
    Default                                  : No
    . ]; v* {. c2 C% v, [Forced                                   : No) h! x2 y( ]) A% Z3 d
    / p8 [9 {$ e4 l" V& O5 H* l$ c
    Audio #32 e9 M) i- S6 U( c% v$ k
    ID                                       : 4" j, S" R  f7 l+ n0 f# A
    Format                                   : AC-3
    , E6 F7 e+ i3 ^6 u# ~# G( `Format/Info                              : Audio Coding 3+ Z) i& o; s) Z5 R: {
    Mode extension                           : CM (complete main)
    # T4 J/ e; x+ |# w9 X% B2 _Format settings, Endianness              : Big
    9 _# V, ^  h/ D% f, e0 gCodec ID                                 : A_AC35 ?& ?# x* m( [6 l, ~, l$ |
    Duration                                 : 2h 2mn
    ' U0 N- G% c; j/ dBit rate mode                            : Constant
      S7 U' ]# j! j  p# C2 O* c; V0 U$ L( wBit rate                                 : 448 Kbps
    " ~2 m, H8 m: DChannel(s)                               : 6 channels
    & l( J+ ^3 ?4 r% k. }* h( }Channel positions                        : Front: L C R, Side: L R, LFE
    * r9 A$ R, f' A0 N7 PSampling rate                            : 48.0 KHz+ d, |5 u! l& h" G- q$ y3 }
    Frame rate                               : 31.250 fps (1536 spf)
    9 n7 U! D& h8 E8 m7 ^Compression mode                         : Lossy% |- ?0 x$ j* s6 R, O( W
    Stream size                              : 394 MiB (2%)
    . F. ~1 W2 t/ H  K, a2 r8 R4 bTitle                                    : Suicide.Squad.2016.THEATRICAL.1080p.3D.BluRaycd.Half-OU.x264.TrueHD.7.1.Atmos-FGT
    ' l( c( E+ F8 N& d& j: n+ dLanguage                                 : Czech1 w! \6 _& S0 J5 c
    Default                                  : No* I5 E" H6 R: g+ j
    Forced                                   : No) ~. _7 R2 l  o# K* ]0 F8 p

    9 C4 L4 Q( C, I$ j0 hAudio #42 q9 J- W2 m5 W- k# X; b
    ID                                       : 54 r, a3 h# \/ v; w% b* [
    Format                                   : AC-3* V3 ]: [/ K  Z, b
    Format/Info                              : Audio Coding 3# I- K; {6 \. V; z  ^5 R& O8 G6 ]" y
    Mode extension                           : CM (complete main)
    2 q$ N7 R# w& I# XFormat settings, Endianness              : Big0 i6 I. @/ c* K$ j
    Codec ID                                 : A_AC3
    & c/ ]& Z7 F( q1 VDuration                                 : 2h 2mn; I% k( {6 V/ ~4 G) c
    Bit rate mode                            : Constant
    1 e/ `! w1 V: K* p. L" n" rBit rate                                 : 448 Kbps' M5 z; n# p2 T1 ?
    Channel(s)                               : 6 channels6 ^) ^( T! h) m/ F
    Channel positions                        : Front: L C R, Side: L R, LFE5 B* j' v; m. I) t  m
    Sampling rate                            : 48.0 KHz
    4 S( p/ _  o8 Y( BFrame rate                               : 31.250 fps (1536 spf)
    8 I6 t6 n. l+ T  `2 a; _Compression mode                         : Lossy2 r  l# Q$ a* n0 b: I
    Stream size                              : 394 MiB (2%)
    " x; j0 n8 c0 c0 d6 f0 Z7 jTitle                                    : Suicide.Squad.2016.THEATRICAL.1080p.3D.BluRaycd.Half-OU.x264.TrueHD.7.1.Atmos-FGT
    7 J* v1 k- o! k+ G8 g8 dLanguage                                 : Hungarian5 h& ]8 n* V2 v6 Z( z& C' I0 m; L" a
    Default                                  : No
    ( l/ P& }* |1 uForced                                   : No
    1 B. H' V+ {: G: U$ O2 E% M( A3 r% x/ V
    Audio #5
    , b$ v% ]% Z; XID                                       : 6
    7 r3 z; C! M2 ]# f5 CFormat                                   : AC-36 T5 G7 X4 h  y# B# E
    Format/Info                              : Audio Coding 3
    , ^- |. [5 o2 K' q* F/ }. C. x; RMode extension                           : CM (complete main)
    ' ]7 y3 L/ o& P. j  a  K, iFormat settings, Endianness              : Big4 E8 _/ k. Y' z" Z/ L( D
    Codec ID                                 : A_AC3
    * X: E3 ]2 x4 n) m9 h# BDuration                                 : 2h 2mn6 V7 t/ W6 u, M1 M
    Bit rate mode                            : Constant; h# n  f: q8 p- X) A4 y
    Bit rate                                 : 448 Kbps
    6 y1 ]& t0 r7 ]Channel(s)                               : 6 channels2 A0 V/ \% n) _1 l8 x  h/ M
    Channel positions                        : Front: L C R, Side: L R, LFE: I6 o6 r0 a' ~4 ]# c
    Sampling rate                            : 48.0 KHz; ~; C4 e# |5 P7 Q4 x) y
    Frame rate                               : 31.250 fps (1536 spf)7 b$ ?' _" l* ?- l% K# c& I
    Compression mode                         : Lossy# @4 t; K5 L; c% I' @3 s9 Z  n
    Stream size                              : 394 MiB (2%)
    % t7 s* P/ H6 K8 V1 H1 NTitle                                    : Suicide.Squad.2016.THEATRICAL.1080p.3D.BluRaycd.Half-OU.x264.TrueHD.7.1.Atmos-FGT
    * M0 Q9 M; @3 i( D/ G& RLanguage                                 : Polish
    ) }* ?3 K" Z: Q9 M& z+ S. zDefault                                  : No) m% A; r4 L' J' r8 ]
    Forced                                   : No1 {1 r; \3 d- s& y8 ~$ J! z. p

    # u3 v5 t* l7 x5 `3 e; fAudio #6- t  Y0 O" H1 Y# k9 O  j- {* `3 m
    ID                                       : 7
    - L8 ^$ p" A& d' cFormat                                   : AC-37 _7 M2 O1 n& }! P/ l7 F! T
    Format/Info                              : Audio Coding 3! a8 G8 q0 J; {& Y
    Mode extension                           : CM (complete main)
    + U, ?) {  K# ^" K8 G. ~, @Format settings, Endianness              : Big' r# O6 P9 M* o4 ?+ _
    Codec ID                                 : A_AC3
    2 [& A% j  N3 s; Q0 V" rDuration                                 : 2h 2mn9 T. I; x; V7 x7 w
    Bit rate mode                            : Constant
    ; ?' h" h2 |, {# s; V3 y' w6 RBit rate                                 : 448 Kbps
    ! I: w. p% A$ ]: ~1 d8 jChannel(s)                               : 6 channels
    " h5 n# G" {' X6 H$ Y3 N8 DChannel positions                        : Front: L C R, Side: L R, LFE5 a5 M1 Y/ E9 h! h5 |* e2 q) ^
    Sampling rate                            : 48.0 KHz! R$ C% \- N- R0 g# S
    Frame rate                               : 31.250 fps (1536 spf)
    6 X1 y0 g1 D$ ?. S; QCompression mode                         : Lossy: z+ n* m5 o8 h) t% a8 w2 g& n
    Stream size                              : 394 MiB (2%)
    6 O: ]  o" u4 I  FTitle                                    : Suicide.Squad.2016.THEATRICAL.1080p.3D.BluRaycd.Half-OU.x264.TrueHD.7.1.Atmos-FGT
    , a. Y& l8 o4 p% wLanguage                                 : Russian2 E! v  V- S1 M$ A
    Default                                  : No$ S8 D$ }9 a+ q) j
    Forced                                   : No5 C2 {- i9 K9 w
    ; }) E, o* G- h9 o, W! b
    Audio #74 o7 H+ g; b, s. g) H- H* g
    ID                                       : 8; F& U* ?- P; Q& c2 L/ g
    Format                                   : AC-3" y! }2 w8 K# y9 B! x
    Format/Info                              : Audio Coding 3
    ( {/ A0 n' d! pMode extension                           : CM (complete main)
    # C2 Z4 A' g/ Q" p: Y$ J9 _" `Format settings, Endianness              : Big
    % w7 V9 e% B1 Z1 uCodec ID                                 : A_AC3
    7 R5 O: |) H4 T7 X2 G4 A  qDuration                                 : 2h 2mn+ U" ~, s& P! G
    Bit rate mode                            : Constant
    9 J4 e- J8 d8 o4 A( R% P1 fBit rate                                 : 448 Kbps- M; D  `- _& ^( C2 [' N
    Channel(s)                               : 6 channels
    " i9 A! v- ~3 K( P- G8 A: M, }0 r+ q- bChannel positions                        : Front: L C R, Side: L R, LFE' ]+ t4 k. @+ u# a
    Sampling rate                            : 48.0 KHz1 T. t8 a% t3 e5 @
    Frame rate                               : 31.250 fps (1536 spf)
    . r0 B3 }% j7 @) j! cCompression mode                         : Lossy
    : P" T8 w: `6 \Stream size                              : 394 MiB (2%)
    0 Z1 H: K* `4 n& |# E6 W5 vTitle                                    : Suicide.Squad.2016.THEATRICAL.1080p.3D.BluRaycd.Half-OU.x264.TrueHD.7.1.Atmos-FGT
    # i: b  W+ v1 W. b* Y! Q0 F" f% F1 nLanguage                                 : Turkish
    6 l9 c. D% i8 |; G3 ODefault                                  : No6 E- i+ n0 J: X" T
    Forced                                   : No
    8 ~- [% n4 d$ S; g  H9 m3 M& n
    Text #1
    ) T1 N* q( L2 FID                                       : 9# s" r1 Q1 O# A' N5 C% ~0 o; F
    Format                                   : PGS; e9 N( m7 f5 G
    Muxing mode                              : zlib
    8 o7 b5 [0 q4 wCodec ID                                 : S_HDMV/PGS
    * A2 T& ~7 v" d: C' z! K3 NCodec ID/Info                            : Picture based subtitle format used on BDs/HD-DVDs
    : y2 T- d, @7 ~  Z# WTitle                                    : English-PGS
    " P2 A. g' ^* Z5 t4 P, JLanguage                                 : English
    0 J, g. E4 x7 ~4 T/ }( B/ f  ]Default                                  : No4 c' i% M9 {8 n
    Forced                                   : No
    5 E: a! ]$ C6 g9 j+ V* H/ L4 D+ q$ j2 I& a  I4 C! `
    Text #2
    4 R+ L% G. R9 M& z) N- xID                                       : 10, b+ s; ?) P2 g
    Format                                   : PGS
    , E( v0 }9 _+ ^  A$ \Muxing mode                              : zlib
    $ l" d- u2 w: Z0 TCodec ID                                 : S_HDMV/PGS
    % E; S. s1 y& D& Z3 B8 K, h. lCodec ID/Info                            : Picture based subtitle format used on BDs/HD-DVDs
    # G( O) {, P& `$ i7 z. L- @Title                                    : Korean-PGS
    4 s; r! @) m0 l4 |2 vLanguage                                 : Korean
    % a5 n, |* X- |6 K& T8 ADefault                                  : No
    7 F, g" H8 }" E, A$ }3 ~) JForced                                   : No5 K& x. R* ^5 }' s
    ) c7 S+ ^( }$ l3 ~
    Text #3* Z3 x  P9 Z) E4 M& V; C) [
    ID                                       : 11/ t( V% f9 _  ~( T! w0 J
    Format                                   : PGS
    6 c0 F8 e- z% ^" kMuxing mode                              : zlib, B9 P$ ]$ X  o
    Codec ID                                 : S_HDMV/PGS
    ! u0 k6 Z+ n5 k) VCodec ID/Info                            : Picture based subtitle format used on BDs/HD-DVDs6 e% U5 W+ S4 T0 K9 m7 m
    Title                                    : Arabic-PGS; A  j9 D9 i0 \- A
    Language                                 : Arabic
    ) r" I3 u0 G6 w% pDefault                                  : No
    - a# ^; j' D) Z1 n3 FForced                                   : No- J; G( Y1 V8 }" U1 z
    + p" z# F+ s" F' W# n. q
    Text #4+ ~: @& V  a9 s
    ID                                       : 12
    & U2 w" @- c2 Y- X. N/ hFormat                                   : PGS
    3 o& W% ?  M6 `2 {7 W. I. S; KMuxing mode                              : zlib
    , t0 a) S3 @; \0 O* V5 P/ \/ i8 Y" KCodec ID                                 : S_HDMV/PGS
    * B6 U% V( ?4 ~. p7 O2 oCodec ID/Info                            : Picture based subtitle format used on BDs/HD-DVDs) {) b0 X* h3 U8 k  m2 G
    Title                                    : Croatian-PGS, c- C0 S5 P. |; \) A) L
    Language                                 : Croatian
    ( G0 U# l! W0 _( B$ p" [# IDefault                                  : No
    ! d- c) {' ?* CForced                                   : No" y) r! q! D! D
    " P. h0 K9 H3 o1 z# u
    Text #54 c: c: }9 N+ s8 C3 H& _
    ID                                       : 130 }2 L( \/ U2 _; l4 ^
    Format                                   : PGS2 G7 q2 h# b7 ^3 W# ~) T' j% B
    Muxing mode                              : zlib
      B& U( z0 f3 Q, N- aCodec ID                                 : S_HDMV/PGS8 @1 Q$ P5 r( [+ N6 S8 ~" D) Y
    Codec ID/Info                            : Picture based subtitle format used on BDs/HD-DVDs
    8 `+ R$ J" V# j# V) h# _Title                                    : Czech-PGS
    ' l  [- O0 ], VLanguage                                 : Czech
    - M2 x  g# `2 P0 DDefault                                  : No
    # m. G. ?& k$ mForced                                   : No
    ' F9 }! `2 D. t
    9 P5 x: O- Q9 u& h2 T* K. sText #65 h- H) I2 E1 ?9 ?2 Z8 w
    ID                                       : 142 u9 v0 }8 i# q0 k
    Format                                   : PGS
    0 J9 S" W# K# }4 m* p! K0 eMuxing mode                              : zlib
    ! p7 C' `8 J9 U1 R! ~/ cCodec ID                                 : S_HDMV/PGS
    9 y$ u) D3 ^! bCodec ID/Info                            : Picture based subtitle format used on BDs/HD-DVDs& g: |3 `( _" q& o& z
    Title                                    : Estonian-PGS3 A" b/ q$ U' w) s
    Language                                 : Estonian
    # y- N; E) }+ _0 `" |; LDefault                                  : No
    0 @  c: \$ H2 n" _Forced                                   : No5 t7 c) E* p! K+ R# V: R
    3 D" X2 p5 Y7 f8 ~
    Text #7
    5 Q* K+ A: B8 k& g: f9 f% jID                                       : 15
    9 ^" v# e4 R" L( n" g9 P" uFormat                                   : PGS
    $ Z1 C1 n5 u: }4 _4 Q" xMuxing mode                              : zlib
    3 i5 z3 r- }+ S+ }  K9 |7 ZCodec ID                                 : S_HDMV/PGS
    5 X( M$ g( h: ?: r! r8 P4 CCodec ID/Info                            : Picture based subtitle format used on BDs/HD-DVDs" J* l5 [" X( f( m) s
    Title                                    : Hebrew-PGS! \: p) J: d1 @( F8 r4 W
    Language                                 : Hebrew: g) H0 }5 d# p9 Y  [) s. D
    Default                                  : No+ S8 S9 R0 Z5 S
    Forced                                   : No* @# T6 p% f# K

    * y9 |4 t$ j6 S' O9 b, R& xText #8
    ! j5 G  A! Q% }* h0 G. xID                                       : 16$ W' x  e: S4 _+ m4 `1 r. @# z
    Format                                   : PGS
    ! @: i5 Z% L4 f( JMuxing mode                              : zlib4 \  j3 n2 {: K
    Codec ID                                 : S_HDMV/PGS8 i8 i0 W8 q6 C; f8 K0 D8 f5 A6 F5 I
    Codec ID/Info                            : Picture based subtitle format used on BDs/HD-DVDs' X. n) X- p8 E' v, R" e5 h8 v" Z
    Title                                    : Hungarian-PGS" h/ b  {- y2 M8 O+ \- T
    Language                                 : Hungarian
    5 r7 a2 ^& |1 e: gDefault                                  : No
    $ m# F1 @. C) V8 j6 q8 \# uForced                                   : No3 e' G1 r9 @. L1 F4 t
    5 W. @) G* H7 \8 ?
    Text #9( N3 R" w4 w! ^" d2 Q
    ID                                       : 177 K# c' k+ G, D$ D3 p3 M
    Format                                   : PGS
    ' i4 j1 A/ @! o- }: H# KMuxing mode                              : zlib: {2 w- z- f. Q+ j+ Z; O7 ~6 X9 `
    Codec ID                                 : S_HDMV/PGS3 j$ K* W: ?2 D1 V( [2 {/ s9 t
    Codec ID/Info                            : Picture based subtitle format used on BDs/HD-DVDs
    4 G3 {4 q7 G: S- pTitle                                    : Latvian-PGS1 Q/ Z! ?$ n3 f! X4 G4 z* ^
    Language                                 : Latvian
    1 O2 Y; K6 K& wDefault                                  : No
      g3 D) M, T1 [/ `8 `Forced                                   : No* U) ^: c' O- A7 v+ m" ~* v- f
    . s" v  j9 T/ G7 }$ L& |
    Text #10' n* B2 p" u( j1 z$ \
    ID                                       : 18* Z& B- F0 \9 i6 N+ O0 P
    Format                                   : PGS
    7 V. v$ Z- |! yMuxing mode                              : zlib
    ! Q8 K6 p" m3 tCodec ID                                 : S_HDMV/PGS
    , e# F( h6 [. I' @- r. i# fCodec ID/Info                            : Picture based subtitle format used on BDs/HD-DVDs4 |$ o1 Y% I& w, U3 O' Z
    Title                                    : Lithuanian-PGS; o' o% O2 T& B' G
    Language                                 : Lithuanian
    * l8 }2 m  ]7 [2 n$ EDefault                                  : No
    + X% P  O! t/ p( T7 @8 Z' IForced                                   : No
    8 O! S$ t" c' L/ {+ j2 m
    4 R8 y% S! D/ QText #11  G0 d9 @; u, k+ j/ H6 x
    ID                                       : 19
    ! |2 x6 {, h: VFormat                                   : PGS
    # R& R1 O% M5 @: B( L) T2 NMuxing mode                              : zlib
    # T2 f  g3 ]2 J% ]8 ^( ACodec ID                                 : S_HDMV/PGS
    4 N- Y2 f. s' s8 M, r: _1 f. F2 GCodec ID/Info                            : Picture based subtitle format used on BDs/HD-DVDs  w& K8 |5 e  \
    Title                                    : Polish-PGS. P1 t6 t! @/ C, Q. S) O! y! @; y
    Language                                 : Polish
    1 n6 ^9 ?* u$ GDefault                                  : No
    # r5 T: G- W% q. B7 zForced                                   : No
    ; u$ ]3 ~3 M; h1 i7 Y$ k; n+ q# ^, D! Q
    Text #12
    8 H  Y# w* s/ ]/ G, ?; rID                                       : 20: r8 }7 E. Z1 _% w4 B
    Format                                   : PGS. {  [5 l7 F& h6 P) q3 K
    Muxing mode                              : zlib
    3 G; V7 I  e1 wCodec ID                                 : S_HDMV/PGS$ z- z" v; t( O* N8 \
    Codec ID/Info                            : Picture based subtitle format used on BDs/HD-DVDs2 q$ Y. n% n  V
    Title                                    : Portuguese-PGS5 v% q. \3 T: l; d
    Language                                 : Portuguese8 o8 w" j/ K5 v1 k/ V3 k: F5 w
    Default                                  : No4 G. ^  f' J; {% U6 a
    Forced                                   : No% }( d; W- |% @! n  b+ L7 b3 `

    . |! p% m1 t0 B9 f5 EText #13
    ) J0 u; l  V5 }( S: n2 bID                                       : 21
    / a- ]6 e' i6 W$ ^) N# FFormat                                   : PGS
    " Z4 ]: X% M& AMuxing mode                              : zlib# |: b; Z. ~$ a4 p
    Codec ID                                 : S_HDMV/PGS  o6 N/ u; t4 N6 J
    Codec ID/Info                            : Picture based subtitle format used on BDs/HD-DVDs- U; f# W$ a, y0 A3 I
    Title                                    : Romanian-PGS
    : o& w6 @5 g) nLanguage                                 : Romanian
    9 i+ c1 O: N% E. W* p/ `+ jDefault                                  : No  H, i' @+ l& ]. t8 t% r, b7 X( i4 V
    Forced                                   : No/ L4 p& |& X5 V
    + K7 R' e  E) z; f! S: o
    Text #14& v: p$ F7 ]: V1 X% V& u( E6 }2 J
    ID                                       : 22/ Q! b9 i9 j6 x& `: A4 ~0 Y
    Format                                   : PGS
    # p1 h$ E0 K1 v) |" pMuxing mode                              : zlib9 \' G% M3 |4 I) t
    Codec ID                                 : S_HDMV/PGS
    ! s( ?& S+ N! J/ i  XCodec ID/Info                            : Picture based subtitle format used on BDs/HD-DVDs+ n  o; e6 C4 E: y0 }- c
    Title                                    : Russian-PGS
    $ B8 ]+ a5 j. eLanguage                                 : Russian+ O/ T0 |. \  t: i1 L
    Default                                  : No
    % F# w0 Q4 j, x$ B6 KForced                                   : No
    ; h3 C+ |! u0 N( w3 k  S4 W9 q0 q7 F2 ]  k3 B0 T% {
    Text #15. E' k9 z- d$ W8 \+ U- }
    ID                                       : 23( v) b# B$ ~& u2 o4 l1 O( \
    Format                                   : PGS7 F$ M7 w( Z# G& s  v3 Z) j6 T
    Muxing mode                              : zlib
    * c3 @4 v0 [) E9 v* ~Codec ID                                 : S_HDMV/PGS
    * h7 i) c( e- i' |+ [) S6 }$ UCodec ID/Info                            : Picture based subtitle format used on BDs/HD-DVDs
    " ?- }$ G0 }" \0 z$ \Title                                    : Slovenian-PGS0 M5 @* x, i2 O1 e' K! D0 ^
    Language                                 : Slovenian. o4 r/ h: M9 ]8 X/ @
    Default                                  : No! f* a9 u0 U/ s: F: o
    Forced                                   : No9 a5 b3 x7 H1 f

    1 d+ S6 t0 c; P' R4 iText #16
    * u' B# ]8 t: O, yID                                       : 24
    0 N2 v3 @2 c- g. z, }Format                                   : PGS& M  r, |4 q$ R
    Muxing mode                              : zlib: S% b, E- {9 H7 Q
    Codec ID                                 : S_HDMV/PGS
    + U/ q5 P( D. Q" i/ B  LCodec ID/Info                            : Picture based subtitle format used on BDs/HD-DVDs
    & J3 K. v1 Y% j3 z# M7 c6 p. LTitle                                    : Turkish-PGS( `8 U7 L! v7 |8 O
    Language                                 : Turkish! G  c( E$ a5 Q9 X8 Y; ^4 d
    Default                                  : No/ D1 E, q1 ^1 F% Y
    Forced                                   : No- E( I. I4 X' n; F% x
    . ?7 y& g1 Z- m
    Text #170 i" c+ ^* {+ m+ N: C. B( p
    ID                                       : 25
    - M  C; I$ h  m; V. `3 BFormat                                   : PGS
    3 U: u. j9 X( H& m! q" [2 D8 f: wMuxing mode                              : zlib' x+ ^; Q/ B& c
    Codec ID                                 : S_HDMV/PGS
    8 _4 ^9 b. ~3 D" ^& ]Codec ID/Info                            : Picture based subtitle format used on BDs/HD-DVDs
    ' L$ y! l/ ^$ g, K7 ?5 x) ?7 m3 |Title                                    : Czech-FORCED-PGS) ^& |' T) M7 T; q/ w
    Language                                 : Czech
    * W! N6 `, ^) |5 \4 s! |Default                                  : No
    - ^0 v1 A: r, [- AForced                                   : No8 S+ d4 ]# e. j9 |) p/ s! ^: M

    " D/ d/ v0 v, L+ p9 QText #18
      R7 U( g% \) d8 ^ID                                       : 26
    * A/ M( X! v  w/ YFormat                                   : PGS  `  l5 L9 `' H' G
    Muxing mode                              : zlib1 y( o( k" l7 `' M9 e4 t: i. P: X
    Codec ID                                 : S_HDMV/PGS
    # W, [0 y: _% }: p2 u5 w5 OCodec ID/Info                            : Picture based subtitle format used on BDs/HD-DVDs4 |$ p  n# _, C' Y" ]; O$ W/ Z3 J
    Title                                    : Hungarian-FORCED-PGS
    ) u) l$ P- v+ Z  HLanguage                                 : Hungarian5 U, G3 b) x! {; M
    Default                                  : No
    9 ?% g  M0 ^5 H6 q5 \' ~# iForced                                   : No
    ( o! p3 s' ^1 s$ ^  M# ]: N: O5 c' `  G+ v$ O
    Text #19
    # S* ?" }7 P; p% N, c# K% xID                                       : 27
    ' Y5 U8 e5 r& |; d6 ^4 mFormat                                   : PGS
    * g/ E/ {& A5 U& iMuxing mode                              : zlib& e' f1 T9 A6 A+ {
    Codec ID                                 : S_HDMV/PGS/ O2 U- D8 j( g
    Codec ID/Info                            : Picture based subtitle format used on BDs/HD-DVDs( D7 g% W9 k6 R% D. z
    Title                                    : Polish-FORCED-PGS
    2 o4 w; e' b( @: l2 O$ M( lLanguage                                 : Polish
    7 R) b0 J! N0 \* yDefault                                  : No
      n3 f" Y7 d" H  B+ I& AForced                                   : No
    % |! u: e) J7 m
    9 H; W- {- l6 T4 r$ X; V2 q. sText #20
    6 y$ J& S# a# l) }# mID                                       : 28
    ( |# |+ V+ e8 T. [2 x: f4 }( `' `Format                                   : PGS
    ' G% w5 W* R" l* |/ m5 `& u. qMuxing mode                              : zlib4 }2 L( B- K" S% w8 G) r
    Codec ID                                 : S_HDMV/PGS# o! v9 a. D- R$ o9 b
    Codec ID/Info                            : Picture based subtitle format used on BDs/HD-DVDs
    ) e1 n& b: X) R) k  j" L+ |8 BTitle                                    : Russian-FORCED-PGS
    , [- X7 J( `* ]# N, iLanguage                                 : Russian  a7 |  s& r0 J: \
    Default                                  : No
    ( M' J# o; a1 v! h3 ~Forced                                   : No
    1 A% D2 Q# p8 V; Q3 S4 ^5 @; ^1 ^. w9 j. Q* R$ O6 k. K2 `
    Text #21& S/ L# T" ], y1 J5 R9 J
    ID                                       : 29* z5 i& d/ Q1 R
    Format                                   : PGS5 l& ]6 y% W; s7 T  q
    Muxing mode                              : zlib
    - c* ~% ]0 J/ P" G/ {8 UCodec ID                                 : S_HDMV/PGS
    3 F0 `+ |7 H+ a% n* f9 WCodec ID/Info                            : Picture based subtitle format used on BDs/HD-DVDs
    * d4 p2 ~# T7 k( R8 g% @Title                                    : Turkish-FORCED-PGS/ u; ]) z+ g% V: d" }; {( t- b( q" g# g& g
    Language                                 : Turkish
    - M3 w. P/ m1 ^, A/ S+ GDefault                                  : No. y* _. f! w8 m: L7 F2 |3 j
    Forced                                   : No
    1 }9 I# q4 W, k. O* C+ R7 d! [1 M$ T7 ?, c" x% d
    Menu
    - |9 m; m4 ?9 t0 ]00:00:00.000                             : en01)00:00:00:000( J- y0 t8 X7 l1 f- b% u' j& ^
    00:09:07.505                             : en02)00:09:07:505# v7 N% [' C1 A
    00:19:03.725                             : en03)00:19:03:725; e: g. ]: O/ p2 u1 _$ ^
    00:29:27.140                             : en04)00:29:27:140
    # F4 o; O5 l! B3 w4 q+ G* E  R* d00:39:17.313                             : en05)00:39:17:313
      D) b4 C7 V  t' r3 C- e6 h7 Q00:50:21.226                             : en06)00:50:21:226
    . m0 m0 ?9 O! o! Q01:00:10.106                             : en07)01:00:10:106# t" x: R; `5 N& R" Y9 A
    01:11:46.927                             : en001:11:46:927
    * r9 Y3 f2 X. y01:22:46.127                             : en09)01:22:46:127' u# L# y/ L$ z! y: {
    01:32:01.098                             : en10)01:32:01:098
    ) P3 C3 x" A# X) L1 K6 d01:39:21.830                             : en11)01:39:21:830) ]8 X- ?: G$ Y. X' [/ v# w& E
    01:52:27.991                             : en12)01:52:27:991
    , ^0 _' y+ z' D- w02:02:53.240                             : en13)02:02:53:240
    * J/ U2 L( I; g/ V. e
    游客,查看本帖隐藏内容请回复 | 加入VIP贵宾组可免积分免回复下载 立即了解 | 还不是会员:点击获取邀请码 Invitation Code

    本版积分规则

    小黑屋|Archiver|蓝光电影资源网

    GMT+8, 2020-3-28 17:45

    快速回复 返回顶部 返回列表