BluRayCD Forum

 找回密码
 立即注册【分享大片】

QQ登录

只需一步,快速开始

查看: 6|回复: 0
收起左侧

[科幻恐怖] 自杀小队/自杀特攻:超能暴队 [3D左右格式] Suicide Squad 2016 THEATRICAL 1080p 3D BluRaycd Half-SBS x264 DTS-HD MA 7.1 + TrueHD 7.1 Atmos-FGT 18.82GB & 18.97GB & 8.77GB

[复制链接]
  • TA的每日心情
    慵懒
    2017-7-4 17:43
  • 签到天数: 613 天

    [LV.9]蓝盘精灵

    5310

    主题

    5662

    帖子

    6万

    积分

    Forum Moderator

    金币
    3396 枚
    体力
    25149 点

    卓越贡献勋章VIP蓝光勋章

    迅雷电影 发表于 前天 02:54 | 显示全部楼层 |阅读模式
    01.jpg
    3 S/ ^; z2 S; j/ a  _; l0 U4 j6 `/ E( E, _: x: p
    ◎片  名 Suicide Squad / Task Force X / Bravo 14
    ; k6 H0 \" F* r9 g5 E0 ^◎译  名 自杀小队/X特遣队/自杀突击队(台)/自杀特攻:超能暴队(港)/犯罪敢死队! \* {" _( I$ r+ |! a9 F) B
    ◎年  代 2016
    2 l/ D' X( z& [7 O◎国  家 美国
    & Z9 G+ |! n4 C2 q5 I# F◎类  别 动作/犯罪/奇幻
    " R7 ?- y/ X0 |* t9 |. ?◎语  言 英语/日语/西班牙语: S' B0 N/ Y' C# M! y7 @9 R5 u& _" L7 Q
    ◎上映日期 2016-08-05(美国)) c' H8 G1 {, X
    ◎IMDb评分 6.0/10 from 569,931 users
    " n% J" d9 x( C/ @1 g3 V7 F! \◎IMDb链接 https://www.imdb.com/title/tt1386697/
    - {/ A! e* x( u! x/ p◎豆瓣评分 6.5/10 from 198,127 users& {( T2 P$ \1 X- L9 r8 x
    ◎豆瓣链接 https://movie.douban.com/subject/3569910/3 e4 e  Q5 D: U, \5 x* v
    ◎片  长 2 h 20 min
    1 [5 v6 t; y1 n( G7 e! t◎导  演 大卫·阿耶 David Ayer7 h, B; _+ T5 [
    ◎编  剧 大卫·阿耶 David Ayer
    0 D) z5 m' Z- d2 N, F       约翰·奥斯特兰德 John Ostrander" \! V+ ]  {2 o8 W% @
    ◎主  演 威尔·史密斯 Will Smith
    2 ?) w5 m9 u1 O7 c) w3 v+ R5 T       杰瑞德·莱托 Jared Leto# T4 Q: B+ t; v  D/ H8 J
           玛格特·罗比 Margot Robbie
    8 j6 R% x: k; j. P- U# \3 m& y       乔尔·金纳曼 Joel Kinnaman
    3 N( D! x+ b/ Z6 [9 W. m1 d       维奥拉·戴维斯 Viola Davis
    : N! ~: d3 l! G4 f% j% \       本·阿弗莱克 Ben Affleck
    + g7 X0 H/ C8 y1 U& Y1 F4 @       杰·科特尼 Jai Courtney6 q. c/ q$ K# z; R. L4 B$ ~9 y: _
           卡拉·迪瓦伊 Cara Delevingne3 m6 s1 O% J. H: e
           杰伊·赫尔南德兹 Jay Hernandez
    5 g; o9 A  o: J$ {' O       斯科特·伊斯特伍德 Scott Eastwood
    ! @0 ^- ?- S% _) `, `/ q  `, O5 G; y       阿德沃尔·阿吉纽依-艾格拜吉 Adewale Akinnuoye-Agbaje- A, N7 E. A6 j$ m0 s4 ]  X
           埃兹拉·米勒 Ezra Miller
    8 n! b& z% j7 Q" q5 V1 G0 C       科曼 Common: a7 q$ i* a) G
           亚当·比奇 Adam Beach
    % F1 Q  w  P" A% J/ z( y       吉姆·帕拉克 Jim Parrack
    ; ]) \9 l* N5 }       伊克·巴里霍尔兹 Ike Barinholtz
    & i4 P6 T, I$ k' s# p$ o. e7 b: |7 w       亚历克斯·梅拉兹 Alex Meraz  I. e8 B" `; w7 ^
           凯伦·福原爱 Karen Fukuhara: I9 h% b5 u7 m' ^* v$ f1 r# X
           雷蒙德·奥鲁巴维尔 Raymond Olubawale+ Z& P! S+ ]! K% T2 l
           大卫·哈伯 David Harbour
    9 K) M% N( c/ B& r7 V/ j
    : S# }* p$ f+ m  g: ]◎简  介   
    $ u! h3 E& S$ }' p, l- g. b* i) F5 f) f' S5 l/ X! S7 _
      阿曼达(维奥拉·戴维斯 Viola Davis 饰)身为政府秘密机构的领导人,面对社会中出现的层出不穷的暴力恐怖袭击事件,决心启用一批被关押在监狱中判了无期徒刑的超级反派们,他们是小丑女(玛歌特·罗比 Margot Robbie 饰)、死亡射手(威尔·史密斯 Will Smith 饰)、回旋镖队长(杰·科特尼 Jai Courtney 饰)、复仇恶魔(杰伊·赫尔南德兹 Jay Hernandez 饰)和杀手鳄(阿德沃尔·阿吉纽依-艾格拜吉 Adewale Akinnuoye-Agbaje 饰)。
    , s; ?4 p* U$ \5 E- }4 q: x' j4 v8 V' A9 F# o% y$ X
      他们所要面对的,是拥有强大法力的魅巫(卡拉·迪瓦伊 Cara Delevingne 饰),她和她的哥哥一起制造了一种非常危险的武器,企图用此控制全人类。除此之外,阿曼达还必须提防为了解救女友小丑女而不惜一切手段的危险人物小丑(杰瑞德·莱托 Jared Leto 饰)。
    ; H0 k) C4 `* b4 [+ B, }3 ?- g* n0 S7 f2 P" A
      A secret government agency recruits some of the most dangerous incarcerated super-villains to form a defensive task force. Their first mission: save the world from the apocalypse. 6 P5 s, }% c5 Y

    - d- v1 m2 @, {
    Video( P" K1 r& n/ V: p7 ~9 M
    ID                                       : 1
    ' @, a3 D% Z+ {4 ?8 K% d; Q$ KFormat                                   : AVC3 M; Y9 E% }/ y4 J0 v: U
    Format/Info                              : Advanced Video Codec
    ; \/ N: v& Y* Z7 @5 i' c" G! iFormat profile                           : [email protected]
    3 Q" O# a4 p2 C6 a. g1 V) s( CFormat settings, CABAC                   : Yes
    " A( Z+ c& _: W; B3 j4 Y7 l- C& A* PFormat settings, ReFrames                : 2 frames
    $ q% Y( n8 u0 GCodec ID                                 : V_MPEG4/ISO/AVC
    # z: p3 p5 h! r8 s) M" n7 o  `! kDuration                                 : 2h 2mn
    7 v4 S9 i9 G# U' m' J* w7 `. G' xNominal bit rate                         : 15.5 Mbps
      Q# V4 W* H4 s0 P- g) E- _Width                                    : 1 920 pixels3 ^! j7 N1 ?5 _7 {0 X
    Height                                   : 1 080 pixels
    * ~$ t8 O6 M/ a/ E4 p* P: f0 b" _9 dDisplay aspect ratio                     : 16:9
    : s0 [6 V8 O7 |5 N1 |" @Frame rate mode                          : Constant
    6 |6 P) S# o  K6 G, g0 qFrame rate                               : 23.976 (24000/1001) fps
    # {: F0 a$ _. K4 v5 k; h% |* NColor space                              : YUV3 O4 k" G2 z0 @
    Chroma subsampling                       : 4:2:0. r4 z5 A7 ?* H3 x2 a# B
    Bit depth                                : 8 bits, n6 e( b8 x) N2 B4 v' Y
    Scan type                                : Progressive2 ]0 H6 F; x2 x) m- ?
    Bits/(Pixel*Frame)                       : 0.3125 c" |, V( g% V% S; b2 X
    Title                                    : Suicide.Squad.2016.THEATRICAL.1080p.3D.BluRayCD.Half-SBS.x264.DTS-HD.MA.7.1-FGT
    9 \& s- j# T. ~# ?. Z4 C- J& T9 K2 oWriting library                          : x264 core 1425 J7 }1 j( _7 o
    Encoding settings                        : cabac=1 / ref=1 / deblock=1:-1:-1 / analyse=0x3:0 / me=hex / subme=5 / psy=0 / mixed_ref=0 / me_range=16 / chroma_me=1 / trellis=0 / 8x8dct=1 / cqm=0 / deadzone=21,11 / fast_pskip=0 / chroma_qp_offset=0 / threads=8 / lookahead_threads=2 / sliced_threads=0 / nr=0 / decimate=1 / interlaced=0 / bluray_compat=0 / constrained_intra=0 / bframes=2 / b_pyramid=0 / b_adapt=1 / b_bias=0 / direct=1 / weightb=0 / open_gop=0 / weightp=0 / keyint=24 / keyint_min=13 / scenecut=40 / intra_refresh=0 / rc=abr / mbtree=0 / bitrate=15500 / ratetol=1.0 / qcomp=0.60 / qpmin=0 / qpmax=69 / qpstep=4 / ip_ratio=1.40 / pb_ratio=1.30 / aq=1:1.00
    " o, {6 U% j1 I' d2 @) t* {Default                                  : Yes/ l. U# V) Z2 e& r: a2 J( T* ^
    Forced                                   : No2 i1 c% A  ^: z6 t% Z0 v
    Color range                              : Limited9 n  X7 X# U' R& _
    Color primaries                          : BT.709
    ; G* W; c( I2 vTransfer characteristics                 : BT.709
    : ^) ?* P4 H9 {- P; q) qMatrix coefficients                      : BT.709
    8 I# ~) P; E9 w( J0 w" f( N6 B$ @
    0 e5 R  h1 B: M& z4 R6 G  u1 r9 _Audio #1
    ) n& O0 f: a7 R9 Z4 x- V9 kID                                       : 21 f2 [0 s/ s7 ]& {( R6 I2 D& W
    Format                                   : DTS
    / k% c( X( [; h' o0 {; j& g7 fFormat/Info                              : Digital Theater Systems( J* }+ t/ F5 z5 z" X( A( P
    Format profile                           : MA / Core  G: T* s9 v4 h5 _$ N. R
    Mode                                     : 16
    , l8 b* O& s7 R" R- @3 K& KFormat settings, Endianness              : Big& |6 k* U& h8 ?
    Codec ID                                 : A_DTS- M' b2 A& x; A, ^! y+ G
    Duration                                 : 2h 2mn
    0 q# V& [: J7 d5 k' v: F1 @7 JBit rate mode                            : Variable / Constant; ?" ^) u5 ]! _$ w- Q) q2 V
    Bit rate                                 : Unknown / 1 509 Kbps4 m# e- Y/ t) l! P; p  l# T
    Channel(s)                               : 8 channels / 6 channels) b" S  u' G) u. X, J0 F& ?3 ]
    Channel positions                        : Front: L C R, Side: L R, Back: L R, LFE / Front: L C R, Side: L R, LFE
    % t: ~, m6 y  v  q1 x) W8 {1 wSampling rate                            : 48.0 KHz
    ; i% o# V/ I; C& m% s5 C0 IFrame rate                               : 93.750 fps (512 spf)
    1 S. B' |" n% Y1 Y6 o7 Y4 RBit depth                                : 24 bits
    5 J* K, W7 f% ^8 T3 o4 NCompression mode                         : Lossless / Lossy* U0 z. w$ V+ y& d6 Y3 S$ {: o
    Title                                    : Suicide.Squad.2016.THEATRICAL.1080p.3D.BluRaycd.Half-SBS.x264.DTS-HD.MA.7.1-FGT, i; ~: B. M7 O7 B. _1 c
    Language                                 : English
    ; q( v) i: O0 _2 C9 EDefault                                  : Yes- f; N1 Q% u/ t' n
    Forced                                   : No9 f5 G  M" ?& g6 K
    / e  r9 |+ s; V) }* x
    Audio #2
    $ C1 m  ?/ D$ Q" h+ t: _ID                                       : 3, c, c: {7 k: a  l# q
    Format                                   : AC-3; y  u% b0 y( C
    Format/Info                              : Audio Coding 3
    : [. @* n. r/ p# ?' cMode extension                           : CM (complete main)
    $ O; W: U* l6 L3 I6 v( ~9 k% w; eFormat settings, Endianness              : Big
    + `$ N7 |6 q( Z! c6 i4 LCodec ID                                 : A_AC3
    * Z* X, G* ]7 K9 uDuration                                 : 2h 2mn0 r- Y5 ~: g& w3 k+ S4 g; `
    Bit rate mode                            : Constant
    , u  l8 X, \' k  i6 \& o: c9 k+ SBit rate                                 : 384 Kbps
    : p- @$ Z2 W! c. ~$ v  MChannel(s)                               : 6 channels
    / P4 Q* E! _8 l, ^, z: UChannel positions                        : Front: L C R, Side: L R, LFE$ a1 @5 b2 p- M$ q
    Sampling rate                            : 48.0 KHz
    3 t0 M5 L5 E$ O' C0 `Frame rate                               : 31.250 fps (1536 spf)3 X- I' U& L; T) E" y+ `# _+ f* B6 `
    Compression mode                         : Lossy  i, z; K) l: [1 K5 n! @( r
    Stream size                              : 338 MiB (2%)
    ! {2 k6 Y7 {/ q  h2 dTitle                                    : Suicide.Squad.2016.THEATRICAL.1080p.3D.BluRaycd.Half-SBS.x264.DTS-HD.MA.7.1-FGT, F6 i" l2 _* v$ ^* i$ a- g
    Language                                 : English
    , x; n7 M5 }* I# m$ q8 u) l' u2 LDefault                                  : No" q1 Z; }" O0 V
    Forced                                   : No
    & t6 m  D* `7 b- G9 p3 t
    6 P- @: q) d( Y# c0 I& k7 jAudio #3* o; m2 C) y3 M3 {3 F
    ID                                       : 4# M# ~/ T$ ^- U4 C% |+ z! g
    Format                                   : AC-3- R* P. r& ]) u: U
    Format/Info                              : Audio Coding 3$ A/ g! n' |. N
    Mode extension                           : CM (complete main); ~3 O' L& J+ `  u) W
    Format settings, Endianness              : Big
    8 ~7 ~6 J6 t0 f0 r6 E! UCodec ID                                 : A_AC3
    " `5 S9 t3 ]) GDuration                                 : 2h 2mn1 Z) d) E& c9 a% S2 Y2 S
    Bit rate mode                            : Constant
      N$ l, E9 E2 CBit rate                                 : 448 Kbps' `6 R! U+ C+ |9 `! ~2 o! h
    Channel(s)                               : 6 channels8 v" _: @* t7 i$ l
    Channel positions                        : Front: L C R, Side: L R, LFE
    ; D, M1 d' P4 v2 [6 pSampling rate                            : 48.0 KHz
    3 p# A" {. L+ v7 h) |Frame rate                               : 31.250 fps (1536 spf)
    7 {+ d( C/ x  _Compression mode                         : Lossy& I5 h5 K. s# H9 B9 n2 h
    Stream size                              : 394 MiB (2%)
    0 B# Q: A1 b' l: ]5 o( ETitle                                    : Suicide.Squad.2016.THEATRICAL.1080p.3D.BluRaycd.Half-SBS.x264.DTS-HD.MA.7.1-FGT' Z# M9 d' z% A- S& j
    Language                                 : Czech6 a! m9 H1 W, S: f: B6 H0 t7 o
    Default                                  : No$ m$ h: L8 R8 H& r. t/ N
    Forced                                   : No4 m  y; s; [- E  U2 X# H
    # @+ Q, g* x. ^  }5 p! w
    Audio #4
    ) ]) r8 x# e7 C; t7 t1 ]! q0 t0 ?  `" cID                                       : 5
    * {  O& R/ @8 K0 V6 VFormat                                   : AC-3
    ' Q& U' d2 l8 m' rFormat/Info                              : Audio Coding 33 A/ M1 _& h( ]! t  n
    Mode extension                           : CM (complete main)4 d) y( r8 Y8 ?4 F( x& e
    Format settings, Endianness              : Big
    6 J5 Y) z# A/ {4 z" H8 t, uCodec ID                                 : A_AC3
    * Y. L5 P/ b: y8 N+ Z6 e# nDuration                                 : 2h 2mn( {# r% u. f8 c7 U. h3 K
    Bit rate mode                            : Constant
    7 ]  V( J7 v" R: L7 ^+ ?. D: \Bit rate                                 : 448 Kbps
    4 [$ w( S8 \/ cChannel(s)                               : 6 channels
    4 M# m6 w. w/ a5 x. _, iChannel positions                        : Front: L C R, Side: L R, LFE
      v+ L+ b# d: ?) VSampling rate                            : 48.0 KHz! A3 U; k- }% ~! q; C0 Y; _! z' s
    Frame rate                               : 31.250 fps (1536 spf)
    $ _5 |& j/ W2 X* n3 [  T( ICompression mode                         : Lossy( D) i+ x. d1 e9 a2 i4 ^
    Stream size                              : 394 MiB (2%)
    # C7 t6 ?/ z5 i" oTitle                                    : Suicide.Squad.2016.THEATRICAL.1080p.3D.BluRaycd.Half-SBS.x264.DTS-HD.MA.7.1-FGT* U' V7 D' M7 ~. Q9 e
    Language                                 : Hungarian7 d3 O1 S2 @* {  `& U6 L
    Default                                  : No
      G) p2 F- ^- I0 \4 gForced                                   : No% h$ M1 u+ r: |+ w# |" g

    ' i2 W$ F8 u) z" l: T0 `Audio #55 T! ]" U5 _1 H' K) _
    ID                                       : 62 K% ?! y9 G/ H/ A6 G) Y9 S5 R4 h
    Format                                   : AC-3
    5 p/ A% _' h! c4 B' mFormat/Info                              : Audio Coding 30 a. D. Z; g' O
    Mode extension                           : CM (complete main)5 k2 y+ P4 a- a1 d0 l$ S* t# {) Z
    Format settings, Endianness              : Big; @7 O3 `: o9 S
    Codec ID                                 : A_AC3+ x6 P& ?( }% w
    Duration                                 : 2h 2mn
    2 h3 M5 m) ?) c8 v) E! g2 }4 x8 K, zBit rate mode                            : Constant2 M# Q) ]/ w9 {/ _* e; z
    Bit rate                                 : 448 Kbps
    3 l) Y4 E6 Q6 F' \* T; ?2 t  h/ n+ vChannel(s)                               : 6 channels
    * x7 A# H- V: E7 D# q2 G' c! A8 vChannel positions                        : Front: L C R, Side: L R, LFE
      D7 x# g1 J9 J  J) }1 q* }Sampling rate                            : 48.0 KHz0 z8 e) ?& a% ^7 N8 D3 z
    Frame rate                               : 31.250 fps (1536 spf)
    ( C2 H3 @' h0 ACompression mode                         : Lossy
    * i1 H: J# f: g+ Z) l/ J. s  m7 kStream size                              : 394 MiB (2%)( E6 C9 L. u% m$ O( S& L9 J5 S0 E# U
    Title                                    : Suicide.Squad.2016.THEATRICAL.1080p.3D.BluRaycd.Half-SBS.x264.DTS-HD.MA.7.1-FGT" R" e! m( Q$ `% l7 K1 N
    Language                                 : Polish/ D2 D$ l- g; |  h8 l
    Default                                  : No6 E) d( @0 {) h3 s% I% L1 T
    Forced                                   : No* C2 W# q/ P( f# h+ g+ ?+ P: U& X' X
    ( ~9 W0 v5 g# @! F* j2 p: x  O9 o
    Audio #6# _) K+ L7 N8 X
    ID                                       : 7
    ; f4 S- C' J, y) @. \* S* l& ?Format                                   : AC-3
    + \8 Z' X. D( {& ~Format/Info                              : Audio Coding 33 P" K! Y" v, _* i* N2 A  Y' S
    Mode extension                           : CM (complete main)
    / `& ]8 p% d9 ~Format settings, Endianness              : Big/ o1 L7 O9 F8 g! p' V2 D$ o
    Codec ID                                 : A_AC3
    # t# |- f+ N6 |% n6 yDuration                                 : 2h 2mn
    2 a4 t1 h; Y1 BBit rate mode                            : Constant
    5 f* b! F0 W/ ?# F8 X; C3 o( F1 d; KBit rate                                 : 448 Kbps* E2 `; W+ k( B
    Channel(s)                               : 6 channels# j  \. n1 R2 i8 b" K7 c
    Channel positions                        : Front: L C R, Side: L R, LFE8 Q. R: F( u. c/ P8 q; \( H1 a4 L4 [
    Sampling rate                            : 48.0 KHz
    / u9 H) J( Q& q7 Y. A: VFrame rate                               : 31.250 fps (1536 spf)
    ' E/ a5 p' ]/ x- j* N/ ICompression mode                         : Lossy
    * s  H, q0 ~% [9 n0 |: l' c' f$ }5 HStream size                              : 394 MiB (2%)
    ' Q+ r) ]& w% b: E( kTitle                                    : Suicide.Squad.2016.THEATRICAL.1080p.3D.BluRaycd.Half-SBS.x264.DTS-HD.MA.7.1-FGT
    % i! i$ e& t/ g! _' KLanguage                                 : Russian
    : `' T2 \- J2 Y5 y5 hDefault                                  : No0 l! v: f# D4 k8 f$ {# n
    Forced                                   : No
    4 {. W2 G2 X3 s+ d  c4 S" O( e/ d( _5 Y/ o! l4 a7 E( \  h% W
    Audio #74 o1 m# L; h8 C! z# j
    ID                                       : 8. g, z& {6 l6 g5 [) F! [- @, [
    Format                                   : AC-3- V; |3 J  r$ \. u  Y* X$ r
    Format/Info                              : Audio Coding 3
    - w& ]( \6 F/ P, h. n8 d8 CMode extension                           : CM (complete main)# }& f* r* w0 m) e6 r
    Format settings, Endianness              : Big
    , ^2 _, Y# T+ ~Codec ID                                 : A_AC3* y- w+ f0 l; Y8 G, o
    Duration                                 : 2h 2mn7 {9 h. N9 i4 L: x  A
    Bit rate mode                            : Constant9 r* }* d3 n$ Z8 e
    Bit rate                                 : 448 Kbps
    2 F& V' V0 B( F* S: w! n( ZChannel(s)                               : 6 channels/ z  `( K3 `# i( j1 q; o9 L
    Channel positions                        : Front: L C R, Side: L R, LFE) s: z# a2 \: t
    Sampling rate                            : 48.0 KHz8 v8 F! S. J3 w% s& A5 B' L3 B4 F. ?6 J
    Frame rate                               : 31.250 fps (1536 spf)9 s7 E7 z: b* i* V9 [
    Compression mode                         : Lossy
    : O5 S( s+ j' Y( N6 ~5 mStream size                              : 394 MiB (2%)
    $ R2 w% S6 P' l6 c2 fTitle                                    : Suicide.Squad.2016.THEATRICAL.1080p.3D.BluRaycd.Half-SBS.x264.DTS-HD.MA.7.1-FGT5 C  N3 n' U: f# i
    Language                                 : Turkish
    , }6 M: S* x/ L6 v. I4 iDefault                                  : No
    $ q) P0 |% S8 E( l6 \( NForced                                   : No$ k$ @3 v, h4 n5 k
    2 y9 g% i  Z8 T0 v! A5 b
    Text #1/ j3 @, L9 r0 z: }6 w, |0 ^
    ID                                       : 9
    / h/ ]6 u+ R) y7 z" [2 T: G$ ~Format                                   : PGS- V0 V9 R" v# H6 H3 p. i
    Muxing mode                              : zlib8 U/ o( ?- j. `3 f# j
    Codec ID                                 : S_HDMV/PGS& X3 d% B9 E) A7 |
    Codec ID/Info                            : Picture based subtitle format used on BDs/HD-DVDs
    4 p# V3 |! h8 j' W' PTitle                                    : English-PGS
    % E( e# U3 @* Z6 W, b, o& kLanguage                                 : English
    $ A% {, v+ H/ _, _Default                                  : No
    3 E( z( K5 q" B) VForced                                   : No
      {8 N3 T& d( ?: v# _8 M! ]9 _6 ~7 e$ w, O2 a
    Text #2
    9 s; X2 ^, g6 G) c9 HID                                       : 10
    8 |$ i* T# F) V" I4 [Format                                   : PGS
    2 \! N4 C1 j* }3 d/ ~- \0 g( P, H* Y: AMuxing mode                              : zlib- Y+ u1 f) e2 f+ U
    Codec ID                                 : S_HDMV/PGS4 F8 |+ }( r5 w1 f5 L! q
    Codec ID/Info                            : Picture based subtitle format used on BDs/HD-DVDs
    + ]+ M) B4 g9 i" o2 OTitle                                    : Korean-PGS
    9 o2 Q5 m' |- B! o- V0 u8 bLanguage                                 : Korean) f" i/ j$ v! I# P
    Default                                  : No- m' V8 B9 T% n  X5 u
    Forced                                   : No
    + y; ?1 E: u9 F
    3 X( W% c7 A% x6 P  @+ e0 Y; qText #3$ o( `! W% n8 j: Y) @9 T  J# O
    ID                                       : 11* @, T3 G! o1 [: K, s
    Format                                   : PGS6 B' A& W( ^! A
    Muxing mode                              : zlib
    & T: p1 s8 X- A1 y; PCodec ID                                 : S_HDMV/PGS. c+ ^, K1 q; P5 T! _3 u. y6 n
    Codec ID/Info                            : Picture based subtitle format used on BDs/HD-DVDs
    , m" \; N1 x. Y. _' lTitle                                    : Arabic-PGS* e. F3 [* o* k
    Language                                 : Arabic
    " R; r% n; {1 g" `Default                                  : No2 X5 g/ Y: U) [; Q' D9 @
    Forced                                   : No' V0 c9 m7 B" l
    / G% a- a, ~. X) H6 K
    Text #4
    ; q! h; }. ]5 r2 N/ F) UID                                       : 12  Y) G" Z' K7 \
    Format                                   : PGS
    ' d# W' i9 Q" y9 k- {Muxing mode                              : zlib0 C: g2 m0 f2 z4 |
    Codec ID                                 : S_HDMV/PGS
    , M" x8 H2 E4 s1 a# r4 n5 |8 wCodec ID/Info                            : Picture based subtitle format used on BDs/HD-DVDs, O% d: J  L; U% N7 X# d# R
    Title                                    : Croatian-PGS
    / e; B9 z) Q! C. |Language                                 : Croatian( L* Y1 ?3 F. d1 p
    Default                                  : No
    2 Q  `$ W; k7 w6 A3 vForced                                   : No2 s/ m8 t( O% B8 U5 O: ]
    6 I  Y% |0 J! |' t5 J0 |
    Text #5% E5 R  c* H" K/ `0 T0 c
    ID                                       : 132 ^  `0 \' \6 ?
    Format                                   : PGS- E7 O3 K" E+ ?$ f
    Muxing mode                              : zlib
    . i1 k# b0 Z. [' W6 |& M3 f8 cCodec ID                                 : S_HDMV/PGS
    3 q3 g* w! E* b2 @( E( T% gCodec ID/Info                            : Picture based subtitle format used on BDs/HD-DVDs% A8 [. H3 J' Y2 a& M* o1 d7 G6 ]
    Title                                    : Czech-PGS( _+ R& U- O/ Y. ^
    Language                                 : Czech. o+ s/ g/ L* A& ]) j
    Default                                  : No
      Y3 S9 b8 Y$ G4 E/ Q3 x- z" \Forced                                   : No
    + J* F1 ^9 B: G; m' @1 I% m% l4 Z+ j, v- ~; v8 g( }8 X
    Text #6
    ; V9 ^  j; q. m0 OID                                       : 14
    - y. {! Z6 A& c9 cFormat                                   : PGS2 }( t* X; U" u' V! b8 _2 L
    Muxing mode                              : zlib# Z% M4 @3 c0 {4 N, ?# [: `* L
    Codec ID                                 : S_HDMV/PGS3 k  E; p! d- O, U6 o  q
    Codec ID/Info                            : Picture based subtitle format used on BDs/HD-DVDs2 P7 z) r6 H' q9 k  \6 S% }; r* W5 z
    Title                                    : Estonian-PGS
    . @$ |- U; q3 f( j$ K' eLanguage                                 : Estonian  m, W) ]4 c5 w6 {: b- @5 [
    Default                                  : No
    - o* X4 ]* J% T: J3 C# VForced                                   : No
    4 y  b9 U! J( e/ c# X/ U" K+ ~$ E9 n  A; W
    Text #7, }' c0 W( t0 S  X, W4 d- J
    ID                                       : 15- l2 K  S( r8 l$ n2 x% q* R6 @
    Format                                   : PGS
    ( o+ Y1 m# j! n$ w. b) j( ~Muxing mode                              : zlib
    / e7 b, N* ~# h& W2 TCodec ID                                 : S_HDMV/PGS" l7 E6 B! e9 \  Q; {" R  x
    Codec ID/Info                            : Picture based subtitle format used on BDs/HD-DVDs/ s8 j% ]6 r  p: G
    Title                                    : Hebrew-PGS
      U$ _0 N& `  p% qLanguage                                 : Hebrew
    $ W" `9 k; a3 _6 m; {' G% l" @4 ?Default                                  : No; \: `) n& m# g0 h6 b& l
    Forced                                   : No
    8 ~6 Q" ]0 o; n8 S# F: A1 }: M* R: S, j( g9 Z
    Text #8
    7 S- ?* \+ F* w/ L% K% l: tID                                       : 16" p/ |3 G3 q( E# ^; z* g
    Format                                   : PGS7 l- {* x0 C6 S
    Muxing mode                              : zlib
    - W% K+ r, V; h  bCodec ID                                 : S_HDMV/PGS
    3 N( A- T+ @3 `3 TCodec ID/Info                            : Picture based subtitle format used on BDs/HD-DVDs' `3 q2 M; @! U
    Title                                    : Hungarian-PGS
    $ k' d: Q1 e4 ?+ d* JLanguage                                 : Hungarian% D3 o7 L6 q2 z
    Default                                  : No9 K6 w6 N9 y, q
    Forced                                   : No
    ! h) A& C) A7 D) B5 @8 a! ~, m1 g* C$ {1 Z
    Text #97 m+ l: N& ~% X
    ID                                       : 17
    & K3 F- L8 v. \Format                                   : PGS$ \: J9 m& y% n( ?
    Muxing mode                              : zlib
    ) T0 L5 e0 `8 @3 t$ [& E1 mCodec ID                                 : S_HDMV/PGS6 e: c4 H+ q! z) J
    Codec ID/Info                            : Picture based subtitle format used on BDs/HD-DVDs
    & C2 F$ n3 b6 Y; v( t% S1 ITitle                                    : Latvian-PGS
    6 O$ Q# I* W2 m. V) h6 K* dLanguage                                 : Latvian
    * c6 B2 f2 ]7 l6 }: xDefault                                  : No2 m; a. U+ N1 g# L8 t, B
    Forced                                   : No
    / Z8 u1 c  V: h5 P  @% O
    " m2 L# V% e, G- D/ i$ xText #10
    ! c4 K$ y5 b- O( i5 FID                                       : 18
    * w0 R7 [6 S9 x! n# x) Y; nFormat                                   : PGS
    " ?3 N$ i' ]8 aMuxing mode                              : zlib% N" I, _5 L3 ^9 A, w" z. l! H
    Codec ID                                 : S_HDMV/PGS
    . ?4 K' s$ q9 g& x# gCodec ID/Info                            : Picture based subtitle format used on BDs/HD-DVDs
    ) \3 G3 {  y" U, C$ ZTitle                                    : Lithuanian-PGS& G  ?3 V) e/ [, I
    Language                                 : Lithuanian0 V1 `1 C9 C' G7 G- \  N; q  _
    Default                                  : No
    7 I( D5 `  r! D- h0 r' n/ pForced                                   : No
    0 J( u1 u$ e  B, X4 m! g( T4 Z# O& e" q3 x4 ]+ [; m* V6 b& k
    Text #11( V; Q$ ^6 i0 F" T# a  v; H
    ID                                       : 19
    - ^" m2 v8 t/ I% W! `( FFormat                                   : PGS1 O) _/ d! h# f7 W; a" D
    Muxing mode                              : zlib
    - B% v  F, h2 X. ~' w! mCodec ID                                 : S_HDMV/PGS' r0 A3 x5 z6 ~9 B$ K
    Codec ID/Info                            : Picture based subtitle format used on BDs/HD-DVDs
    1 O$ k7 c4 i1 }8 BTitle                                    : Polish-PGS& I8 M, o3 }$ W) |1 p
    Language                                 : Polish
    3 F7 b5 N$ E+ o6 w% n) D* ^Default                                  : No
    7 l7 Z9 v  z& P3 j: X* f3 m  W( G" |Forced                                   : No$ D! j2 j/ A: N7 m

    ) x: F3 l; }/ a! a) Y! C. mText #120 C  m, @: E7 ~' F5 J! d$ L
    ID                                       : 20
    " L+ l. g  ]7 G+ P8 p3 g/ yFormat                                   : PGS4 d9 i6 h2 F+ _+ e* P$ `
    Muxing mode                              : zlib/ e% y( C& y! K" d, \( u
    Codec ID                                 : S_HDMV/PGS
    ' O8 _% h/ e7 ^0 u$ qCodec ID/Info                            : Picture based subtitle format used on BDs/HD-DVDs- f: q8 ^; l: q9 p- N+ H8 o% I/ j
    Title                                    : Portuguese-pGS3 ^5 L' F1 f7 ]% n
    Language                                 : Portuguese
    2 `+ F7 d  M5 w% g1 L5 c2 R* E# MDefault                                  : No
    + c3 U* S( t9 H$ S3 y# a, }Forced                                   : No
    1 l: P% o) P- u* h2 M" C" D1 N# R& O( F, u( Q9 n5 M
    Text #13# P% s* t& G$ ]2 b2 z
    ID                                       : 21
    / {( m# D8 b5 r4 k3 Q" F  sFormat                                   : PGS5 ~1 \$ Z- l9 q" {8 O" S
    Muxing mode                              : zlib
    6 ~0 w3 K; W0 K! E6 m" z. G2 NCodec ID                                 : S_HDMV/PGS
    ( a, M! ^% V! x$ ^# Q4 @1 j, zCodec ID/Info                            : Picture based subtitle format used on BDs/HD-DVDs. ^! `1 [" m) `+ F
    Title                                    : Romanian-PGS
    - ?6 a- H( k5 }: j& nLanguage                                 : Romanian- Y1 q% d# U$ k6 ]6 d: z3 }
    Default                                  : No
    . }& i4 E+ z5 g: `, o8 @Forced                                   : No" B# A6 A. {" @# S
    ( P# p$ _- ~: v
    Text #14
    & r+ }+ H+ p4 e2 A- K( e7 uID                                       : 225 d( P3 h+ ]$ d+ `( Y/ ^
    Format                                   : PGS% i: \9 h) v( V6 G: _- q8 E* A3 b
    Muxing mode                              : zlib" f6 o5 p1 j( d% Y" I/ c
    Codec ID                                 : S_HDMV/PGS
    ( r" ], H2 L. r2 Y" Y, T4 ZCodec ID/Info                            : Picture based subtitle format used on BDs/HD-DVDs- |* V$ ?+ I" f" L6 L; Z
    Title                                    : Russian-PGS  c  |+ e" Q; _- t( F4 j7 ?5 N7 M
    Language                                 : Russian& P1 x) R& ~' w6 n8 L
    Default                                  : No6 k& V5 \7 v' p' ]) S! G
    Forced                                   : No
    % y3 @1 M- B% T3 z  P8 }1 U0 F  c- k4 T5 M+ E* M
    Text #15' t8 e$ F2 Z, H- w
    ID                                       : 238 b9 t/ k/ g7 ~7 o3 D" \( A* Y
    Format                                   : PGS. _1 {+ `/ l* V
    Muxing mode                              : zlib
    3 j# |- C/ \" i  ]. Q, @Codec ID                                 : S_HDMV/PGS
    . ^* ^/ g; O$ e3 I) x5 ECodec ID/Info                            : Picture based subtitle format used on BDs/HD-DVDs
    6 b! {5 m: m. Q7 l) F: y6 tTitle                                    : Slovenian-PGS- d# ]) d1 l' c% d* Y) C
    Language                                 : Slovenian
    1 L/ r- J, p. l9 _; G; ]" E$ ^Default                                  : No# R5 d9 v) g1 L" ]3 N1 N( Q3 Q
    Forced                                   : No6 }7 a$ L2 ]$ i" F  k5 E2 V! a" G

    ; T9 w2 G. F; M4 f, @Text #169 j; R* z+ b0 L6 x: O- R8 R
    ID                                       : 242 b1 f' }, M2 x1 Q
    Format                                   : PGS# f$ x% a5 b: J! f/ G
    Muxing mode                              : zlib. v+ N6 B: |: F4 _5 o9 }- [9 s
    Codec ID                                 : S_HDMV/PGS' c& `1 I3 E. s1 \+ _, q( o
    Codec ID/Info                            : Picture based subtitle format used on BDs/HD-DVDs
    " i  b" F* C3 g( aTitle                                    : Turkish-PGS
    2 C( ]9 V( c3 I6 G" ~6 r1 cLanguage                                 : Turkish2 k. y6 o. a/ i7 m. S
    Default                                  : No
    ( u+ |* O( x9 E) r0 KForced                                   : No
    4 o3 f4 X7 A% b9 s
    ) B! {- q1 O# tText #17$ r1 B! h- V" D" y: T1 t
    ID                                       : 25
    & I: K! e+ _$ r& p1 ~Format                                   : PGS5 [$ Y0 B3 ~4 W% x) }0 x
    Muxing mode                              : zlib
    6 L  \1 @& {# Q. O) z* _Codec ID                                 : S_HDMV/PGS' o. s. P  f! V$ z8 Q! V% Z! O
    Codec ID/Info                            : Picture based subtitle format used on BDs/HD-DVDs# R: q2 E) c2 R7 o6 S3 X- W& c
    Title                                    : Czech-FORCED_pgs
    $ {. f7 e3 f' w# CLanguage                                 : Czech) {: n" n2 @# Z- Y% V
    Default                                  : No
    : m' u2 n' r' lForced                                   : No$ a" ~" M, E, b: [1 c) Y. y- t

    5 g& J3 m) H( m9 q6 H1 U/ H) dText #18+ A% {3 A; d9 W( M
    ID                                       : 26
    4 s1 h* `  s  t! G6 E# IFormat                                   : PGS; |7 U* |, t1 @- v0 Y. e9 C+ D
    Muxing mode                              : zlib
    . B! G0 r2 h( W. Y/ o' _Codec ID                                 : S_HDMV/PGS) J& E7 R  Y! ^- P3 n' H
    Codec ID/Info                            : Picture based subtitle format used on BDs/HD-DVDs
    4 }: S, ?; Q4 K" D2 E. BTitle                                    : Hungarian-FORCED-PGS
    8 D, u9 t$ ~7 zLanguage                                 : Hungarian
    + M5 D8 {2 H4 F( L' W( FDefault                                  : No
    8 k1 ^0 t6 R/ I& v) ZForced                                   : No" H; z7 K9 @6 m4 q, _% m
    + o$ ^! W* N& O  R  G, l
    Text #19
    0 |2 H- Y6 H5 z. J& X. G1 DID                                       : 278 n' A* _& t6 i  a9 L8 x5 C
    Format                                   : PGS
    4 h. r- y- L& V- p- \* o0 pMuxing mode                              : zlib
    ' C; ]8 [$ @$ s* u1 h, ?0 G2 tCodec ID                                 : S_HDMV/PGS5 T9 D& B% f5 R" a2 S. |
    Codec ID/Info                            : Picture based subtitle format used on BDs/HD-DVDs8 S. e% f1 y+ W
    Title                                    : Polish-FORCED-PGS
    6 O6 z, C, ^  H5 n2 l+ qLanguage                                 : Polish
    0 b, C/ J6 d: I9 BDefault                                  : No
    " X6 s+ ?0 l$ O4 Q$ WForced                                   : No* Q/ ~& s$ @8 }
    ) |4 f/ h$ l* @+ d: P0 O
    Text #20
    5 H" P9 W/ P$ ?4 U- W/ |0 x  VID                                       : 286 h! H3 C  j& B- a
    Format                                   : PGS/ U! V8 y) d7 D6 @5 x1 {
    Muxing mode                              : zlib
      R2 j- W+ x! [' W9 ?% H" v: tCodec ID                                 : S_HDMV/PGS
    + x9 h$ c3 l" z; P) I3 e- T4 P9 lCodec ID/Info                            : Picture based subtitle format used on BDs/HD-DVDs7 S  e+ J+ p$ E% u5 M5 ^/ m
    Title                                    : Russian-FORCED-PGS9 V1 B0 b/ V6 a- u" Y0 Y) f- I
    Language                                 : Russian
    - n3 T% V; [5 \" y9 yDefault                                  : No: x) D1 _6 f2 y+ ~! E  F, H
    Forced                                   : No
    / v) g, R3 o2 i# G2 i/ `
    ( g0 y/ n7 Y- r/ p$ W% ?Text #21
    8 e- G9 _1 c' ]" G; eID                                       : 29
    9 |2 h( Z% X6 H, q; }7 m5 hFormat                                   : PGS, ~. n. I. o- N' m6 }. `9 w
    Muxing mode                              : zlib
    ; c# g$ \! o. v9 B9 t+ }Codec ID                                 : S_HDMV/PGS) j0 E* t+ a( V( h
    Codec ID/Info                            : Picture based subtitle format used on BDs/HD-DVDs; G% A$ d3 v# c+ U# h
    Title                                    : Turkish-FORCED-PGS1 b. R1 \4 Q' u: T; Q- N& v* B5 ]6 ?
    Language                                 : Turkish7 @) ~6 D3 _6 Q7 b
    Default                                  : No7 b  Y" Z/ t# d" w4 A1 P# ]' s
    Forced                                   : No* U$ n/ K, P; [5 }  {, P

    : C! p& U, j: d8 j, {4 IMenu
    7 |% T! b( w$ z% ^3 _9 a" S00:00:00.000                             : en01)00:00:00:000% k1 h5 q& S0 O9 n* g  _, o( ~
    00:09:07.505                             : en02)00:09:07:505
    , e6 _% a3 y/ y' v00:19:03.725                             : en03)00:19:03:725
    / M) N2 J5 ]. }00:29:27.140                             : en04)00:29:27:1409 n1 F) D$ Y. N) Q6 K4 {. l: w* y
    00:39:17.313                             : en05)00:39:17:313$ H9 a; l3 h" A& W/ U# i
    00:50:21.226                             : en06)00:50:21:2265 t' g; C# K) I& {$ C
    01:00:10.106                             : en07)01:00:10:106
    & n6 m% _. b  g9 `01:11:46.927                             : en001:11:46:9270 ^( }: }& K3 F: t
    01:22:46.127                             : en09)01:22:46:127
    ; c  W. ~' ?+ r3 ]2 X1 f9 s01:32:01.098                             : en10)01:32:01:098
    9 u  ~/ m2 n, h. Q( V01:39:21.830                             : en11)01:39:21:8302 T7 w1 ]: V0 v/ ]2 U4 @5 N
    01:52:27.991                             : en12)01:52:27:991
    9 }' d2 v1 D% G9 O2 R# z# N1 M7 n02:02:53.240                             : en13)02:02:53:2408 M, v8 l3 L$ u5 E& {* f
    * [: w- a; u3 m- e: `/ T
    Notes : 4 X- ~* q/ W1 p5 s; [- M
    Converted the TrueHD 7.1 track to DTS HD-MA 7.1.
    Video! v2 U. P0 J' U' @) d
    ID                                       : 1
    ) M  U+ W2 q# F# W+ B& g6 x* w( mFormat                                   : AVC% P8 R% B' }; y; q$ R9 u+ K
    Format/Info                              : Advanced Video Codec
    % ~8 Q6 {# D6 O6 H1 _Format profile                           : [email protected]
    + X& D$ H) g; d- I% c# ^( eFormat settings, CABAC                   : Yes7 y, M( A$ g, Z" I' k$ _
    Format settings, ReFrames                : 2 frames2 N: ~7 X- Z  H0 o0 Z  n
    Codec ID                                 : V_MPEG4/ISO/AVC- _/ S  P; a" j: \  i- J8 a- C
    Duration                                 : 2h 2mn# Y3 Z4 J& M( j. S1 ~
    Nominal bit rate                         : 15.5 Mbps
    , k: Z, l, ^) ^" A( a% yWidth                                    : 1 920 pixels
    8 H& _( P; ]7 P. u! qHeight                                   : 1 080 pixels
    " ^5 c% M! @2 RDisplay aspect ratio                     : 16:9
    ; }$ U/ ]( ]* v( UFrame rate mode                          : Constant
    - ^0 v, ^: h% }7 ~. TFrame rate                               : 23.976 (24000/1001) fps
    / I( g+ B+ a; F& n% S) ^Color space                              : YUV
    * p6 |! s/ U8 zChroma subsampling                       : 4:2:0; p) Q8 m0 N& |. V0 |) ]& w
    Bit depth                                : 8 bits' ]- e" N1 _8 f) w  Z- I: o* s1 A
    Scan type                                : Progressive3 G8 M7 A, i) ]' t( x' c  e
    Bits/(Pixel*Frame)                       : 0.3120 K) |$ s/ J  [5 Y! D0 }
    Title                                    : Suicide.Squad.2016.THEATRICAL.1080p.3D.BluRaycd.Half-SBS.x264.TrueHD.7.1.Atmos-FGT
    ! z2 I1 M- h( Q2 k6 d" yWriting library                          : x264 core 142
    9 Q5 B: }6 l( QEncoding settings                        : cabac=1 / ref=1 / deblock=1:-1:-1 / analyse=0x3:0 / me=hex / subme=5 / psy=0 / mixed_ref=0 / me_range=16 / chroma_me=1 / trellis=0 / 8x8dct=1 / cqm=0 / deadzone=21,11 / fast_pskip=0 / chroma_qp_offset=0 / threads=8 / lookahead_threads=2 / sliced_threads=0 / nr=0 / decimate=1 / interlaced=0 / bluray_compat=0 / constrained_intra=0 / bframes=2 / b_pyramid=0 / b_adapt=1 / b_bias=0 / direct=1 / weightb=0 / open_gop=0 / weightp=0 / keyint=24 / keyint_min=13 / scenecut=40 / intra_refresh=0 / rc=abr / mbtree=0 / bitrate=15500 / ratetol=1.0 / qcomp=0.60 / qpmin=0 / qpmax=69 / qpstep=4 / ip_ratio=1.40 / pb_ratio=1.30 / aq=1:1.00% L1 n% |& N: ^# Z* ~. I. h! ~
    Default                                  : Yes
    1 _; L  g$ \  n6 F! G. L3 uForced                                   : No
    - N7 n% F$ X; U0 i+ U0 u, q0 o+ l5 jColor range                              : Limited$ u6 l1 k; i' @: }4 r1 G* c- Q
    Color primaries                          : BT.709
    . O8 B9 j8 P7 M+ \# o! h; Y: R' RTransfer characteristics                 : BT.709" @( l+ c0 w7 ]. M: B: a7 y
    Matrix coefficients                      : BT.709& v% ^" a8 h2 ~2 d  E3 ^

    1 M( L/ U- e+ p3 O+ A8 B& I3 hAudio #1. m, {! H$ U: |2 @' i$ I
    ID                                       : 24 f7 |1 a( t5 ?. J- g) V7 b
    Format                                   : Atmos / TrueHD, o& F* U( O" R6 [5 k$ O
    Codec ID                                 : A_TRUEHD
    8 N3 k" i% w1 z" iBit rate mode                            : Variable3 M2 ?/ u4 a0 ~# v8 _) J
    Maximum bit rate                         : 5 847 Kbps3 l5 m/ t+ \$ J
    Channel(s)                               : Object Based / 8 channels& I  U. b3 {( d' R' g* h
    Channel positions                        : Object Based / Front: L C R, Side: L R, Back: L R, LFE
    & |- i, `" D2 Q4 {6 ~Sampling rate                            :  / 48.0 KHz
    ; G# x# m0 g* U+ t. G# e$ GFrame rate                               : 1 200.000 fps (40 spf)) U/ x9 A+ I6 N
    Compression mode                         : Lossless
    7 n) W) w4 v! |4 F9 s+ x' XTitle                                    : Suicide.Squad.2016.THEATRICAL.1080p.3D.BluRaycd.Half-SBS.x264.TrueHD.7.1.Atmos-FGT
    - `% g$ r: @, S9 P* [# cLanguage                                 : English, v  l% o, ^: T* }
    Default                                  : Yes
    # K8 i+ s" ?/ C  a  s: gForced                                   : No- C2 }2 J  H8 s  W2 F$ U

    - W9 O/ N' A. l7 NAudio #2
    & S- z4 v1 }" |: VID                                       : 3
    . N8 L1 B8 x" Q+ R  LFormat                                   : AC-3
    ' i; A' g! |, @- Y7 F6 f! v  X9 zFormat/Info                              : Audio Coding 3
    : Y8 s- E$ n# g3 |* QMode extension                           : CM (complete main)7 Z! {) R1 e8 u* U) [' A( _
    Format settings, Endianness              : Big
    * j, H  w6 I9 p( d1 ?9 lCodec ID                                 : A_AC3
    & {  y; S" |0 g& NDuration                                 : 2h 2mn6 Q, O7 T7 }: U! r' \8 L& B7 f- W/ Z0 Y
    Bit rate mode                            : Constant0 y6 I! S. \2 p" _7 W/ I; C4 e
    Bit rate                                 : 384 Kbps
    1 t3 q5 D8 F8 [% JChannel(s)                               : 6 channels
    / B  N1 u( N% z- d& t. aChannel positions                        : Front: L C R, Side: L R, LFE5 i0 s: g$ m: M  W4 u2 x; w
    Sampling rate                            : 48.0 KHz, C, J( z  i, G) {
    Frame rate                               : 31.250 fps (1536 spf)
    # C( t8 H. v( ]Compression mode                         : Lossy
    / h; O( M" e% L" |Stream size                              : 338 MiB (2%)" y, F& v  H+ S8 ?: m  D" z6 N  x
    Title                                    : Suicide.Squad.2016.THEATRICAL.1080p.3D.BluRaycd.Half-SBS.x264.TrueHD.7.1.Atmos-FGT
    " p" f+ h$ _, I" |# }1 _4 P: K" YLanguage                                 : English, {' t+ w/ Y8 N1 g- q) w0 k. f
    Default                                  : No
    " i4 v! v- c" O* Y- p: Z' Y7 k0 e3 ]Forced                                   : No
    2 o. l+ v: x% i+ }0 Q6 X" x. b7 v4 ?) h4 D. |3 q' T' |3 L
    Audio #3
    . ?* q( Z1 W' p3 P6 u$ M7 I1 G) p. uID                                       : 4% }, ]; A! @0 h3 h
    Format                                   : AC-3& Y5 @7 w/ q$ x# x$ C: F  n
    Format/Info                              : Audio Coding 3- @0 ~/ E0 b4 C) n
    Mode extension                           : CM (complete main)
    % j$ x8 f3 m! G8 x9 L1 ~7 CFormat settings, Endianness              : Big) D; x7 V; q# \/ u- w2 \
    Codec ID                                 : A_AC3& v0 R' ]$ b* C
    Duration                                 : 2h 2mn! L% F+ h) c) P" B. O- }; B
    Bit rate mode                            : Constant
    3 e3 x- h" }) dBit rate                                 : 448 Kbps; J& o' L7 G/ |+ Z3 Y/ P0 R7 j$ j! J
    Channel(s)                               : 6 channels; H8 o  Q. a7 g5 z" y; T
    Channel positions                        : Front: L C R, Side: L R, LFE7 r: ?4 V/ E, g
    Sampling rate                            : 48.0 KHz
    7 B1 Y+ l+ y# A" e! D( d3 S! [2 CFrame rate                               : 31.250 fps (1536 spf), R$ q6 Z1 k. ~( W% b
    Compression mode                         : Lossy( v& o5 g2 i+ @8 l1 B
    Stream size                              : 394 MiB (2%)& Y# ]# I, o0 ^5 @" [. e, u, O
    Title                                    : Suicide.Squad.2016.THEATRICAL.1080p.3D.BluRaycd.Half-SBS.x264.TrueHD.7.1.Atmos-FGT3 X3 b  _/ q* s' G% Q
    Language                                 : Czech
    7 W9 l6 g: a$ C2 p1 G( \8 lDefault                                  : No/ ]4 T, Q: M5 `) Q3 z- R; g& o2 h  U
    Forced                                   : No
    " V# J! p! L9 a& x' B" d( i6 P
    - q- y! t/ B1 ]1 X+ pAudio #4
    7 z4 d9 |1 e) uID                                       : 5
    9 ]8 L% t+ c& P0 t& }. mFormat                                   : AC-31 Q2 F8 g7 R' A8 y( E
    Format/Info                              : Audio Coding 3
    , T9 a2 j$ m- d1 `- p0 F5 T' S0 |Mode extension                           : CM (complete main)/ l: y. e% O! E/ p
    Format settings, Endianness              : Big
    + ~  q8 Z  }' bCodec ID                                 : A_AC3
    3 Z# ^) T9 Q2 ~Duration                                 : 2h 2mn. q6 E- Q5 \+ C) u8 i  v; V
    Bit rate mode                            : Constant
    1 n0 p; `# p5 D) l; vBit rate                                 : 448 Kbps
    " k* R- n  W; X, g# Q, {- {% DChannel(s)                               : 6 channels/ p8 w; @2 U2 O( D$ g
    Channel positions                        : Front: L C R, Side: L R, LFE2 H6 s: g$ A* p4 E
    Sampling rate                            : 48.0 KHz
    9 z% J7 \4 ^7 C" L6 F. P" TFrame rate                               : 31.250 fps (1536 spf)7 @1 k7 W% g( a4 d  T* U
    Compression mode                         : Lossy9 g4 R( C4 P! S9 o
    Stream size                              : 394 MiB (2%)
    & b7 g# k3 f  d+ h: F9 QTitle                                    : Suicide.Squad.2016.THEATRICAL.1080p.3D.BluRaycd.Half-SBS.x264.TrueHD.7.1.Atmos-FGT
    . w8 q2 v( `$ }Language                                 : Hungarian& j; k; z9 N# d/ a  W  l
    Default                                  : No; Q6 p$ b$ N+ f5 J1 E
    Forced                                   : No- s, r: j9 M+ i

    & z: d: `3 f; i/ T8 O: z* s: rAudio #5
    % k- d$ x. \' B1 R' c3 F6 sID                                       : 6
    8 B7 t$ X2 l, V+ OFormat                                   : AC-3" X8 ?9 T5 p, s6 V) g+ K7 u' N
    Format/Info                              : Audio Coding 3
    ; \6 ^0 d5 u7 T$ L& y: pMode extension                           : CM (complete main)+ \- P' t0 K3 ~  ?! m6 C& \! s
    Format settings, Endianness              : Big: s  M* A! W  ?3 \1 Y
    Codec ID                                 : A_AC3
    8 n1 k! K: P% n+ F' [6 _Duration                                 : 2h 2mn
    5 B( k* s3 u/ P2 l( H) v3 E+ HBit rate mode                            : Constant
      t0 p( I2 Y  t3 d  [Bit rate                                 : 448 Kbps
    / T( H) D6 }7 A" w% W0 `, cChannel(s)                               : 6 channels6 k3 K6 r$ u" E- o
    Channel positions                        : Front: L C R, Side: L R, LFE# C' h6 {/ `& y9 q, ^' {
    Sampling rate                            : 48.0 KHz
    & s9 L9 n' o5 S, `* c, S  a& vFrame rate                               : 31.250 fps (1536 spf)% p" B6 }( s  _, X1 Y$ w  O; V
    Compression mode                         : Lossy
      T- h: e( R0 x) F7 B! t+ PStream size                              : 394 MiB (2%)
    ; _. W+ g- Z5 ATitle                                    : Suicide.Squad.2016.THEATRICAL.1080p.3D.BluRaycd.Half-SBS.x264.TrueHD.7.1.Atmos-FGT7 w' Q, a# O+ W! N
    Language                                 : Polish' p4 {! Y% R7 d' H1 F# }# o
    Default                                  : No
    : U) L6 {9 f0 z. Q: S# r0 _Forced                                   : No( R# i3 V0 Y7 A; u9 l
    , F0 i& o+ |& i$ N6 S% {
    Audio #6
    / c( U5 K  u) H+ c9 f# V9 l3 ?$ dID                                       : 7
    0 q6 I4 s" O8 ^& {5 O) xFormat                                   : AC-3
    ) Z& V# g* W; H* B/ l2 m! aFormat/Info                              : Audio Coding 3
    9 ]0 O, ]/ j$ [- K! S/ `Mode extension                           : CM (complete main)
    : N! J* C* r5 _Format settings, Endianness              : Big
    7 H6 W& t3 ~2 {. M6 v+ E5 r, i+ UCodec ID                                 : A_AC3- I' h2 S0 O( h4 D
    Duration                                 : 2h 2mn
    8 ^7 ?* R# A' w& n( I" A( Q8 Q7 {# ABit rate mode                            : Constant
    . G: g( j* ?* `9 b9 u6 J, A' L+ E3 ABit rate                                 : 448 Kbps: z/ T4 e! I" o
    Channel(s)                               : 6 channels  ?- w5 d( q6 P) p! y6 P7 s5 t0 c
    Channel positions                        : Front: L C R, Side: L R, LFE
    1 f2 Q: c' q  q8 T/ F( L  ~Sampling rate                            : 48.0 KHz/ p- u' W/ O; [( u
    Frame rate                               : 31.250 fps (1536 spf)# O; t& L8 J9 X( F' p
    Compression mode                         : Lossy
    # E- k# P' W; }& _- Q' {4 YStream size                              : 394 MiB (2%)
    8 ?6 o" P  _, eTitle                                    : Suicide.Squad.2016.THEATRICAL.1080p.3D.BluRaycd.Half-SBS.x264.TrueHD.7.1.Atmos-FGT  _- ~4 L7 L& q. r
    Language                                 : Russian
    5 S! k+ K, ]) i) U/ ODefault                                  : No
    & n/ @  V. g  u; v  p( j) NForced                                   : No
    + ^, S7 L- o2 H3 y8 S/ o. K2 Z5 Y* d% n6 x
    Audio #70 h) T- t) _- V+ R1 K' N
    ID                                       : 8
    & U6 N% _' q% w0 X& ~8 ~: vFormat                                   : AC-3' {: B9 W! t' U  Q! m
    Format/Info                              : Audio Coding 3
      F; w* c8 P7 J& o# Y. t; K9 t1 eMode extension                           : CM (complete main)
    6 m* R+ H8 s0 }5 c# B& Q8 V9 hFormat settings, Endianness              : Big
    1 `6 \! A& M' t" d1 QCodec ID                                 : A_AC3
    # f1 v: l. ]% r1 B0 k% eDuration                                 : 2h 2mn. z' f' b5 `9 }7 G( d
    Bit rate mode                            : Constant* T4 p9 ?6 x+ r, F! t/ ^. m
    Bit rate                                 : 448 Kbps) y8 K9 {# \7 P9 G0 N, F
    Channel(s)                               : 6 channels' `+ O, D, o2 V+ u
    Channel positions                        : Front: L C R, Side: L R, LFE0 z5 W9 A* T9 X, \
    Sampling rate                            : 48.0 KHz$ p; W# n# ?  X  u$ _; l
    Frame rate                               : 31.250 fps (1536 spf)/ w9 s# u* C2 G& h+ [
    Compression mode                         : Lossy9 U' k' Y2 X# ?! C& ^' a- N9 s) D
    Stream size                              : 394 MiB (2%)" K- D4 o4 ~, u# o; V4 x- A$ H
    Title                                    : Suicide.Squad.2016.THEATRICAL.1080p.3D.BluRaycd.Half-SBS.x264.TrueHD.7.1.Atmos-FGT  u/ Z  ^' t  N2 H! v* S$ c/ |
    Language                                 : Turkish
    2 v& E8 G- P% Q. f- B& WDefault                                  : No
    / z& i# [5 b# g" RForced                                   : No
    5 V' j9 K2 ]; ?* Z7 W; x$ C
    8 e! \7 F* g- x. ^7 e# W' oText #1
    9 b& i: j( m# d0 j3 NID                                       : 9
    0 c2 l* t; J/ Z0 OFormat                                   : PGS
    ; X9 ^* |2 B( ?. r# R: HMuxing mode                              : zlib5 T$ X9 \/ A: j9 J. u2 {  h0 t
    Codec ID                                 : S_HDMV/PGS% d* c$ Y8 l1 E7 R; [
    Codec ID/Info                            : Picture based subtitle format used on BDs/HD-DVDs
    # R8 L0 P  c! U4 HTitle                                    : English-PGS
    ' P: N  ~3 t7 @! V& W/ B0 jLanguage                                 : English! V- S' E; v: h$ E. y2 y5 b; p
    Default                                  : No
    / k9 r& \$ i% z% Z+ O4 {* oForced                                   : No
    ' B( b0 t3 I( C) {) g/ F+ Z' {4 C" [6 e
    Text #28 J: H2 I5 q0 m2 N* w+ o# ]% D# j
    ID                                       : 10
    ) w" F0 B, m3 c& @3 B! y5 rFormat                                   : PGS
    + B/ b8 I( r. H! PMuxing mode                              : zlib! u0 R  y; K, j
    Codec ID                                 : S_HDMV/PGS
      C- A. R" L  `% X' p6 x0 Y' H# p+ \Codec ID/Info                            : Picture based subtitle format used on BDs/HD-DVDs& R' `2 r$ T- P; w  O" b6 `
    Title                                    : Korean-PGS: D: Y) p9 N9 e0 N, S" `
    Language                                 : Korean
    6 |  F- m# P: @  x$ A% jDefault                                  : No
    * Z- _. [  c6 W$ W; K* OForced                                   : No
    " J/ I2 ]$ f3 f4 o9 R, H
    6 d) S: @6 M. d% b  ?3 ]; kText #3& G$ T: o4 l  Y( l# m
    ID                                       : 11) Q( l6 P3 W, t! S. J; |. b: Y
    Format                                   : PGS' I' _+ E% |/ c- R9 ?& ~, u$ D
    Muxing mode                              : zlib
    ) `3 J/ g  a6 X, _' P2 bCodec ID                                 : S_HDMV/PGS9 y5 M6 ^+ j% K- Y' N9 z4 b
    Codec ID/Info                            : Picture based subtitle format used on BDs/HD-DVDs+ v3 ]8 g; ]- ~3 b
    Title                                    : Arabic-PGS
    * e. W6 N0 d2 I: l% q, A! }4 hLanguage                                 : Arabic
    1 P  U9 A6 N5 Z  |: p& fDefault                                  : No3 a6 [' t' h' b
    Forced                                   : No
    2 K( W3 C  v3 _
    1 l- j4 G% y, @$ Y* x& zText #4
    5 E" R6 k$ G( U# I2 cID                                       : 12
    ) J0 e. W$ w4 W9 R# V& Q5 @1 wFormat                                   : PGS4 I/ [, M; y5 Y  c6 y
    Muxing mode                              : zlib  J. e$ L" y" K% S# l3 R* S  d
    Codec ID                                 : S_HDMV/PGS
    , b+ u& U7 V! v! n! i3 u2 nCodec ID/Info                            : Picture based subtitle format used on BDs/HD-DVDs
    - o5 R: Y9 K$ e3 {! Y1 f% @Title                                    : Croatian-PGS
    * B5 V' s: Q( oLanguage                                 : Croatian! m: E& g. x; d0 e
    Default                                  : No4 j9 E1 V2 @' U0 i
    Forced                                   : No
    0 z+ ?" e4 ]8 f% t' Z! I3 F0 W) F4 D- }2 F5 W
    Text #5
    . {8 M1 q$ ~; x' X$ nID                                       : 132 e, f. d/ L9 F0 S  X- ?
    Format                                   : PGS
    + o" E' }7 |! Y- B5 v( W1 hMuxing mode                              : zlib
    ) ]$ O& w$ H" G0 B- ^) V  kCodec ID                                 : S_HDMV/PGS) o9 r: A- [' H5 M/ h8 c5 b
    Codec ID/Info                            : Picture based subtitle format used on BDs/HD-DVDs
    7 o4 t7 `8 }3 P5 E: l: u7 L  ATitle                                    : Czech-PGS+ D( U$ |6 H* y
    Language                                 : Czech0 N9 o7 A  ~. ^% N( M
    Default                                  : No9 F( k0 d$ E+ z& d$ E; v
    Forced                                   : No) _* }; H4 [6 A' Z# H: B' h

    1 |1 P3 T% S+ h$ n0 l$ y+ SText #68 C2 \7 v! C% ~" f
    ID                                       : 140 b9 @$ Y0 m4 Y
    Format                                   : PGS
    8 S$ x$ ]; I6 L% @% T0 A$ QMuxing mode                              : zlib
    4 l( F8 ]4 T* F3 ^1 U8 Y0 ~Codec ID                                 : S_HDMV/PGS
    + [7 T6 \3 O* O/ U4 }6 {* m  dCodec ID/Info                            : Picture based subtitle format used on BDs/HD-DVDs
    . o& a' P' p6 ^" hTitle                                    : Estonian-PGS
    4 p  l8 V7 d3 G9 A5 b/ \# @1 ~, l5 M& aLanguage                                 : Estonian
    0 T: a' y, u8 Z  TDefault                                  : No
    : a- A& ?) ~$ X5 F2 o3 L% a& @3 SForced                                   : No0 U8 G2 T$ D2 L9 G9 G1 x  {
    3 o3 [6 s0 O0 J, V9 }
    Text #7, ?! r$ Z$ j& E2 Q9 c5 D/ q
    ID                                       : 156 ?  R. R/ E7 T4 Z! A2 H4 S
    Format                                   : PGS5 t2 Q' J" f; |5 N  K
    Muxing mode                              : zlib
    4 M8 V, l1 h' \0 @9 h9 I5 K9 PCodec ID                                 : S_HDMV/PGS( h0 o( q0 I# c+ r
    Codec ID/Info                            : Picture based subtitle format used on BDs/HD-DVDs, ?1 \9 y0 Y" J+ [9 [
    Title                                    : Hebrew-PGS% Z# J0 I+ O% v6 ~# H+ O: t
    Language                                 : Hebrew
    ( N4 ~6 |6 b! J; p' J! wDefault                                  : No
    " S4 e. O+ H" H0 sForced                                   : No
    5 Z6 C) D$ V0 Z* m
    - @  `! c- p9 k- L& P% v& IText #87 t. Z# n$ O6 R7 r$ H! @0 [. H
    ID                                       : 16
    ! L0 X1 {7 t& I) T* s! Q% l0 J; _, uFormat                                   : PGS% w  u+ [, Y2 t7 |; T4 N
    Muxing mode                              : zlib9 \/ u- w$ V- h2 K( @
    Codec ID                                 : S_HDMV/PGS
    ; {4 W. h! w# w& [5 n* H: o- @Codec ID/Info                            : Picture based subtitle format used on BDs/HD-DVDs. Q: e9 L8 Z1 c% b
    Title                                    : Hungarian-PGS  z" I* D5 S  Z( A& e" p5 t9 B6 D
    Language                                 : Hungarian) z/ m, N4 d+ X, T- b
    Default                                  : No# K; L5 b& ?' L$ f; I% V0 P* O
    Forced                                   : No
    ) H2 k( _; \+ ?0 ~/ m8 F, D( Y6 J0 \. s
    Text #9
    4 g: V2 a: D6 t1 A- q4 }ID                                       : 17
    ( n  H, X$ ~% K2 }  E1 IFormat                                   : PGS
    - n6 s" F: M$ SMuxing mode                              : zlib
    5 Q$ A/ j; `4 @. dCodec ID                                 : S_HDMV/PGS. i9 _# h+ b% v5 I, K
    Codec ID/Info                            : Picture based subtitle format used on BDs/HD-DVDs* Z! z2 ?  {2 U' c* S3 o
    Title                                    : Latvian-PGS2 @  X/ w$ ^# a4 \
    Language                                 : Latvian
    # g8 F9 f) H- b8 V" v+ u  [2 d: XDefault                                  : No
    & j- @/ }2 y2 I4 gForced                                   : No
    9 }% i8 Y' D3 y9 ~
      ]" R! X% I) A+ ~+ F1 e) N+ WText #10
    3 p: s* ~7 G# r0 S- w. [ID                                       : 184 O- V; J0 g5 [1 {- A: h. x
    Format                                   : PGS
    $ R7 l& `4 n- |- k* @Muxing mode                              : zlib! p4 ]# Y/ g* e! G6 N7 ^. ~
    Codec ID                                 : S_HDMV/PGS
    * W0 o& Y% j( YCodec ID/Info                            : Picture based subtitle format used on BDs/HD-DVDs
    4 S* b- D1 U- [- }2 m& ~  iTitle                                    : Lithuanian-PGS
    * w! A8 w# z# v) A3 KLanguage                                 : Lithuanian' @6 ?3 Z! D2 h! k3 P6 b/ R
    Default                                  : No
    ' q3 }/ i* s4 k( E* u3 hForced                                   : No
      e# A# ]0 V+ Z" x4 S9 V! F1 U2 v; M1 S8 O4 N0 K) U; n: z
    Text #11
    0 S! q+ n4 R9 hID                                       : 19
    . I' K+ P- J. o4 T5 x* |! k  `+ z6 LFormat                                   : PGS+ H  {- G; F3 E
    Muxing mode                              : zlib
    & @# e) ~" G- W3 G8 tCodec ID                                 : S_HDMV/PGS
    3 w) t1 `3 G$ L* H2 R5 \Codec ID/Info                            : Picture based subtitle format used on BDs/HD-DVDs
    2 z, ]+ M9 D, y. d" I* Y& i, _Title                                    : Polish-PGS. A4 s5 U9 x; p5 i( b
    Language                                 : Polish8 s# _4 M, {8 x4 b) M
    Default                                  : No
    - y9 W- Y4 r' KForced                                   : No# B3 R9 ?1 }7 H
    ( S, u- z/ X) k- C6 n
    Text #12
    ( X" v" a& u/ \* G  E/ YID                                       : 20$ O3 M1 v( i9 k6 p  d( }
    Format                                   : PGS' Y! m* D5 `0 k, ~8 j7 [% p
    Muxing mode                              : zlib
    - M+ n7 A! c, `: xCodec ID                                 : S_HDMV/PGS' a, x7 ?, p/ K% _8 B  ^
    Codec ID/Info                            : Picture based subtitle format used on BDs/HD-DVDs# l1 e% Q7 U+ j
    Title                                    : Portuguese-pGS
    ( \9 I: h3 |; ^4 JLanguage                                 : Portuguese
    * r- |8 b; U& e6 JDefault                                  : No
    2 V. ~8 C  F4 E9 XForced                                   : No
    3 P3 F# q# r7 L# N& f. n7 X6 c, V" v# e& M- {
    Text #13! ?% T, s; s7 w" B' s' l2 h
    ID                                       : 21% b" S3 J" c5 g8 `
    Format                                   : PGS
    4 R  t# ?* r8 \. k2 v( lMuxing mode                              : zlib
    ( x9 e# Z* m  {! @) mCodec ID                                 : S_HDMV/PGS
    ' T4 I6 J6 d0 M" yCodec ID/Info                            : Picture based subtitle format used on BDs/HD-DVDs
    / |# j3 b) K* O% B( kTitle                                    : Romanian-PGS
    / g  G$ V4 I3 P5 i/ h% QLanguage                                 : Romanian
    + K$ J2 S" q: L2 q. V# f0 YDefault                                  : No
    3 v3 B" j+ y9 _* C9 uForced                                   : No3 u4 O7 t, Q+ a! ~; H2 R/ c* i

    - i: ?* Z) [7 M# i  dText #14
    . A/ J$ P3 O4 k* R1 O  [( `ID                                       : 22/ l# _2 E, Y) J: e- f! j
    Format                                   : PGS
    2 k. ^3 Y+ [4 P9 T) k; u7 Z. `6 xMuxing mode                              : zlib
    5 V4 X- B' j0 x0 LCodec ID                                 : S_HDMV/PGS) L0 G' u( _" V
    Codec ID/Info                            : Picture based subtitle format used on BDs/HD-DVDs8 ~/ \8 Z, o- u
    Title                                    : Russian-PGS: C% A  H8 e# B1 ?, G7 H8 [! t
    Language                                 : Russian
    + S3 x* N7 f6 u+ ~( q5 HDefault                                  : No+ a- j( R$ D3 j" R* B! v1 O
    Forced                                   : No, D5 P! W" t8 V. v7 f
    : w( c7 `& r" H; a# \. T
    Text #15
    2 v: o7 {, |7 U# \5 C/ V1 lID                                       : 230 O1 D6 n. \/ b. `
    Format                                   : PGS
    " h; @; H( [$ C- v' AMuxing mode                              : zlib( w* `. H: S; Y
    Codec ID                                 : S_HDMV/PGS% l: `3 K9 [" k: Y% x: _
    Codec ID/Info                            : Picture based subtitle format used on BDs/HD-DVDs6 U7 X# G" h% k- p1 ~$ T! d
    Title                                    : Slovenian-PGS7 \/ i& J" k! M4 b: P
    Language                                 : Slovenian& B+ D- ~4 o% E. O# w, q! Y
    Default                                  : No+ c; U; l- `$ R
    Forced                                   : No
    9 i# m. g1 Q' K# z$ n5 C/ g+ ?8 X: s! d$ G, d  n* F
    Text #16& e; j# {2 v( A" r; \
    ID                                       : 244 u9 I" q  [$ A4 }1 p) B- W
    Format                                   : PGS
    ) X/ \* u" C+ C' RMuxing mode                              : zlib
    8 r; X4 h1 C! z/ b0 o" J5 h8 @! U$ Q* _% MCodec ID                                 : S_HDMV/PGS8 z5 @, [" x. N: z; a! @0 P
    Codec ID/Info                            : Picture based subtitle format used on BDs/HD-DVDs
    6 X2 M, q# \5 R4 @Title                                    : Turkish-PGS
    % N) |, ~, U( I( {& QLanguage                                 : Turkish
    : s8 \/ x, F7 |0 A+ C! CDefault                                  : No
    , Q) o2 K# L! w- o3 B5 P3 O: U3 GForced                                   : No
    9 x% A4 k) p" [' |; z
    : s! A/ P* N7 X1 T$ c9 }Text #175 o3 T. a% e/ F/ ^% `
    ID                                       : 254 a$ N5 M) s# @
    Format                                   : PGS- X: Y+ k0 c' d  q* Y# Z
    Muxing mode                              : zlib
    8 Z  p" h0 P  ?; ~: r' i  D% ]7 e( M8 W7 ~# iCodec ID                                 : S_HDMV/PGS9 o  G, i+ z- K. [$ |/ \
    Codec ID/Info                            : Picture based subtitle format used on BDs/HD-DVDs
    ; l  R9 v* G. }' }9 i! y" q& lTitle                                    : Czech-FORCED_pgs8 ]" [# D8 b6 U# X
    Language                                 : Czech! o7 N+ l. E6 j+ ~% @
    Default                                  : No
    4 V$ s2 z- C7 p* q! tForced                                   : No
    / R9 R( }) f8 I; X6 P4 M5 g% w0 j3 {6 \3 ?: L* r8 c
    Text #18
    5 \+ j5 L) q: q! OID                                       : 266 K: {4 @6 ?( }3 p% y$ |: O
    Format                                   : PGS
    ( v+ u7 K8 S$ ~- o4 t; O' ?1 jMuxing mode                              : zlib1 M4 W$ r' G# T' r/ z" @
    Codec ID                                 : S_HDMV/PGS5 F& J/ p) X4 C% j5 `- a& s1 k
    Codec ID/Info                            : Picture based subtitle format used on BDs/HD-DVDs5 F$ x) x" N6 [; D4 x4 F4 p7 C( z' Q
    Title                                    : Hungarian-FORCED-PGS; K& B4 e( x" q+ }1 A
    Language                                 : Hungarian2 H1 Y9 X" I. ~
    Default                                  : No
    & ~/ x5 U4 C0 V) H/ T3 P& E' o7 T7 v3 ]Forced                                   : No
    4 h- N" |8 T# I  t" u
    " q1 ]0 K3 _8 X2 U9 P  P% s; P" n5 d' NText #19) l2 b2 a1 k0 z" P- i) N; E
    ID                                       : 27
    : Y) J1 Q; _" `0 [6 BFormat                                   : PGS
    * Y6 m' Q& I$ k3 A7 `) dMuxing mode                              : zlib, N( z4 P/ q- _; L; {) j$ a
    Codec ID                                 : S_HDMV/PGS
    " g6 ~1 l, }9 A6 c2 p- S& Y* O* e5 RCodec ID/Info                            : Picture based subtitle format used on BDs/HD-DVDs4 H, j1 q1 c% {
    Title                                    : Polish-FORCED-PGS
      F2 C, q3 l8 C4 H: e2 t! jLanguage                                 : Polish/ _9 H. O; V" x/ b% b
    Default                                  : No" E2 Z, q" J0 P, x: g, \
    Forced                                   : No
    # I2 t7 ~7 D% s# M$ Q% d3 L" R4 `+ ?" \4 \0 s0 j
    Text #20
    % ?7 B. ^( d* `: ]* w4 SID                                       : 28
    + J& ^4 G. G, _" J. WFormat                                   : PGS
      o1 _! ]4 ?! B) QMuxing mode                              : zlib6 L' d* Z! [6 E! f% D
    Codec ID                                 : S_HDMV/PGS
    7 F3 X* G, z1 D5 ?. A! E- k) dCodec ID/Info                            : Picture based subtitle format used on BDs/HD-DVDs  @7 |9 C  Q/ L3 L- {! q+ a
    Title                                    : Russian-FORCED-PGS
    ) O; h2 y% m8 i. {0 t& ^" dLanguage                                 : Russian
    ; e; ^' I, J0 n/ ]% k$ b- wDefault                                  : No
    0 Z) L7 A3 u  g% H+ e  S3 BForced                                   : No
    ! X9 F* I1 B* }" f' P! e0 |) h1 \( J( X7 v7 P$ y
    Text #21
    % ~& [; X+ M5 H1 Y" ^ID                                       : 29% c' T6 ]! k) Q4 t; q/ H3 m
    Format                                   : PGS
    , y5 j; f9 d0 w, SMuxing mode                              : zlib- T! E: D! C1 `+ O, h' y
    Codec ID                                 : S_HDMV/PGS
    2 ^; F! v% q7 l$ G- T7 qCodec ID/Info                            : Picture based subtitle format used on BDs/HD-DVDs) v( B( p# E/ b% O, z1 P4 M
    Title                                    : Turkish-FORCED-PGS, N& a$ `  s" ^& n- \3 A
    Language                                 : Turkish
    ) h; ~2 r3 x8 TDefault                                  : No
    * \$ T, u  K$ X" U, V; @Forced                                   : No
    ! l& V5 e% }. G# S& c/ y9 x% N' J2 Y5 H! E5 ]: P  f
    Menu, Y. j4 {/ O+ H
    00:00:00.000                             : en01)00:00:00:000
    & j3 p7 L% x% p: ~00:09:07.505                             : en02)00:09:07:505
    ' B; C" b/ R; G6 L% ~! ]6 o00:19:03.725                             : en03)00:19:03:725" B+ L  u. t1 M1 g
    00:29:27.140                             : en04)00:29:27:140  w8 K% {% v, F, n! A. c2 c
    00:39:17.313                             : en05)00:39:17:313
    9 J4 J( T4 V! r" I' [% P00:50:21.226                             : en06)00:50:21:2261 y8 m/ J1 |' y
    01:00:10.106                             : en07)01:00:10:106/ ^0 R+ J  x7 V/ x5 w" k) E+ j0 f/ m
    01:11:46.927                             : en001:11:46:9271 E$ N. U5 `- C( |6 h
    01:22:46.127                             : en09)01:22:46:127
    : b& Z1 s$ d& Y5 a01:32:01.098                             : en10)01:32:01:098  r: V7 L: l  {# f: z
    01:39:21.830                             : en11)01:39:21:830( R' X: U" ~: I. x( _
    01:52:27.991                             : en12)01:52:27:991& S7 Y# ?$ L. B
    02:02:53.240                             : en13)02:02:53:240
    3 k* b" o- z" U. }: u$ A
    Video0 Z% Q, M0 c/ W  ]0 z" k6 q+ b  Z
    ID                                       : 1
    0 |5 @" Z6 h. D+ k4 M3 L6 m2 f6 G: @Format                                   : AVC: }, i3 g, Z3 o( l( j
    Format/Info                              : Advanced Video Codec
    / T! H1 l6 @6 `0 qFormat profile                           : [email protected]& n2 t2 D7 F' b
    MultiView_Count                          : 2; S) ^. {1 ~5 G4 g0 Z- u
    MultiView_Layout                         : Side by Side (left eye first)
    . z4 k* e# A( R1 ?, `* ~$ QFormat settings, CABAC                   : Yes8 Z6 m% T& y9 g. S7 V$ S8 `
    Format settings, ReFrames                : 5 frames7 |2 ]3 r" ^* x  \+ l% ?9 g
    Codec ID                                 : V_MPEG4/ISO/AVC/ a# n% |' W2 Y; y/ d+ K
    Duration                                 : 2h 2mn
    ( K" v  w% n, x& b$ d, [Bit rate                                 : 9 545 Kbps
    ! Z; J7 f% \) x4 k% X) b/ K/ O+ VWidth                                    : 1 920 pixels
    7 C9 ^1 y! X  i( G. O. h+ V& ~Height                                   : 800 pixels
    4 q& g4 j/ m# k! E, bDisplay aspect ratio                     : 2.40:1) r0 l* W1 f( u. N2 B' }5 S8 L; T
    Frame rate mode                          : Constant3 Z: x1 n* k% G+ W4 q2 B* m5 [
    Frame rate                               : 23.976 (24000/1001) fps# b0 \" r4 [0 ~0 s/ c% L# I: \/ L8 G- x
    Color space                              : YUV
    7 e* X! \: Z' ?- Z  V: d* LChroma subsampling                       : 4:2:0
    + r' b3 Q4 D9 }& J/ l2 IBit depth                                : 8 bits7 I3 e& m5 h3 `4 F
    Scan type                                : Progressive  v$ r* z# Q  G+ D* V0 a
    Bits/(Pixel*Frame)                       : 0.259
    " t% Y" R6 f& f( W0 C" i9 @# ]Stream size                              : 8.19GB (94%)
    ' E- S9 \0 x/ A; UWriting library                          : x264 core 148 r2705 3f5ed56& o" {! N" P' M% L
    Encoding settings                        : cabac=1 / ref=5 / deblock=1:-3:-3 / analyse=0x3:0x113 / me=umh / subme=8 / psy=1 / psy_rd=1.00:0.00 / mixed_ref=1 / me_range=32 / chroma_me=1 / trellis=1 / 8x8dct=1 / cqm=0 / deadzone=21,11 / fast_pskip=0 / chroma_qp_offset=-2 / threads=24 / lookahead_threads=4 / sliced_threads=0 / nr=0 / decimate=1 / interlaced=0 / bluray_compat=0 / constrained_intra=0 / bframes=3 / b_pyramid=2 / b_adapt=2 / b_bias=0 / direct=3 / weightb=1 / open_gop=0 / weightp=2 / keyint=240 / keyint_min=24 / scenecut=40 / intra_refresh=0 / rc_lookahead=50 / rc=2pass / mbtree=1 / bitrate=9545 / ratetol=1.0 / qcomp=0.60 / qpmin=0 / qpmax=69 / qpstep=4 / cplxblur=20.0 / qblur=0.5 / frame-packing=3 / ip_ratio=1.40 / aq=3:0.80" W  p5 l# }8 W0 L- O) m
    Default                                  : Yes
    $ U+ ]3 \4 I0 m& B( r( \# l2 zForced                                   : No
    8 z1 o( T* ?1 X# y  t& O. DColor range                              : Limited. p8 U& p4 W+ @# D" a
    Matrix coefficients                      : BT.709) |. q) K0 o8 i8 ]. ~" r1 n- z
    Audio
    0 z  `  q2 ?8 [% e7 ^) tID                                       : 2
    6 n3 a5 _* @1 P3 ^: XFormat                                   : AC-3; T, F9 C, c; o* t* Q
    Format/Info                              : Audio Coding 3* M: i0 P) d, {2 ^  x
    Mode extension                           : CM (complete main)
    " o1 b+ O4 y/ ?6 FFormat settings, Endianness              : Big  ~) y" d5 L* B) q% i2 q
    Codec ID                                 : A_AC3
    ' Q4 Z3 [: B3 l4 w: ^8 {& h9 aDuration                                 : 2h 2mn
      _' Q$ @) C1 y- IBit rate mode                            : Constant
    ! h. j( y. e6 w! V) [6 E2 sBit rate                                 : 640 Kbps
    % |0 O, @# ^% o- R) P& l  EChannel(s)                               : 6 channels. v. u% d+ j' q; n0 i
    Channel positions                        : Front: L C R, Side: L R, LFE/ ~7 f0 v2 G5 r! S7 r3 |
    Sampling rate                            : 48.0 KHz
    + G/ B* c' k5 _9 x$ B! h7 y" K5 PFrame rate                               : 31.250 fps (1536 spf)- N8 `% }5 x0 l+ j( `- M" ^$ g
    Compression mode                         : Lossy! R  u: L9 s! Q% G2 T
    Stream size                              : 563 MiB (6%)/ ]! I( ?$ z% Q, Y
    Language                                 : English
    , e4 {" A5 f* I0 l9 a2 a' zDefault                                  : Yes
    3 l9 v7 C/ I- p% N4 C1 a$ g1 o2 }Forced                                   : No
    . ]: @1 C) ~  x! ?/ h; S7 W* R* HMenu
    + K) Y3 Q3 m5 x00:00:00.000                             : en:00:00:00.000
    ) a% F& T6 f' T% N! S. @00:09:07.505                             : en:00:09:07.505
    ) s6 s4 q- |* c7 v1 X, T. b+ h00:19:03.725                             : en:00:19:03.725/ @. H' [9 H6 x+ l$ U3 b
    00:29:27.140                             : en:00:29:27.140
      T; H' F. [6 u8 ~+ L00:39:17.313                             : en:00:39:17.313' L0 f- H/ \0 R
    00:50:21.226                             : en:00:50:21.226* R9 H" {% P$ @+ ^: g8 t' v
    01:00:10.106                             : en:01:00:10.106; y; U+ v$ V" k  z2 C& E! r! ?
    01:11:46.927                             : en:01:11:46.927
    ; [9 \" u$ q+ F$ f01:22:46.127                             : en:01:22:46.127) s2 H; e1 i% _1 H
    01:32:01.098                             : en:01:32:01.098" P, G4 h9 B, y/ c9 e7 I
    01:39:21.830                             : en:01:39:21.830# X6 N1 M  ^; ]# b" s. R( T
    01:52:27.991                             : en:01:52:27.991
    ( J- q( o/ K+ D5 O9 O$ c" k# G02:02:53.240                             : en:02:02:53.240

    . P" j+ ]" Q$ q* ?, d7 K
    游客,查看本帖隐藏内容请回复 | 加入VIP贵宾组可免积分免回复下载 立即了解 | 还不是会员:点击获取邀请码 Invitation Code

    本版积分规则

    小黑屋|Archiver|蓝光电影资源网

    GMT+8, 2020-3-28 17:18

    快速回复 返回顶部 返回列表