BluRayCD Forum

 找回密码
 立即注册【分享大片】

QQ登录

只需一步,快速开始

查看: 49|回复: 3
收起左侧

[2160P极清] 黑衣人2 [4K SDR高码版 自带中字] Men in Black II 2002 2160p BluRaycd x265 10bit & 8bit SDR DTS-HD MA TrueHD 7.1 Atmos-SWTYBLZ 51.26GB & 58.76GB

[复制链接]
  • TA的每日心情
    奋斗
    2020-5-24 20:30
  • 签到天数: 368 天

    [LV.9]蓝盘精灵

    4227

    主题

    4373

    帖子

    5万

    积分

    Post Share

    金币
    7748 枚
    体力
    15947 点

    卓越贡献勋章

    黄金嫖客 发表于 2020-5-2 02:17:59 | 显示全部楼层 |阅读模式
    01.jpg
    / }; s: N! {" X* H+ g# y# n$ i8 @4 ?) T' C: w( t) Q7 A8 ^
    ◎片  名 Men in Black II / MIB II2 z0 |1 B, q  H2 R4 J) }
    ◎译  名 黑衣人2/MIB星际战警2/黑超特警组2/黑超特警2
    $ x" p+ `3 t8 e4 P; V8 y◎年  代 20023 I. Z" a, B# q1 w9 f2 G
    ◎产  地 美国3 W8 F' l; ]$ q/ o% W$ a
    ◎类  别 喜剧/动作/科幻
    6 Y: o; H  k2 a◎语  言 英语' H# m# ^; n& r2 m0 z% q$ W8 F
    ◎上映日期 2002-07-03
    ! O! ~1 O% q3 S. z( C2 K◎IMDb评分 6.2/10 from 331,984 users
    1 J0 ?) M# `+ w" T1 Q9 n# t◎IMDb链接 https://www.imdb.com/title/tt0120912/
    - S7 H, F2 m$ i3 r1 K3 p1 }5 X◎豆瓣评分 7.7/10 from 174,632 users
    3 |2 }0 k6 D) V9 O◎豆瓣链接 https://movie.douban.com/subject/1295280/
    * Q# r+ u& {# A- q/ w+ z$ ~◎片  长 1 h 28 min! P6 K* s3 [3 O8 @. j  D
    ◎导  演 巴里·索南菲尔德 Barry Sonnenfeld9 [2 a: X9 j2 i% n; l
    ◎编  剧 罗伯特·戈登 Robert Gordon
    % J/ u' ?6 _' k8 }( d       巴里·法纳罗 Barry Fanaro* m, C) W: I. {+ c
           劳威尔·坎宁安 Lowell Cunningham- w/ i, x) ?/ u& S
    ◎主  演 威尔·史密斯 Will Smith' p. S4 E" H; O: t: R! @2 S! ?
          汤米·李·琼斯 Tommy Lee Jones
    3 c" b5 K  C( f% I      约翰尼·诺克斯维尔 Johnny Knoxville
    $ j: K5 z- y! A  |7 |/ X, q      罗莎里奥·道森 Rosario Dawson, P! u0 c* ^7 H1 B. ~
          雷普·汤恩 Rip Torn" L6 E, s% `: m# y. J/ H* H2 E
          劳拉·弗林·鲍尔 Lara Flynn Boyle
    # M3 Q# q" U* k* x/ [3 Z, V      帕特里克·沃伯顿 Patrick Warburton# ~* Y, `8 n2 s
          迈克尔·杰克逊 Michael Jackson
    8 A0 j/ d% o; d( s/ _1 U! m5 j. }' }. f5 d4 n# x
    ◎简  介
    $ D# Y6 H0 O# e& `: W, J" Q) |. J: v
      Agent J is sent to find Agent K and restore his memory after the re-appearance of a case from K's past. , {! o! S# L) M1 g- s* ^
    3 M0 w. n- N2 W1 s9 ^7 ]' F
      故事发生在第一部的四年之后,此时特警K(汤米·李·琼斯 饰)已经退休,成为一名普通的邮局局长,而J(威尔·史密斯 饰)则继续从事MIB的工作。* ?: }+ M7 h* F; s
    ) v; R& v- ~" J& ~) O. e# Q$ v
      卡洛瑟星邪恶女王蛇莲娜来到地球需找宇宙能量“萨塔之星”,占领了MIB的总部。而当年逃亡到地球的萨塔公主萝娜曾请求MIB把 “萨塔之星”藏在地球,全面负责这件事情的K为了地球的安全,拒绝了她。- d$ ?; c3 E6 |- [2 a

    ' j/ Q5 g) u0 E. H. N$ q  面对来势汹汹的蛇莲娜,MIB派J去寻找k,调查当年事件的真相,怎样说服失去记忆的K相信外星人的存在,成了J面临的第一个难题……
    3 C/ o, x4 y* W: F. H0 }  {! U$ K- `+ y3 Q$ ?* W$ B
      When a renegade Kylothian monster disguised as a lingerie model threatens the survival of the human race, the boys of the MIB get the call to step up and get busy. With their headquarters under siege and time running out, Agents Kay and Jay enlist the help of Frank the Pug and a posse of hard-living worms to help them kick some seriously sexy alien butt!
    * k" o" v! _+ [* _" r) z8 r8 C# R3 o2 C& J/ k( `- e
    SWEATY BALLZ presents % _0 u. m' i9 ]7 `: _

    / Q, ?* V7 A% L3 T( L$ IMen.in.Black.II.2002.2160p.BluRayCD.x265.10bit.SDR.DTS-HD.MA.TrueHD.7.1.Atmos-SWTYBLZ& v* b7 |1 r" D4 }2 H+ C  I& d
    Converted from 10 bit HDR to 10 bit SDR using tripple mixed Hable-Reinhard-JJ per scene+frame analysis algorithm
    ' s* D) r1 P4 h6 z5 @' KScreenshots are 8bit SDR because browsers dont support HDR or 10bit files
    ) }" o8 a1 t5 E+ r( N# M
    & |+ }* P) P) K" Y5 PVideo6 J7 m, A" P  B) r" }% T$ G/ |) l  M; h
    ID                                       : 1
    0 q" F  _* i% Q7 l9 m' l' v, mFormat                                   : HEVC
    + i- K5 ]8 A. n1 tFormat/Info                              : High Efficiency Video Coding
    # m( J$ P2 p, J% q4 A& S; z4 a1 eFormat profile                           : Main 10@L5.1@High
    % I8 |& K7 B  A' s) ~Codec ID                                 : V_MPEGH/ISO/HEVC9 ?  g$ H" r* _( V9 ]$ ?
    Duration                                 : 1 h 28 min& o4 s" r' j6 I! M1 O6 k# \
    Bit rate                                 : 71.1 Mb/s! G) O  \1 @6 i
    Width                                    : 3 840 pixels
    # b: f, Y5 ?% D9 q: H  bHeight                                   : 2 076 pixels1 O  Z* K) d8 l/ @; W- _
    Display aspect ratio                     : 1.85:12 A; B% P: n! M$ t
    Frame rate mode                          : Constant2 X* S7 J; `+ G" c$ s% `3 M$ ~" S
    Frame rate                               : 23.976 (24000/1001/37687) FPS3 R- w' v% O+ k* j; g6 C
    Color space                              : YUV1 I- T* U3 Y+ Z" K- z
    Chroma subsampling                       : 4:2:00 U5 ?: I8 q$ z* \% A' n
    Bit depth                                : 10 bits$ h* s! H. @1 E3 R; [
    Bits/(Pixel*Frame)                       : 0.372
    * d* B% d  R" vStream size                              : 43.8GB (86%)1 }  `& i7 Q- C, p; ^
    Title                                    : Men.in.Black.II.2002.2160p.BluRaycd.x265.10bit.SDR.DTS-HD.MA.TrueHD.7.1.Atmos-SWTYBLZ
    ' \1 ^$ f5 G; wWriting library                          : x265 2.5+4-b4a5bcfe29c7:[Windows][GCC 4.9.3][64 bit] 10bit1 i; o7 O7 w: g" X6 R
    Encoding settings                        : cpuid=1173503 / frame-threads=16 / numa-pools=24,24,24,24 / wpp / no-pmode / no-pme / no-psnr / no-ssim / log-level=2 / input-csp=1 / input-res=3840x2076 / interlace=0 / total-frames=0 / level-idc=51 / high-tier=1 / uhd-bd=0 / ref=3 / no-allow-non-conformance / repeat-headers / annexb / aud / hrd / info / hash=0 / no-temporal-layers / no-open-gop / min-keyint=1 / keyint=24 / bframes=4 / b-adapt=2 / b-pyramid / bframe-bias=0 / rc-lookahead=25 / lookahead-slices=4 / scenecut=40 / no-intra-refresh / ctu=64 / min-cu-size=8 / no-rect / no-amp / max-tu-size=32 / tu-inter-depth=1 / tu-intra-depth=1 / limit-tu=0 / rdoq-level=0 / dynamic-rd=0.00 / no-ssim-rd / signhide / no-tskip / nr-intra=0 / nr-inter=0 / no-constrained-intra / strong-intra-smoothing / max-merge=2 / limit-refs=3 / no-limit-modes / me=1 / subme=2 / merange=57 / temporal-mvp / weightp / no-weightb / no-analyze-src-pics / deblock=0:0 / no-sao / no-sao-non-deblock / rd=3 / no-early-skip / rskip / no-fast-intra / no-tskip-fast / no-cu-lossless / no-b-intra / rdpenalty=0 / psy-rd=2.00 / psy-rdoq=0.00 / no-rd-refine / analysis-reuse-mode=0 / no-lossless / cbqpoffs=0 / crqpoffs=0 / rc=crf / crf=16.0 / qcomp=0.60 / qpstep=4 / stats-write=0 / stats-read=0 / vbv-maxrate=160000 / vbv-bufsize=160000 / vbv-init=0.9 / crf-max=0.0 / crf-min=0.0 / ipratio=1.40 / pbratio=1.30 / aq-mode=1 / aq-strength=1.00 / cutree / zone-count=0 / no-strict-cbr / qg-size=32 / no-rc-grain / qpmax=69 / qpmin=0 / no-const-vbv / sar=1 / overscan=0 / videoformat=5 / range=0 / colorprim=2 / transfer=2 / colormatrix=2 / chromaloc=0 / display-window=0 / max-cll=0,0 / min-luma=0 / max-luma=1023 / log2-max-poc-lsb=8 / vui-timing-info / vui-hrd-info / slices=1 / opt-qp-pps / opt-ref-list-length-pps / no-multi-pass-opt-rps / scenecut-bias=0.05 / no-opt-cu-delta-qp / no-aq-motion / no-hdr / no-hdr-opt / no-dhdr10-opt / analysis-reuse-level=5 / scale-factor=0 / refine-intra=0 / refine-inter=0 / refine-mv=0 / no-limit-sao / ctu-info=0
    2 V$ [/ Q( H( r0 o) f$ q: ?3 CDefault                                  : Yes
    ; j( E: W2 u% f2 @0 g+ v( p; \9 B' OForced                                   : No
    1 ]* d5 R; _* [; P" M. x
    - P. x# L" V, G9 a& l: |7 l- CAudio #1
    7 W3 T- S# V, t7 M) H& n& x# @ID                                       : 2
    . z0 U9 p4 V7 K; bFormat                                   : TrueHD4 _  W; l: w7 p6 Q5 y
    Format profile                           : TrueHD+Atmos / TrueHD
    2 Y9 T- M- B% O' MCodec ID                                 : A_TRUEHD
    ' f3 H. T1 l# J$ Z0 XDuration                                 : 1 h 28 min
    . M+ n$ _2 b4 w/ a7 K3 m# TBit rate mode                            : Variable
    * K$ {" Z3 }$ hBit rate                                 : 5 828 kb/s
    2 v, l! y/ Y6 q7 X9 PMaximum bit rate                         : 8 793 kb/s5 t4 c8 _: L) _' r; _
    Channel(s)                               : Object Based / 8 channels& h: W  |: n! X3 |- X* w: `& e
    Channel positions                        : Object Based / Front: L C R, Side: L R, Back: L R, LFE
    ( q& {6 n1 k7 r3 dSampling rate                            :  / 48.0 kHz+ a: [, o# v8 V. \1 l2 g1 d
    Frame rate                               : 1 200.000 FPS (40 SPF)$ N/ C9 S3 T5 ^$ _
    Compression mode                         : Lossless
    8 Z& X& M+ j% C6 P' V' ^  H, U4 ~7 a3 aStream size                              : 3.59GB (7%)
    1 U2 Q( S6 W3 ?$ d1 b  X& STitle                                    : Men.in.Black.II.2002.2160p.BluRaycd.x265.10bit.SDR.DTS-HD.MA.TrueHD.7.1.Atmos-SWTYBLZ
      E0 I4 W1 ?& V7 QLanguage                                 : English9 W6 E1 H. t/ U/ x* y! {; L
    Default                                  : Yes) c1 J7 w9 A6 u2 E$ D5 U, e
    Forced                                   : No4 W5 }6 x+ ^2 S/ W( p# W2 T
    2 }# y7 v6 ^, g: \
    Audio #2
    * B- m7 p- B2 x! a3 q$ w9 dID                                       : 3+ z3 X$ ~8 Z( |5 A2 V+ z
    Format                                   : DTS
    % T7 ]0 A( {/ `Format/Info                              : Digital Theater Systems$ K  V# p! O& T
    Format profile                           : MA / Core
    % Z' z& M) F, m8 mCodec ID                                 : A_DTS$ a; {0 f' U9 s
    Duration                                 : 1 h 28 min3 L- t$ w" @: A! }; `2 _7 g0 y+ b2 O
    Bit rate mode                            : Variable / Constant
    " Z- L$ J' W; ?5 y& vBit rate                                 : 4 727 kb/s / 1 509 kb/s
    5 V1 L( W6 X% p3 o1 @7 ?2 VChannel(s)                               : 8 channels / 6 channels
    * _! h. f) j$ l+ N/ ~# }( U: ^( jChannel positions                        : Front: L C R, Side: L R, Back: L R, LFE / Front: L C R, Side: L R, LFE8 T4 ?. D( y% V* T5 H; E
    Sampling rate                            : 48.0 kHz* Q: {" p) a* q: F) b" B6 o# l
    Frame rate                               : 93.750 FPS (512 SPF)3 H& O: @& x( e- @, ~% n# e
    Bit depth                                : 24 bits
    ; g. i( p  h, ^+ }Compression mode                         : Lossless / Lossy, b2 B5 R: o% |  S
    Stream size                              : 2.91GB (6%)
    ) M. v/ Q0 @0 Y& E4 S, w9 e2 T" _Title                                    : Men.in.Black.II.2002.2160p.BluRaycd.x265.10bit.SDR.DTS-HD.MA.TrueHD.7.1.Atmos-SWTYBLZ
    & n/ b8 l3 a8 i$ _+ g- ]2 ZLanguage                                 : English
    ! }0 _, z, R' H" Y) W& lDefault                                  : No
    ) T$ C" j) t3 k' M6 e  vForced                                   : No
    ; |7 k' X& w" @6 L: x& U. |0 x- K5 @4 V' B4 G6 d% X2 y
    Audio #33 f( J$ D& U! ?
    ID                                       : 4
    * W; Z  Z$ M. _, J* ]+ t1 e9 J) kFormat                                   : AC-3
    ) R+ m7 J9 }! Q6 C+ TFormat/Info                              : Audio Coding 3
    2 [5 {  n5 C2 a4 U& P& \Codec ID                                 : A_AC3& Q* Y: _8 w" x& i* S/ n/ ^6 o- V6 \
    Duration                                 : 1 h 28 min! o' e7 i& K) o+ D) _* |
    Bit rate mode                            : Constant$ y9 u9 T2 V) ]8 O
    Bit rate                                 : 640 kb/s# Q8 C# f! ~$ M
    Channel(s)                               : 6 channels
    ) C* l0 O+ E# y. jChannel positions                        : Front: L C R, Side: L R, LFE& p+ l) R/ @2 p" q: F
    Sampling rate                            : 48.0 kHz! k6 ~6 j! V! d5 e9 g3 v/ Y" L* C" N
    Frame rate                               : 31.250 FPS (1536 SPF)
    1 c) \6 _% S* q9 X7 I- C! jBit depth                                : 16 bits7 o5 L+ v3 i  D$ z
    Compression mode                         : Lossy
    / ~3 a6 M" b9 m3 Z7 i; e8 a3 DStream size                              : 403 MiB (1%)
    8 e# g6 b* m* Z( \) XTitle                                    : Men.in.Black.II.2002.2160p.BluRaycd.x265.10bit.SDR.DTS-HD.MA.TrueHD.7.1.Atmos-SWTYBLZ$ i2 d9 h1 E- x/ w. ^/ |
    Language                                 : English
    7 i1 a* d4 A! V! rService kind                             : Complete Main: c5 j! v$ f# d" x- J
    Default                                  : No0 u6 S( Z* l6 u6 A6 ]
    Forced                                   : No
    2 ]# u+ E- s; b0 r, n
    2 `+ {, D8 r- ?2 J( C6 NText #1
    2 j1 w# X- q- s9 M2 mID                                       : 5
    6 X; T7 Z5 p# D* A, sFormat                                   : UTF-8
    ! \& B, S' F  K* j+ q2 {Codec ID                                 : S_TEXT/UTF8
    6 U( F; v2 ]% b9 fCodec ID/Info                            : UTF-8 Plain Text4 A$ w& d* F( }/ d' ~
    Duration                                 : 1 h 20 min
    + _( C+ Q1 u# e% R4 aBit rate                                 : 63 b/s5 Q# d& |$ o9 P  \$ B$ n
    Count of elements                        : 1058' u6 z  L3 _- U( A; p7 i3 @
    Stream size                              : 37.4 KiB (0%)+ W/ Q# H9 P: Q& T7 j& j. Y$ C
    Title                                    : English-SRT
    # c( _" g- @3 w- C! H$ @# Y# gLanguage                                 : English7 w2 b6 i  u: N  h! [5 L
    Default                                  : Yes  l1 |! O7 z$ P( U8 j. e; s
    Forced                                   : No
    ) h( d# h" ~9 M1 b4 l. c. }5 R; N  ?( ^- X' R3 V6 Z
    Text #2- B& ]5 R8 |2 h) @! ^: p# i
    ID                                       : 6
    " [/ _0 J; m/ J4 |1 g( y; K: BFormat                                   : PGS
    5 ^8 `* t2 P1 t' uMuxing mode                              : zlib( e7 _1 j4 }, F. |- w
    Codec ID                                 : S_HDMV/PGS
    " j' ?! N" T2 M/ _4 t8 {Codec ID/Info                            : Picture based subtitle format used on BDs/HD-DVDs7 G$ J3 W5 q3 Q9 |5 Y4 Q
    Duration                                 : 1 h 27 min
    5 B" _5 M0 H! W% G  W/ ZBit rate                                 : 43.2 kb/s( z4 b  T4 @0 i
    Count of elements                        : 27957 ?7 }5 P! K0 G, W0 n. ~* U
    Stream size                              : 27.1 MiB (0%)
    1 d# E0 ?" J# o( A8 l+ Z8 gTitle                                    : English-PGS% X/ J' N. I  x. b3 t0 x$ F+ r
    Language                                 : English
    ' s. R# h, b6 [. P: lDefault                                  : No
    ; j! j* L, i% l$ l) `+ ?, Q4 GForced                                   : No
    3 @- q6 F- ~* W2 C1 a8 e  v% y$ E$ J6 N  [0 I9 @
    Text #3
    ! A" r$ H+ |" q; j  dID                                       : 7) a8 d4 }  ?/ n7 ^; f
    Format                                   : PGS3 }- j7 K. i1 V; a
    Muxing mode                              : zlib
    # E' j" S& g5 G7 p% L7 xCodec ID                                 : S_HDMV/PGS
    # g8 W* s4 m: C" X: X0 iCodec ID/Info                            : Picture based subtitle format used on BDs/HD-DVDs6 c: K& A" D7 C3 D+ J5 l$ B/ V
    Duration                                 : 1 h 27 min+ o- K' O3 s$ _, x7 }
    Bit rate                                 : 35.2 kb/s' ^1 o' b6 ^8 F1 z4 [
    Count of elements                        : 2130- M/ ?" x) W) w6 s  _: b
    Stream size                              : 22.1 MiB (0%)6 r) n, o* W  X+ R0 Z) ~
    Title                                    : English-SDH-PGS
    9 ^  L2 Z+ N& u5 oLanguage                                 : English' h6 C5 P+ q" Z7 X6 w7 K. U
    Default                                  : No
    + o3 l+ u8 T) X! ^" w8 [; Z1 jForced                                   : No0 }+ ]* B* I/ K
    . Q& r* Y' @7 F3 i3 C
    Text #4
    " b: i& r1 F) z; ?" P; PID                                       : 8
    % |9 R( d# X5 V+ DFormat                                   : PGS
    3 I! `0 F$ j6 {, OMuxing mode                              : zlib
    1 E, x1 R& H  f7 M% G$ A( OCodec ID                                 : S_HDMV/PGS
    0 R8 n. W+ t! v3 `+ oCodec ID/Info                            : Picture based subtitle format used on BDs/HD-DVDs" G) ]; s, n2 S7 W  E
    Duration                                 : 1 h 27 min
    # n) g$ m+ R( aBit rate                                 : 43.1 kb/s
    + D2 g$ K4 ^& S. _9 w, N, ECount of elements                        : 2792& }/ W; Q" k$ O6 G
    Stream size                              : 27.0 MiB (0%)( W/ b0 ^/ B4 i! n$ p  i
    Title                                    : English-PGS3 ~  V& }! O" a& D# r
    Language                                 : English
    " J& x6 _' N0 H8 @3 m% a, S& \Default                                  : No. D/ S6 m2 S$ h) V$ o
    Forced                                   : No  K1 m6 C5 R. h1 E  q

    " j9 X7 s6 g4 P5 TText #5
    " I2 [+ q/ G0 K& ^ID                                       : 9
    ) X# m( N- Q  b7 y2 h& qFormat                                   : PGS: N; N* H. {7 d1 }
    Muxing mode                              : zlib) {& H- \& L, X; f! T% ?$ G- m$ {
    Codec ID                                 : S_HDMV/PGS
    & B7 h6 ]4 n2 e% ECodec ID/Info                            : Picture based subtitle format used on BDs/HD-DVDs
    # H2 e% b1 N9 @$ ~) h# vDuration                                 : 1 h 20 min! l4 ]+ Y! v8 B
    Bit rate                                 : 38.5 kb/s
    8 T  ]( C6 g$ B- S2 c, O* sCount of elements                        : 2146
    . u! Y% R% d- w2 ~8 VStream size                              : 22.1 MiB (0%)
    8 X, `8 M2 F2 L* [  L+ ], yTitle                                    : English-SDH-PGS- }6 R$ k3 ]8 i7 @
    Language                                 : English- Y+ E+ s9 x' ?  c. K
    Default                                  : No
    0 y4 q1 o0 Q  W2 gForced                                   : No
    # }  V! [: Z8 p( Z; q" f3 e& }# I
      C! Y& B0 w& z  o4 \  YText #6
    ! r+ x- f: T( MID                                       : 10
    3 w' B% O# D# ^1 w3 W* t  OFormat                                   : PGS/ U2 i" v  c; T# v
    Muxing mode                              : zlib
    0 a2 p$ k  g( S0 xCodec ID                                 : S_HDMV/PGS
    4 g; ]3 ~& q7 I: M- [Codec ID/Info                            : Picture based subtitle format used on BDs/HD-DVDs% x- n0 O7 g. B* {( v
    Duration                                 : 1 h 20 min
    9 z3 v8 R( w' N' f3 z8 qBit rate                                 : 18.9 kb/s
    2 U7 I1 u( _% R1 _: @0 UCount of elements                        : 20662 ]6 ~' j3 H0 l; Y! O& X% m6 |
    Stream size                              : 10.8 MiB (0%)7 O' n, O9 D) N9 C
    Title                                    : Arabic-PGS6 ]4 |9 b& ~6 ~/ s
    Language                                 : Arabic
    1 l4 ~* z$ T/ e; ~% x6 N: j5 E, |Default                                  : No1 p" V# [' U# i" ^* z- }
    Forced                                   : No9 m( i6 T3 b$ |3 m$ p# w

    ) L: H2 I6 P7 g7 f: `+ R: g' [5 WText #7
    ; Q) @9 a0 d2 L- NID                                       : 11
    % |! B4 t; Y! {  E2 W' g( bFormat                                   : PGS% ]- p7 g* D, [  m2 b& `8 X& O3 R
    Muxing mode                              : zlib
    % @5 m4 l. ]) l+ sCodec ID                                 : S_HDMV/PGS- R, e9 g/ x& A. e
    Codec ID/Info                            : Picture based subtitle format used on BDs/HD-DVDs
    / a5 P  V/ @- D9 v1 KDuration                                 : 1 h 27 min. ^& P1 W9 v2 y7 v( X- f2 z2 @
    Bit rate                                 : 29.6 kb/s
    # I! I- t0 t' g2 y" z+ g  QCount of elements                        : 2096
    + L! B- h) R4 K$ Y7 C5 XStream size                              : 18.6 MiB (0%)
    # s  a1 F# Y$ c4 G1 K' E0 b3 tTitle                                    : Chinese-PGS8 D$ ~1 k+ \$ ~8 v6 e, B
    Language                                 : Chinese$ u! C$ w3 g& R% i, \
    Default                                  : No
    ; D+ s( e' J8 T" DForced                                   : No
    $ c0 @+ Z7 a' V- o
    ; A" |3 \- ^2 FText #82 P8 R0 }: ?/ e" L: q8 P1 U& o
    ID                                       : 12
    $ j: [/ e$ A0 b3 t  ~1 qFormat                                   : PGS% ^& ?8 ?* w9 n' ~! p; X
    Muxing mode                              : zlib
    5 l8 o+ K6 w4 @( g9 n  w  kCodec ID                                 : S_HDMV/PGS
    2 P" E& F7 Z6 i4 e. MCodec ID/Info                            : Picture based subtitle format used on BDs/HD-DVDs
    9 q) O% A1 A+ I; @+ g) m1 j2 ~4 `Duration                                 : 1 h 20 min$ g0 A- P$ B* m* M% s( S2 o
    Bit rate                                 : 32.4 kb/s
    ! G8 K6 {& J+ D: q) OCount of elements                        : 2126
    : k7 k3 f4 g/ ?7 h7 K; yStream size                              : 18.5 MiB (0%)
    0 [" F. A/ q1 l7 x, L2 l; y$ ETitle                                    : Chinese-PGS
    " [  U- N8 d: A  OLanguage                                 : Chinese" Z7 m* }  k; h, n) Y2 y" c5 c
    Default                                  : No
    ' [( L! _. A- }! G9 kForced                                   : No
    ' S4 Z  ]' l* \5 u! {6 ]- `; i" c& R0 Q$ L1 c  \
    Text #9! X+ p1 q: q7 U; z  h
    ID                                       : 13
    / j* v5 @& d, K) w) vFormat                                   : PGS/ ?! K( {2 B+ f) z$ V* k* N
    Muxing mode                              : zlib, Y: y8 s. \' N& C" o& v
    Codec ID                                 : S_HDMV/PGS9 i8 O+ L: ~2 b5 R9 W
    Codec ID/Info                            : Picture based subtitle format used on BDs/HD-DVDs
      E3 n! {3 b! z; i. fDuration                                 : 1 h 20 min) C. m, T& Y2 w" n( @7 g+ D
    Bit rate                                 : 28.1 kb/s2 x1 E) C0 K6 R; z
    Count of elements                        : 20403 t  O" @2 u) g6 B7 l+ t
    Stream size                              : 16.1 MiB (0%)
    1 }1 S2 h7 ?+ L% Q0 p5 o. ETitle                                    : Croatian-PGS7 q0 P' ~  m- K  g0 }  d( X7 J* U; U
    Language                                 : Croatian
    3 e: B1 A. M5 \. ?Default                                  : No& P* x, D7 F: Z- I- w) _
    Forced                                   : No
    1 K9 J! Z4 H* J* L# l7 {2 q/ v+ Q, f9 n$ D
    Text #10
    1 _! t6 L+ I' ^5 B" m. S3 cID                                       : 14
    , q- L. Z, F& R1 p# N0 ?  [& kFormat                                   : PGS
    ! Z8 U( M, l$ [. c/ _" i% ?& l6 F+ gMuxing mode                              : zlib
    8 a. i1 s. y; s' H8 `Codec ID                                 : S_HDMV/PGS; ^4 T2 T) j$ b) U" M( N
    Codec ID/Info                            : Picture based subtitle format used on BDs/HD-DVDs% @- Z1 X: t9 h
    Duration                                 : 1 h 20 min% I# T! R. e+ O, ]: |# m5 X
    Bit rate                                 : 28.4 kb/s
    6 T+ {1 Y8 v/ v( vCount of elements                        : 2050
    * I; i+ C* {3 fStream size                              : 16.2 MiB (0%)
    8 z0 x. o/ R* \& B# D' \5 uTitle                                    : Czech-PGS
    + B+ r* k' ~) {$ b+ U# H3 LLanguage                                 : Czech
    " w4 G6 s- T+ L6 L2 NDefault                                  : No0 A# L4 H+ ^5 |9 O
    Forced                                   : No7 n0 c2 h( U: t+ C6 k

    8 `" x3 g4 w8 O) \6 L9 T( rText #11$ A% p8 Q/ d1 |
    ID                                       : 15
    , |% h: M$ d' p, aFormat                                   : PGS
    7 D: t! ^  x: Z1 s! d( DMuxing mode                              : zlib
    . L5 q! J, G5 j/ c( e8 D6 ?% F3 g3 tCodec ID                                 : S_HDMV/PGS& Q5 y. |* @8 _+ ]
    Codec ID/Info                            : Picture based subtitle format used on BDs/HD-DVDs; ?/ M8 t% {& A. J3 z
    Duration                                 : 1 h 27 min, Y- \, A& o6 f: Z& m
    Bit rate                                 : 26.3 kb/s9 O$ n( a7 G! b7 O; z  e! R
    Count of elements                        : 1518: ~% }# H( M9 N# I  d, B
    Stream size                              : 16.5 MiB (0%)
    3 b# k' ~+ n  ]1 NTitle                                    : Danish-PGS
    8 w. }. `! G* F& q7 N. d% ULanguage                                 : Danish
    . g) f- N% R. a) w9 _& V% X6 }Default                                  : No  C: G  I1 b: k4 L) v$ d
    Forced                                   : No9 N: ^, }% ^4 O+ k* D

    ( e5 {, O& k6 ], E6 ?Text #12
    6 E) E& n! M6 c% n/ V7 xID                                       : 16
    ( p* m* Q6 K5 V) ]( U" k" cFormat                                   : PGS) w2 D2 ^# O2 M/ i. e+ j
    Muxing mode                              : zlib
    4 R% W, Z5 i) h! u/ H3 T' nCodec ID                                 : S_HDMV/PGS
    1 w# s2 Q# g5 U3 d! }! |" ~Codec ID/Info                            : Picture based subtitle format used on BDs/HD-DVDs; T7 M# S5 H! S4 R
    Duration                                 : 1 h 20 min% J8 I0 E8 m: _  W2 Z  Z
    Bit rate                                 : 32.3 kb/s1 N; H8 Z# w' |
    Count of elements                        : 1894
    # h& [  S- R, m6 _" Q! v6 N4 s! FStream size                              : 18.5 MiB (0%)( `; ~- \3 o( L6 y1 }2 p* P
    Title                                    : Dutch-PGS; k/ p5 f+ ~9 I1 _. u# h
    Language                                 : Dutch
    7 c) \' I8 \' _$ `/ G1 \Default                                  : No
    * a" u* ?! y: l* o% Q& F* wForced                                   : No
    3 V: i% y4 P) U! D1 E0 G; o1 Q  X
    5 _, f; H  _: C2 v6 a7 s  IText #13* H9 y- ?2 H3 g/ E0 D4 L+ L. n
    ID                                       : 17
    * C  @/ U9 l* Y) j8 GFormat                                   : PGS0 t7 z9 ^8 C+ D1 m9 b% B% z
    Muxing mode                              : zlib  I. ~$ k$ p9 j: V: R3 ~% N
    Codec ID                                 : S_HDMV/PGS
    ) W, ^6 d' P4 B2 o* n6 ^Codec ID/Info                            : Picture based subtitle format used on BDs/HD-DVDs
    ' T, j7 O4 }2 e. b8 K  L% p& LDuration                                 : 1 h 20 min
    5 N" c; x/ X' M8 ^( o1 zBit rate                                 : 30.9 kb/s* _9 O/ b5 J4 I0 P) ^
    Count of elements                        : 1659
    9 d) c( p$ s/ W$ z" [# |Stream size                              : 17.7 MiB (0%)( e; W* F8 v# U8 J) g/ g& C  y9 A
    Title                                    : Finnish-PGS
    " T) V; |+ P* s- X" M7 `$ kLanguage                                 : Finnish
    7 F" n2 Z* r; M* e. ^& YDefault                                  : No: P0 J' C3 _" u: e
    Forced                                   : No
    ( s9 T: U7 V/ w  ~9 t8 i5 C
    5 W0 e8 x3 v1 E$ U  {, FText #14
    3 w% b! u, R5 o0 EID                                       : 18
    8 y& d6 c6 T7 KFormat                                   : PGS
    4 d' N) @, F+ R4 kMuxing mode                              : zlib
    1 }0 {" y6 `8 ^: E. \9 c( hCodec ID                                 : S_HDMV/PGS
    ( M; M2 \( V( X. Q$ m5 }3 |Codec ID/Info                            : Picture based subtitle format used on BDs/HD-DVDs
    # `" o; r$ f2 R: D5 V5 r$ QDuration                                 : 1 h 27 min
    + j4 L2 t; l) _( C$ s. P* z0 [Bit rate                                 : 27.9 kb/s
    ) k7 K8 x/ d! d1 p9 \' qCount of elements                        : 1888
    ; v0 e$ m' t- S, jStream size                              : 17.5 MiB (0%)3 [$ b0 }- ^* I& r; X
    Title                                    : French-PGS$ r! I& l( f1 ^) g: w% |% U# G
    Language                                 : French
    * m1 R9 W- i  cDefault                                  : No' s! g# H# P$ M0 x
    Forced                                   : No
    $ r4 E" H/ x$ c( p3 {8 G5 ?. v+ {8 x$ }* Q" k2 R. B  I: U" s
    Text #15
    , ]2 `$ U# ^. pID                                       : 19
    % z0 E' _5 `: }7 Y/ C* lFormat                                   : PGS
    % u+ C. `  ]5 b5 N6 g% W$ K+ GMuxing mode                              : zlib
    4 ?+ a1 i3 a9 E1 \, `5 o- h; T" FCodec ID                                 : S_HDMV/PGS& u# `$ e7 y  Y' N
    Codec ID/Info                            : Picture based subtitle format used on BDs/HD-DVDs% p) N" H! L4 X1 v- E( [
    Duration                                 : 1 h 20 min$ J( I% t; ]7 Q6 P
    Bit rate                                 : 37.9 kb/s+ m: t3 w2 L, i0 H2 o
    Count of elements                        : 2088
    - `3 C/ k0 W2 J& S4 T3 r5 T0 M2 OStream size                              : 21.7 MiB (0%)( ~( Z3 r- L4 w4 j/ Y
    Title                                    : German-PGS  C8 ^5 ~1 }+ Y, l
    Language                                 : German2 W9 n% q" d: ~( M
    Default                                  : No7 T2 m' n2 g. Z( W' |
    Forced                                   : No4 n/ a; r( M& F1 o

    ; w& ?2 y9 n. t5 q1 j/ vText #16
    . E3 [2 f$ a7 K! rID                                       : 20' g+ b6 I  O4 `) f* Z
    Format                                   : PGS
    , ^: T, ~# ~6 s2 Z6 oMuxing mode                              : zlib2 H: [" ~: `* Q# A/ `
    Codec ID                                 : S_HDMV/PGS
      G8 y1 S1 p; M, y- [, ]  JCodec ID/Info                            : Picture based subtitle format used on BDs/HD-DVDs
    $ U/ x  t% _3 i& u/ E6 IDuration                                 : 1 h 20 min
    ) u6 ~7 `6 X! J# v- LBit rate                                 : 34.8 kb/s+ @6 ]8 d9 l/ d( a
    Count of elements                        : 2028* O0 x) S# A& j& G, [4 x
    Stream size                              : 20.0 MiB (0%)+ w9 g7 [* U0 n; X
    Title                                    : Greek-PGS6 I% u5 P) n! k+ t" M$ n" R/ h: ?! c2 k
    Language                                 : Greek
      N: Q" @7 h. C4 Z6 mDefault                                  : No
    . V8 i6 Z' M; l- f0 ?Forced                                   : No
    # V9 x1 E! s2 v" t" m% }8 }" x% c+ Q
    Text #17
    0 c3 I. k" z, v# `0 c$ U( o; Y% T$ JID                                       : 212 H2 k% L# x* R0 x2 s" [( E( y* ^
    Format                                   : PGS* V, i: f+ _( o  Q" j
    Muxing mode                              : zlib
    4 C# ~( V6 Z  J5 P8 T7 K: vCodec ID                                 : S_HDMV/PGS
    . ~( \3 k* A2 H" i2 K+ j! o" q/ rCodec ID/Info                            : Picture based subtitle format used on BDs/HD-DVDs/ B7 i7 P/ E: T
    Duration                                 : 1 h 20 min1 }" m4 j$ E- Q, b5 j1 B3 c) @
    Bit rate                                 : 32.7 kb/s
    - @" Y: w7 }# {& Z" wCount of elements                        : 2050
    ) @) m/ i, d2 ^' I' pStream size                              : 18.7 MiB (0%): D" q. v# d' s& H
    Title                                    : Hungarian-PGS" q; P. e9 E1 c, l- L
    Language                                 : Hungarian
    " F) G4 R9 c6 a" T! I% \Default                                  : No  i5 ^* I& k4 Q2 ^$ D
    Forced                                   : No
    . Z  ]. P: }# q, U; U; v3 @6 f" m6 S  P  k3 F! o, L9 h& H+ s. F
    Text #18
    ( p6 w) V, H  J3 X. ~: a. kID                                       : 224 P+ S# C4 c5 _2 a( J+ u
    Format                                   : PGS7 K$ j/ b. t& W3 ^8 J
    Muxing mode                              : zlib) m* a- z& A: ~% x+ l5 r7 U7 O  z
    Codec ID                                 : S_HDMV/PGS
    & G$ h+ b- Z6 sCodec ID/Info                            : Picture based subtitle format used on BDs/HD-DVDs# X' x6 |; \4 w2 T3 }
    Duration                                 : 1 h 20 min3 E6 m" n; E) D6 b5 Q' _" u$ C! j' [
    Bit rate                                 : 37.1 kb/s
    5 b1 r' @6 u' V. ]' [Count of elements                        : 2076/ d. g3 E8 D' G! m& v% b
    Stream size                              : 21.2 MiB (0%)4 N0 T3 A, |/ A: ?4 I- f+ [( f- J- \# G
    Title                                    : Italian-PGS
    ( u2 ~. R1 J- h  Z  |1 ALanguage                                 : Italian
    ! N7 \/ Q; S/ FDefault                                  : No" w5 m+ `( @& z9 W
    Forced                                   : No
    , W* y9 ^  \9 Y* @) l) r7 U3 f4 ]: P& a$ E6 S5 q
    Text #196 l4 N6 w/ q$ H& y4 }
    ID                                       : 23
    ( g! R5 J! K8 x& f' `2 F8 OFormat                                   : PGS5 T  Z& f- _# _3 Q
    Muxing mode                              : zlib
    ) w! ?$ x; Y, FCodec ID                                 : S_HDMV/PGS
    1 T" j3 j+ z$ V! `8 k5 RCodec ID/Info                            : Picture based subtitle format used on BDs/HD-DVDs: P) Y  i: }+ L# e
    Duration                                 : 1 h 20 min
    : X* \! f  T  z/ Y  d2 n; TBit rate                                 : 27.7 kb/s
    4 O7 d% n; z% mCount of elements                        : 2391
    + `. R3 A* Q# r/ @. n9 C* K! HStream size                              : 15.9 MiB (0%)
    1 B3 g: d+ a/ f6 j' G" z7 E+ iTitle                                    : Japanese-PGS
    ) _$ I/ m1 L: v0 u: |/ M. DLanguage                                 : Japanese' a: J+ x3 Q. W7 I( e: ^* h
    Default                                  : No" f8 F" @& w. M6 k8 @6 s( u
    Forced                                   : No+ T! d% W6 L! p4 o2 |: I

    5 c  `4 M' k3 Y+ A& V, XText #200 Q8 ~4 u* F. J6 G! F+ z" ?6 g, @
    ID                                       : 24
    5 ~" X9 ^2 H- u" l1 ^Format                                   : PGS) H$ D7 Z: V5 Y5 u4 T  x+ A5 U! V2 O2 {
    Muxing mode                              : zlib$ M" i3 b7 w: @$ Q9 T
    Codec ID                                 : S_HDMV/PGS! p2 X: D+ C& R5 U! d# p0 _, _
    Codec ID/Info                            : Picture based subtitle format used on BDs/HD-DVDs
    ( m# I: H; H/ s& ~. l% Z: SDuration                                 : 1 h 20 min
    * ]3 U+ b5 w/ p# B% o2 qBit rate                                 : 29.0 kb/s
    3 a1 N, h/ u, {/ ~Count of elements                        : 2104
    " K6 P. c/ s9 b) B% j1 ]( FStream size                              : 16.6 MiB (0%)* i- C9 p$ d; q" N
    Title                                    : Korean-PGS1 K1 k  B3 a1 F7 {; {. K- E
    Language                                 : Korean
    9 v6 [- [8 X- _+ TDefault                                  : No
    # j0 j7 g7 {( a3 t- L/ SForced                                   : No+ n6 f& R9 S  G* E
    4 C. w; J" I6 w* z8 O
    Text #21/ H0 u' T- p& p1 X% Z& N6 P$ k
    ID                                       : 25
    # ~7 }. q* l+ ~! D5 K0 aFormat                                   : PGS
    " {9 g+ G% B# f2 _3 ?6 FMuxing mode                              : zlib+ P7 e8 U$ z. M
    Codec ID                                 : S_HDMV/PGS
    % y' w! Z  V1 h3 L* d* u  s/ r0 sCodec ID/Info                            : Picture based subtitle format used on BDs/HD-DVDs- v$ q/ M2 X. D6 a
    Duration                                 : 1 h 27 min
    / Q% c& p9 Z! ~: ^, jBit rate                                 : 27.4 kb/s- X, c1 V; Z1 B, J5 {$ S
    Count of elements                        : 1802" ^+ I$ l; b4 H6 J# a
    Stream size                              : 17.2 MiB (0%)
    % s" q$ Q( q0 K! p: TTitle                                    : Norwegian-PGS
    , F9 [1 K( G3 X+ @0 @) T; j! S. xLanguage                                 : Norwegian
    * O6 {: r6 Q& V! n  ~Default                                  : No
    # g$ F; K3 g' w0 D! b1 b" p2 H+ ZForced                                   : No+ e& ]1 D' K. b8 I5 G- ~0 a

    2 L+ S. K1 N0 O: M# ?& }Text #22
    % g9 |/ i# Z$ L8 qID                                       : 260 b( A  J! X+ f2 Z6 E1 u
    Format                                   : PGS. S, B3 p! s: i- e
    Muxing mode                              : zlib5 W4 E; x" F7 G% |
    Codec ID                                 : S_HDMV/PGS0 w  ^& M* U9 G: E1 I; Z; @, j
    Codec ID/Info                            : Picture based subtitle format used on BDs/HD-DVDs) ]. g1 M7 ^* E! g$ H
    Duration                                 : 1 h 20 min
    + S/ u, O$ M: p3 d1 y8 Z5 yBit rate                                 : 27.3 kb/s5 d: u3 Q+ V  T  [1 p' t$ {9 T
    Count of elements                        : 2062
    0 I  @# s* |  c+ z5 t) L$ V2 H% CStream size                              : 15.6 MiB (0%)1 }: F8 f3 K* {' y
    Title                                    : Polish-PGS6 T0 i8 x$ Z& Z4 y3 E& t7 ~4 @2 n
    Language                                 : Polish! @& y  q) i0 P6 |
    Default                                  : No
    0 }) M3 |1 ]$ cForced                                   : No+ m" `* |& y2 a' Y1 ~0 C" _

    % |  o  S6 `" XText #23" y1 v% J# o, Q3 r. n( z( J* S
    ID                                       : 27
    3 E8 L2 M: c. G$ s3 Y; d& VFormat                                   : PGS
    9 m4 N% D! X" [Muxing mode                              : zlib
    & {  U3 E' G; m: {% X, {5 GCodec ID                                 : S_HDMV/PGS
    7 i& |/ k$ X/ s5 D+ z+ OCodec ID/Info                            : Picture based subtitle format used on BDs/HD-DVDs
    ( i3 i" `/ y1 m: x9 }Duration                                 : 1 h 27 min* l( T/ E0 Z% L! t7 V5 Y* c. {8 u
    Bit rate                                 : 29.3 kb/s
    # q1 j9 C6 o. E/ r$ |0 U  zCount of elements                        : 20103 D: c& y. i# e' Y
    Stream size                              : 18.4 MiB (0%). ]' I4 `3 U- E' g9 d3 Q- g
    Title                                    : Portuguese-PGS
    4 ]3 ]- k! N5 y  F7 zLanguage                                 : Portuguese
    5 W7 x5 u1 g& ^) |. i8 D8 n) KDefault                                  : No5 g  M0 F: H; X1 g
    Forced                                   : No
    3 q  C  D  D* g6 `0 k) x0 Y* @9 T/ b8 j. H: E
    Text #24
    2 D1 h% `, e5 Z' |8 }3 dID                                       : 28
    ! W6 R) k' ]/ s6 E& O( BFormat                                   : PGS
    4 f: @2 C( @, O! K. IMuxing mode                              : zlib) k* c2 y9 L# D0 m: x
    Codec ID                                 : S_HDMV/PGS5 ?9 K, F& ~" k  \- F
    Codec ID/Info                            : Picture based subtitle format used on BDs/HD-DVDs
    3 f% y( L4 E% A3 F( _6 |& C7 H- rDuration                                 : 1 h 20 min8 g& ~! b' c) u. o
    Bit rate                                 : 37.9 kb/s; V& ~$ u* g% X0 U3 C6 O2 [+ A
    Count of elements                        : 2099- y/ \/ E/ [( t2 N6 j
    Stream size                              : 21.7 MiB (0%)  V2 Q9 k, B+ Q0 E4 s6 f0 _- i
    Title                                    : Portuguese-PGS
    $ _" j7 q0 p' Q9 J& ]* W% `2 ?Language                                 : Portuguese
    , |" V' _6 _) b5 a; k1 ]8 Y. jDefault                                  : No; ~" w$ H) I& c+ T
    Forced                                   : No/ v9 b0 L9 b1 g( w
    4 |9 {+ R% y* S6 j, j+ |
    Text #25
    ( F6 L: ?1 p: FID                                       : 29
    : Y5 [' w( Y' n& q1 n  W. m( aFormat                                   : PGS4 o0 V: G) e2 I7 m8 `
    Muxing mode                              : zlib
    9 X, r2 X) R+ X. P1 m3 ^Codec ID                                 : S_HDMV/PGS+ c* m  t2 N7 f" L1 }
    Codec ID/Info                            : Picture based subtitle format used on BDs/HD-DVDs
    / ?$ ~/ j  ~. f8 u1 sDuration                                 : 1 h 27 min( e% L/ R3 L* C5 ?6 T
    Bit rate                                 : 30.2 kb/s7 U6 Z5 w, L2 d. X" i
    Count of elements                        : 2078' E  H- `# P- K5 C5 i8 ^
    Stream size                              : 18.9 MiB (0%)
    5 b: f  p# N& H7 F. d0 v) aTitle                                    : Romanian-PGS
    $ N$ l( [8 R! L6 [Language                                 : Romanian
    1 z  p3 o  G2 _$ p# S3 A. P' @  R. DDefault                                  : No+ f/ l( O! c0 h( J- R
    Forced                                   : No% i2 [1 s1 c0 E8 F" H
    9 X6 l4 e, L0 h( [1 i5 t
    Text #26
    ) r4 }, U" u2 j4 _! |& KID                                       : 30
    2 a+ j; \+ h9 _" BFormat                                   : PGS
    " F! t% [( c/ J# K2 C1 LMuxing mode                              : zlib( s# T8 l6 U2 X5 P8 H4 w
    Codec ID                                 : S_HDMV/PGS# q: V% J# r% {+ |3 h1 {: b, R) f
    Codec ID/Info                            : Picture based subtitle format used on BDs/HD-DVDs- f. S  z, }* r6 b& K
    Duration                                 : 1 h 20 min
    7 N' D; {) E: P7 v7 j, QBit rate                                 : 40.6 kb/s
    % f0 ^/ c( N& ~Count of elements                        : 2278* t4 ~* k9 F3 n4 h7 s8 C& M
    Stream size                              : 23.2 MiB (0%)  k( G* A) Z/ {. R+ c
    Title                                    : Russian-PGS
      l( E9 J0 _( a3 S% {( BLanguage                                 : Russian$ N. e" f0 e$ Y! K/ }
    Default                                  : No' i3 l- L5 e4 w0 N' S8 ~# f7 E; g5 T
    Forced                                   : No
    ! G1 [( z, @% G. v3 w
    , S! w3 E- I9 f1 h+ N+ HText #27
    # _: {3 P- g, @$ sID                                       : 31
    5 [- f% K; A* x5 @6 \( l/ NFormat                                   : PGS
    $ E0 a, B: y9 w7 ^! i) `Muxing mode                              : zlib
    ' H0 O& d/ Y. J# f% m8 ZCodec ID                                 : S_HDMV/PGS
    9 j# z- U) _2 E0 |8 i. K8 M" [Codec ID/Info                            : Picture based subtitle format used on BDs/HD-DVDs
    4 Y0 @- Y+ r. ~5 o0 l; eDuration                                 : 1 h 20 min
    9 |  c- S; e9 n) K, o: w0 M3 R9 \Bit rate                                 : 34.1 kb/s) Q2 f! R+ G- ?7 P1 {
    Count of elements                        : 2174
    ) [  u( u( k# x1 bStream size                              : 19.5 MiB (0%)
    ) N& }8 V& b9 Y, w) \; kTitle                                    : Spanish-PGS
    ; G% J; d% |+ _! TLanguage                                 : Spanish' u* V( m4 |3 r! _  @4 {0 i! L
    Default                                  : No
    % r  ]* k" X: S6 b# TForced                                   : No
    % a) P: `& M# L7 S# g7 y9 y" u! z: L
    0 v, A5 W% _8 VText #28$ D* d2 U: m) `* O
    ID                                       : 326 E! C6 ?, K* G( n3 ~# y! g
    Format                                   : PGS+ ^: a0 J% D! a4 S  I$ F' |* t! j
    Muxing mode                              : zlib
    - ]( Q7 L4 e, o( w/ g! @& YCodec ID                                 : S_HDMV/PGS( u# i- C- r7 k/ r
    Codec ID/Info                            : Picture based subtitle format used on BDs/HD-DVDs  X( b7 l. q# y  d9 w. k' [
    Duration                                 : 1 h 20 min
    $ j% P3 u# Z. c/ M2 X8 Z6 IBit rate                                 : 36.1 kb/s# q8 k2 ~* o5 B, ?: v( ]
    Count of elements                        : 2112
    + ^; L7 E2 J, e+ m- TStream size                              : 20.7 MiB (0%)
    0 y* E; v& @, H2 ?) k, _3 `) HTitle                                    : Spanish-PGS
    - u4 H) M! T) R( M; x! ?Language                                 : Spanish* H3 i# a. r! e3 D
    Default                                  : No) ?; E4 @' w3 L6 X; H; K8 ^
    Forced                                   : No- J1 U' ]+ `7 S1 c

    9 L+ _! L0 Q" @% \3 GText #29" k/ b4 {3 F7 g. A! a: ?
    ID                                       : 33
    . O' c3 D, r- Z+ J( [Format                                   : PGS
      h3 c" G1 y9 g$ A5 c/ [Muxing mode                              : zlib
    , J  T) o2 e' Q3 ~+ JCodec ID                                 : S_HDMV/PGS. [. F: g' P% P; o# @
    Codec ID/Info                            : Picture based subtitle format used on BDs/HD-DVDs
    5 d: _8 c: ^* hDuration                                 : 1 h 27 min
    7 L. ^2 x' s. W  ?" `- U, sBit rate                                 : 27.3 kb/s2 }. p7 K1 ?. B/ w) Q5 i2 j
    Count of elements                        : 1542% X2 A. J5 Q6 A+ U* f3 v
    Stream size                              : 17.1 MiB (0%)
    ) u  `/ P; H3 Z) wTitle                                    : Swedish-PGS; @* N: U& h9 r0 g# Q; a1 B
    Language                                 : Swedish1 |0 l: J6 ^: p9 c
    Default                                  : No
    ) K3 o# g6 A$ q  @+ l8 `7 j  g! k6 kForced                                   : No/ K) R) S  T& n  Q: o4 o
    2 p! j; `: A. J
    Text #30
    % Z8 G6 ?+ I) H- J; RID                                       : 347 K9 |  E, ~% L# S  A0 z
    Format                                   : PGS
    ( L, P% N( e+ U& T1 I. kMuxing mode                              : zlib
    # B; ^1 j1 N* e( R6 H! m2 M1 ]Codec ID                                 : S_HDMV/PGS
    6 X8 g7 M1 q! w" _' {) L) ^$ H0 O, {: dCodec ID/Info                            : Picture based subtitle format used on BDs/HD-DVDs
    ' j, P% A8 @7 v; d0 |" y2 nDuration                                 : 1 h 20 min. n1 T9 [; m4 l6 b- r
    Bit rate                                 : 34.0 kb/s& `7 |! |1 f& O' l9 o
    Count of elements                        : 2169
    5 h3 N5 W  B+ |- cStream size                              : 19.4 MiB (0%)
    & D( {2 A) q. Y) s8 K5 J2 {. cTitle                                    : Thai-PGS
    . i1 ~1 I; R: k7 _" a9 [/ t0 PLanguage                                 : Thai
    2 \/ ?) |  i9 f! S- E* D# |Default                                  : No
    # X$ I* y* U' C; YForced                                   : No( N$ }5 D. Z5 _$ L

    6 \# j; l. ~) LText #312 S4 `! l9 ^+ C4 e  y; B
    ID                                       : 35
      {, @: h+ K# h( Z1 H5 C0 g9 r! dFormat                                   : PGS; q; w9 U  H$ @  @! i
    Muxing mode                              : zlib# F- r& L/ I7 _* Y  V5 Z( l$ \
    Codec ID                                 : S_HDMV/PGS7 D+ T/ B2 J2 i* h* \  d8 K
    Codec ID/Info                            : Picture based subtitle format used on BDs/HD-DVDs( }2 e/ n7 n# b, t; N" Q
    Duration                                 : 1 h 20 min
    2 a. ?# v. b! ?6 q1 h5 `6 u: T/ X9 g8 [Bit rate                                 : 35.2 kb/s* g0 F8 [# h8 f: M5 N( O* R
    Count of elements                        : 2167% ^) d; f0 X5 S, B" }) m' ^0 z$ g' P
    Stream size                              : 20.2 MiB (0%)6 Z, k& F4 g# |4 Z
    Title                                    : Turkish-PGS
      r+ e) t( y9 g. Y5 ^* tLanguage                                 : Turkish8 h9 e! N8 d) e* `) `
    Default                                  : No
    # |0 a* K7 }4 DForced                                   : No
    1 v6 |4 p) \% t" n; P
    * p9 _" l; j$ f( H; S* b. BMenu
    # J2 f) R# U% a9 s% F/ ~00:00:00.000                             : en:Chapter 1
    6 f1 i5 U: K* ^5 d+ Y00:07:01.129                             : en:Chapter 2
    1 ~3 R9 R. }% r% w! {- U6 E00:13:20.716                             : en:Chapter 3
    2 N/ a( {9 g# |+ j00:19:05.936                             : en:Chapter 43 Q' N! ?4 p* L. L* i
    00:24:23.170                             : en:Chapter 5
    9 p, D( w4 e2 Z' W3 m00:30:41.256                             : en:Chapter 67 R* f0 g6 Q4 R9 t, Z
    00:34:59.388                             : en:Chapter 7$ g' [6 v* F2 g' s; u
    00:41:55.596                             : en:Chapter 8* e$ u! d. u" T  |/ T
    00:48:13.974                             : en:Chapter 9
    & b6 t) X% J( d# f0 \6 L* }* p00:52:32.858                             : en:Chapter 10
    : B* B& r: ]$ B/ W/ z/ [+ t! q0 p00:57:32.824                             : en:Chapter 11  i$ F! n' o* U9 m1 {
    01:02:34.125                             : en:Chapter 12! V* }- q# s7 D: l
    01:06:20.434                             : en:Chapter 13+ m& _; N+ W8 l' ]' l) K: g2 u& q
    01:10:30.059                             : en:Chapter 14
    , `2 r5 X; E, w1 }% b" G01:13:54.847                             : en:Chapter 153 M7 _8 \5 |$ g
    01:16:02.474                             : en:Chapter 16

    8 Y5 X" y- L: R  m+ ]
    SWEATY BALLZ presents
    0 d& z  J5 a$ `7 R8 c) i5 h  O. R; K5 q% u
    Men.in.Black.II.2002.2160p.BluRaycd.x264.8bit.SDR.DTS-HD.MA.TrueHD.7.1.Atmos-SWTYBLZ. H. D! ~3 A) ?
    Converted from 10 bit HDR to 8 bit SDR using tripple mixed Hable-Reinhard-JJ per scene+frame analysis algorithm) ~) r* I. B* P5 w% U* q
    5 W1 A. q/ }8 _) ^+ D8 Y* G
    Video/ b$ a) Z! p9 h0 o9 F; z
    ID                                       : 1
    , K2 _/ l* z% p' k, o4 e' S( i/ zFormat                                   : AVC
    6 o  b& m3 g6 p8 u% mFormat/Info                              : Advanced Video Codec6 L- ]; B0 o& q6 v3 T2 b
    Format profile                           : High@L5.1
    % E1 P' e& n# QFormat settings                          : CABAC / 5 Ref Frames7 g* A' Y0 v  z' |
    Format settings, CABAC                   : Yes) }! E% s: x  o( F
    Format settings, RefFrames               : 5 frames; }3 l& Y$ Z9 ]" t7 H# u5 H! `# H
    Codec ID                                 : V_MPEG4/ISO/AVC
    * n# B& h; g+ }! K: a- p8 iDuration                                 : 1 h 28 min
    3 N, Z& |1 n7 C; d9 I: UBit rate                                 : 83.3 Mb/s5 H: [9 N: \- |% u4 ~- o
    Width                                    : 3 840 pixels
    2 A& z3 S( n" LHeight                                   : 2 076 pixels
    : |5 z. }; @8 KDisplay aspect ratio                     : 1.85:1( h7 Q! N6 T  s) E, Q5 E
    Frame rate mode                          : Constant4 v- T# L9 X1 d  H/ j8 O. {) w, k
    Frame rate                               : 23.976 (24000/1001/37687) FPS+ V6 u  w% m' ?" A9 M
    Color space                              : YUV( N$ e. c5 F6 h: ]  m- L% Z) K! r
    Chroma subsampling                       : 4:2:0
    4 B& e. F$ i0 cBit depth                                : 8 bits+ X' T' E7 d4 u/ e; @
    Scan type                                : Progressive
    9 U7 q! s, V9 \% ^1 ?Bits/(Pixel*Frame)                       : 0.436
    % [+ I/ O" m4 lStream size                              : 51.3GB (88%)
    5 K" c3 V& T& d2 d# K9 h+ UTitle                                    : Men.in.Black.II.2002.2160p.BluRaycd.x264.8bit.SDR.DTS-HD.MA.TrueHD.7.1.Atmos-SWTYBLZ. R9 q/ M0 Q% d
    Writing library                          : x264 core 148 r2748 97eaef2. B) Q$ i9 k+ C
    Encoding settings                        : cabac=1 / ref=5 / deblock=1:-1:-1 / analyse=0x3:0x113 / me=umh / subme=10 / psy=1 / psy_rd=1.00:0.15 / mixed_ref=1 / me_range=48 / chroma_me=1 / trellis=2 / 8x8dct=1 / cqm=0 / deadzone=21,11 / fast_pskip=1 / chroma_qp_offset=-3 / threads=65 / lookahead_threads=5 / sliced_threads=0 / nr=0 / decimate=0 / interlaced=0 / bluray_compat=0 / constrained_intra=0 / bframes=3 / b_pyramid=2 / b_adapt=2 / b_bias=0 / direct=3 / weightb=1 / open_gop=0 / weightp=2 / keyint=250 / keyint_min=23 / scenecut=40 / intra_refresh=0 / rc_lookahead=50 / rc=crf / mbtree=1 / crf=18.0 / qcomp=0.60 / qpmin=0 / qpmax=69 / qpstep=4 / ip_ratio=1.40 / aq=1:1.00) K7 @8 L3 X9 i1 p5 F- B  m
    Default                                  : Yes
    5 {5 w5 d, d3 F* Z* f# h4 I. jForced                                   : No# [1 O# ~5 y( t  [6 @' Y1 `

    ; m8 M- Y; j* p/ q# ?+ |+ U1 XAudio #1" V1 o% P; `/ l
    ID                                       : 2
    0 y/ a8 H9 |4 _/ z; e1 lFormat                                   : TrueHD$ T' v) z( d# Y9 U5 ^
    Format profile                           : TrueHD+Atmos / TrueHD+ P' l! g1 }0 a0 {
    Codec ID                                 : A_TRUEHD
    : B- L3 l" d' P. ^" HDuration                                 : 1 h 28 min8 A- {' ]  R* h
    Bit rate mode                            : Variable
    ) ]. v8 K. O% H* F& P8 k4 F, vBit rate                                 : 5 828 kb/s
      e1 D) A, k9 T/ |6 xMaximum bit rate                         : 8 793 kb/s
    ! s% y6 @% ~6 E. l) Q" hChannel(s)                               : Object Based / 8 channels, Z2 G! B6 C4 b" l; Y
    Channel positions                        : Object Based / Front: L C R, Side: L R, Back: L R, LFE
    2 j& s) c- V$ c, }# `Sampling rate                            :  / 48.0 kHz* P1 A% s9 C+ @3 V4 e" a/ e# E
    Frame rate                               : 1 200.000 FPS (40 SPF)
    # I& v9 W7 T" L$ G1 aCompression mode                         : Lossless7 C9 ?4 G  I) Q% M
    Stream size                              : 3.59GB (6%)
    4 }9 i7 u: X/ I( mTitle                                    : Men.in.Black.II.2002.2160p.BluRaycd.x264.8bit.SDR.DTS-HD.MA.TrueHD.7.1.Atmos-SWTYBLZ; v& ]# ]8 D1 N* @9 a
    Language                                 : English
    ' o9 S& B/ Y. @$ s7 v' r/ L" pDefault                                  : Yes- i2 E% ]' k. K- G* G" i( o6 K
    Forced                                   : No
    ' s( A! R0 J3 D% b. l7 T4 `" G- I+ v; Z1 k& g
    Audio #2
    - z$ i9 X, m; z6 ^& D9 b8 o. HID                                       : 3
    . g% x5 M, y* lFormat                                   : DTS" W: K. `1 ~' R  f% t5 t- `$ v- A
    Format/Info                              : Digital Theater Systems
    7 E7 a( ~6 E6 y  kFormat profile                           : MA / Core
    - |+ b5 a& f8 J/ W+ ?! l' K. qCodec ID                                 : A_DTS' Q* _3 k% u% F" S+ c( T
    Duration                                 : 1 h 28 min
    : ?2 S+ U+ s6 y7 P, aBit rate mode                            : Variable / Constant3 U9 v5 N  p) L6 l" q2 p
    Bit rate                                 : 4 727 kb/s / 1 509 kb/s+ H9 c2 P1 A" U/ ?6 a: t3 U4 N
    Channel(s)                               : 8 channels / 6 channels
    9 X- s9 q( S6 b6 H$ I1 fChannel positions                        : Front: L C R, Side: L R, Back: L R, LFE / Front: L C R, Side: L R, LFE# w* w! \4 [* _5 N" }1 u- |
    Sampling rate                            : 48.0 kHz
    9 W% K) m! D0 J% nFrame rate                               : 93.750 FPS (512 SPF)8 i, I8 z1 m! B: k2 d  r; f, u
    Bit depth                                : 24 bits
    9 j% N6 a% _$ Y# yCompression mode                         : Lossless / Lossy
    " }. a1 A7 d+ ^: j5 F- T; |Stream size                              : 2.91GB (5%)/ L/ @' f: u6 N0 t; |0 E
    Title                                    : Men.in.Black.II.2002.2160p.BluRaycd.x264.8bit.SDR.DTS-HD.MA.TrueHD.7.1.Atmos-SWTYBLZ
    2 K8 g  n4 ?: B( e$ GLanguage                                 : English- q. O; ?6 _. S* @& [8 ?1 u) p. G
    Default                                  : No# t3 a8 [& q" s6 j
    Forced                                   : No  Y8 B. R5 G2 k1 z; J* W# \
    9 K+ u, Y" ^8 g. U- s
    Audio #3# K1 R) h5 |  J% Q7 y" `
    ID                                       : 4
    / x/ m$ `+ Z3 z3 k% p1 BFormat                                   : AC-31 H- L. Q# y8 S6 {
    Format/Info                              : Audio Coding 3
    $ m; l: Q2 K4 N2 j* e: V+ \Codec ID                                 : A_AC37 S3 e, k, X0 X2 Q, e  @3 t
    Duration                                 : 1 h 28 min& k& H/ w) T0 C! G8 Y$ A
    Bit rate mode                            : Constant
      C% R, g2 v# q5 J) c5 g' Z* MBit rate                                 : 640 kb/s2 K4 ?, K' j- X3 Y
    Channel(s)                               : 6 channels8 Z8 ~2 {- D6 Y0 [! h/ X7 ^: J( U
    Channel positions                        : Front: L C R, Side: L R, LFE
    5 c- r2 f4 j+ p" K5 l  SSampling rate                            : 48.0 kHz
    $ L* z3 A% G5 H' L. O4 kFrame rate                               : 31.250 FPS (1536 SPF)* c( h7 L1 G/ W, {
    Bit depth                                : 16 bits: `( p3 O1 C0 x
    Compression mode                         : Lossy
    : U! p. S6 {2 s! _# c! x* zStream size                              : 403 MiB (1%)9 l! ]# A0 |2 e) \
    Title                                    : Men.in.Black.II.2002.2160p.BluRaycd.x264.8bit.SDR.DTS-HD.MA.TrueHD.7.1.Atmos-SWTYBLZ
    * O6 i: m& ~: U* G/ OLanguage                                 : English
    ( N3 I7 N. }$ {4 u# cService kind                             : Complete Main1 e. ~0 Y) u* n( p: p+ H/ y
    Default                                  : No, E& P! J8 U' T7 p/ U! Y
    Forced                                   : No
    6 @1 \+ N7 @" r+ T& Q6 E; k& o# w! b% f, B$ \
    Text #1
    - C/ U3 k- |/ p& z* W# cID                                       : 5
    0 I! N  ~; c' e+ ]Format                                   : UTF-85 E" z) p' q+ f6 P
    Codec ID                                 : S_TEXT/UTF81 F. }2 A4 W+ _1 }: x+ d
    Codec ID/Info                            : UTF-8 Plain Text
    4 Q" P. }3 A: E+ O2 n- zDuration                                 : 1 h 20 min
    / Y1 d, P5 F, c( @; Z$ y8 [Bit rate                                 : 63 b/s3 ~& f0 [  U7 P9 X$ w8 S
    Count of elements                        : 1058
    . |: _* M' ^7 j+ B4 p$ qStream size                              : 37.4 KiB (0%)
    - e6 d: u* Q# {Title                                    : English-SRT3 n. t& S" u* p) j8 [& q
    Language                                 : English
    * l3 ~3 @4 U) o6 N8 J, l6 NDefault                                  : Yes
    ( R: s7 P+ i, x# `3 IForced                                   : No1 t! y' n  m, U4 ^

    . y7 C- ]9 J) n. NText #20 R7 Q2 s5 |+ u
    ID                                       : 6
    , f. [- K: x( e; B: o; O. u- tFormat                                   : PGS
    ( X! ~9 n9 c! A$ l7 O  I# R# d, ~Muxing mode                              : zlib: ^& u0 c4 j% t- x. K
    Codec ID                                 : S_HDMV/PGS1 m+ v6 T1 G$ `$ f
    Codec ID/Info                            : Picture based subtitle format used on BDs/HD-DVDs" |( R- O9 R- z
    Duration                                 : 1 h 27 min
    0 I& t: I1 f( Q1 v; EBit rate                                 : 43.2 kb/s" i% t" Q4 l# {1 g5 c2 r9 L
    Count of elements                        : 27957 H. j% h4 I, R
    Stream size                              : 27.1 MiB (0%)
    3 ?6 [; @% O- o2 }- Z3 aTitle                                    : English-PGS" B: y8 R: b& F
    Language                                 : English/ h2 H6 p1 D$ G' k- I. Y. k
    Default                                  : No' x- O( p8 B+ q1 ]2 A6 B7 }9 x
    Forced                                   : No* P$ S5 X4 s: @1 C; t* @* k
    8 a+ H1 F/ }7 G& X" Z
    Text #3. ]) s* j/ V7 z+ P) Y7 h9 |
    ID                                       : 7
    ! o5 c% x8 @9 Y1 \Format                                   : PGS
    2 h( h4 Q. U% C' o* l/ MMuxing mode                              : zlib
    ( w. o4 Q3 I5 uCodec ID                                 : S_HDMV/PGS+ o+ Y* a- F, z" e0 ]% i
    Codec ID/Info                            : Picture based subtitle format used on BDs/HD-DVDs
    7 \' m  ^1 ~$ f4 J5 v0 i4 E" n0 kDuration                                 : 1 h 27 min) l# ]" v" F- k. _1 l3 n# M  @0 `
    Bit rate                                 : 35.2 kb/s" F$ ~9 ]) q; A; i9 c3 V
    Count of elements                        : 2130
    , ~  {3 o/ B2 f! d8 U& qStream size                              : 22.1 MiB (0%)
    ) l( j6 X' E9 F9 S3 [3 v+ c! STitle                                    : English-SDH-PGS
    2 f" f) u8 F( ]% X0 A- G3 [Language                                 : English
    2 y( q+ [+ I* vDefault                                  : No
    ) ~4 w) u4 `" k# kForced                                   : No# g; K5 o3 g# q

    - X! [" l0 a: G0 DText #4
    $ P3 g* `; ]4 |4 J  J7 U2 V$ FID                                       : 8
    6 k7 V, X3 D' b7 E/ l+ LFormat                                   : PGS
    : v1 e7 y- S: u7 Y  {( wMuxing mode                              : zlib2 ]; k3 A' |, B0 C9 b
    Codec ID                                 : S_HDMV/PGS: q; C6 ^- x+ ?$ B$ P- c8 ?/ T
    Codec ID/Info                            : Picture based subtitle format used on BDs/HD-DVDs) H. q% K' w( j
    Duration                                 : 1 h 27 min$ M* t% S% i) t1 v; P2 k" }
    Bit rate                                 : 43.1 kb/s
    ) J% q- d6 `; pCount of elements                        : 2792
    : g$ O7 r2 a; O5 ?1 N) P9 aStream size                              : 27.0 MiB (0%)
    8 @6 G3 d! E* ]; l) GTitle                                    : English-PGS
    & l( ^( M1 B, {+ ZLanguage                                 : English; p! P  M2 m5 t+ F8 M# E5 r
    Default                                  : No+ u# z9 c3 F9 r, z- _. E, i
    Forced                                   : No- w, C" J1 Z/ k0 H: U' L/ U
    & x. ~' I% R( I* ^6 M9 a
    Text #56 G2 S7 ]3 x6 k' m6 l) ~
    ID                                       : 9
    ; K: m7 v( O. |; E3 bFormat                                   : PGS4 F2 x% W- w2 ~5 _
    Muxing mode                              : zlib+ ]. D# W# `6 j/ F9 {
    Codec ID                                 : S_HDMV/PGS
    ' a9 D" n2 z/ x8 |- I: w, FCodec ID/Info                            : Picture based subtitle format used on BDs/HD-DVDs
      L6 V( c; r7 i6 ~Duration                                 : 1 h 20 min
    . W* _: o7 r/ |& X1 mBit rate                                 : 38.5 kb/s$ ]0 D: w: c  r) r. c
    Count of elements                        : 2146
    , W7 s' ~7 p  E( g: C3 h* K0 xStream size                              : 22.1 MiB (0%)3 y" v' x8 e; K" c( @! j) {2 ~
    Title                                    : English-SDH-PGS7 m- @- U6 |4 h- A  t( u
    Language                                 : English5 M6 G8 O0 C8 j) V
    Default                                  : No6 s) E! H3 @& j
    Forced                                   : No4 t, H4 c* r" E: e
    7 h/ e( O! [0 [, c. i- z
    Text #6* ?( c4 J  y7 A$ B" _
    ID                                       : 10! c7 c0 u) Q; H* g2 X' P: E3 n
    Format                                   : PGS4 C( a8 G. \+ G: ~
    Muxing mode                              : zlib/ r7 k6 D) h  H
    Codec ID                                 : S_HDMV/PGS
    8 A- k4 y  e9 ~0 k1 J0 uCodec ID/Info                            : Picture based subtitle format used on BDs/HD-DVDs0 S( a! V4 B$ |
    Duration                                 : 1 h 20 min/ t, S+ X. u; n
    Bit rate                                 : 18.9 kb/s0 l0 ?! V$ C( ^$ r1 X
    Count of elements                        : 2066
    5 I# R& i; H& X" EStream size                              : 10.8 MiB (0%)- T' h5 y0 v, X5 y. L& ~2 ?
    Title                                    : Arabic-PGS
    ' ?2 X) o1 J* S  T% x. vLanguage                                 : Arabic
    / p9 p: J& U, S- R, t2 rDefault                                  : No
    ) q" ~' L1 J( Q% CForced                                   : No1 r: F# h6 f1 X+ C( c; M1 I4 l- m
    3 r1 y3 J; \% r9 i7 S
    Text #7
    ( K7 W3 P- W9 s: X6 y0 y$ x) c) WID                                       : 11
    ! m3 s+ O" k6 C2 MFormat                                   : PGS0 G8 T1 u4 V& M( Q
    Muxing mode                              : zlib
    2 S; Y3 w5 g% m) ?8 ?. O# W7 p" h# gCodec ID                                 : S_HDMV/PGS1 H0 F: J6 u  f/ q1 l
    Codec ID/Info                            : Picture based subtitle format used on BDs/HD-DVDs
    2 w4 [+ w9 s" O/ k7 W7 N7 {Duration                                 : 1 h 27 min- U6 c7 e2 Z3 {* Q% G
    Bit rate                                 : 29.6 kb/s
    ; J# I/ t# k* W5 a  p3 I) }; ]Count of elements                        : 2096/ t+ \6 A. [9 y' N% N
    Stream size                              : 18.6 MiB (0%)7 {& o2 w3 Z( \" H4 K
    Title                                    : Chinese-PGS
    ; `# _6 k5 z( a1 JLanguage                                 : Chinese2 a' l  c: ~) U7 q- Y2 k
    Default                                  : No
    5 ?' c5 ^( E8 f$ Y5 G8 T4 xForced                                   : No
    . u  {, ^6 j6 ~0 {
    + U4 L. [$ d2 z7 b" QText #8! l8 Z" M( E( L$ {
    ID                                       : 12
    5 p: i, u) H. C: }% v$ y" ZFormat                                   : PGS$ \7 [+ P* L  I/ o  d! c
    Muxing mode                              : zlib0 Y) j6 T4 ]$ E' Z7 s
    Codec ID                                 : S_HDMV/PGS- w3 y% g9 D( [2 Y
    Codec ID/Info                            : Picture based subtitle format used on BDs/HD-DVDs9 ^3 I5 `  T. r' N5 x  {& p0 ^
    Duration                                 : 1 h 20 min
    & A" r, A2 B0 qBit rate                                 : 32.4 kb/s* ^8 I' E2 h8 Y7 e2 |! B
    Count of elements                        : 2126
    5 b3 M. t( A7 X; c; L* I4 ^/ jStream size                              : 18.5 MiB (0%)
    + [! M5 |% F+ L2 \& lTitle                                    : Chinese-PGS/ f7 [- ~, l5 _+ \& c6 Y
    Language                                 : Chinese7 B  x1 g, ~: z; L4 _' Q* s! K
    Default                                  : No
    ) a- ~. M$ |8 D9 jForced                                   : No
    6 r3 F" B0 N4 W, V, K
      t; q: Q& ?- C3 k4 bText #94 s: L4 g" O; R
    ID                                       : 130 z% F0 y- ]3 W
    Format                                   : PGS. z# V  g$ ^1 \3 [& h: L, }
    Muxing mode                              : zlib. [: a7 w4 j0 W7 E: J4 M
    Codec ID                                 : S_HDMV/PGS
    1 Y6 g( e  ?$ m- S7 ^3 ]Codec ID/Info                            : Picture based subtitle format used on BDs/HD-DVDs
    * p- p! @1 S% |! QDuration                                 : 1 h 20 min: g0 Y1 c: D' H% W" Y1 l( r4 }- {2 v
    Bit rate                                 : 28.1 kb/s  `" R5 i) w5 o% w
    Count of elements                        : 2040
    * \$ W7 x  l  R% u, P% ]! tStream size                              : 16.1 MiB (0%)
    - ^: y$ |0 u" I' E( e& STitle                                    : Croatian-PGS8 N* \  e4 B1 V- I6 P
    Language                                 : Croatian
    6 P7 I2 b( x5 mDefault                                  : No% a; p" Z2 U  Z; q
    Forced                                   : No8 `6 @1 q0 M! e9 V5 e: |' L" R9 G0 P3 O

    4 g. D) n7 u9 i9 F9 RText #10
    % R0 w9 ?; ]$ H/ |, W! x* gID                                       : 14
    $ E9 S& R/ i  F9 {: c" s% E, H3 x0 X: OFormat                                   : PGS
    2 [' o4 p. ^: K2 v& zMuxing mode                              : zlib* c( R1 ~5 d! n1 J
    Codec ID                                 : S_HDMV/PGS
    ( Z% \9 t/ _! M7 P, p9 LCodec ID/Info                            : Picture based subtitle format used on BDs/HD-DVDs; ~4 B: m* H$ P7 a
    Duration                                 : 1 h 20 min+ }. w& [! |" ]& f2 i% b
    Bit rate                                 : 28.4 kb/s+ c. Z- y' Y' w1 d3 ?" F. T
    Count of elements                        : 2050
    % s8 d0 D5 B. f4 M% \- {Stream size                              : 16.2 MiB (0%)
    # u+ A  b5 D2 N; X- ~/ ]# lTitle                                    : Czech-PGS
    , B+ i4 \( I- W0 kLanguage                                 : Czech4 T5 Z' ]# P4 p( n2 [* u2 {
    Default                                  : No
    8 j0 D. _% y4 }" Z, L7 fForced                                   : No
      ]0 n5 k6 f0 ^6 Q. @
    ( ~1 l. W9 v; U; E+ M; eText #117 j; N) G# b& z3 L) p$ d
    ID                                       : 151 T+ D( r- f! b2 r4 q
    Format                                   : PGS3 Q1 e5 u6 Y; [: g
    Muxing mode                              : zlib# y$ ?3 l" e' t3 t8 E" C/ O4 U
    Codec ID                                 : S_HDMV/PGS) L7 v7 `; B' A( P* k1 J# J
    Codec ID/Info                            : Picture based subtitle format used on BDs/HD-DVDs+ Y0 h1 y0 l% _% z0 N
    Duration                                 : 1 h 27 min
    ; m6 u9 c: @- \) GBit rate                                 : 26.3 kb/s+ o' r* M( |5 u7 v$ U- T6 A
    Count of elements                        : 15184 V. `8 V" _/ y$ P
    Stream size                              : 16.5 MiB (0%); t2 P5 \& z1 j% h! T
    Title                                    : Danish-PGS5 @) \3 f3 k0 ]3 ?0 W
    Language                                 : Danish9 c( P& G/ ?+ \0 m. d
    Default                                  : No
    ' Y( P, y- q" m/ I' i9 t4 G% T  LForced                                   : No
    ' C& u" O* m, N7 J& o
    ' a4 `( S% U$ @0 G% }Text #12
    # U. v# B  ?. i2 JID                                       : 16. Z  R* H6 }7 i1 w
    Format                                   : PGS4 t& Y) c3 m+ L
    Muxing mode                              : zlib
    ( l) D9 }( [* GCodec ID                                 : S_HDMV/PGS
    ! X9 r" l% V7 a2 C4 GCodec ID/Info                            : Picture based subtitle format used on BDs/HD-DVDs8 l, ?) v' l2 ~5 Y7 V2 N
    Duration                                 : 1 h 20 min( w: V; q1 ^# A7 A$ G4 s% R/ }
    Bit rate                                 : 32.3 kb/s
    8 O# }% \+ g0 C3 ?2 b6 Q7 mCount of elements                        : 18945 g# n0 n4 |' J' P$ n
    Stream size                              : 18.5 MiB (0%)
    . |+ P' g& X6 e) v1 PTitle                                    : Dutch-PGS6 m: A9 M" x( `# h9 V  \  j& h7 Y' @
    Language                                 : Dutch/ B& F8 U+ f  V$ u0 \
    Default                                  : No; W! s6 b5 w$ H+ h
    Forced                                   : No
    & y9 p2 a! Z6 [, u% \# b
    6 Y( s% D$ ^, }Text #13- o- l- x1 w( M8 Z" E
    ID                                       : 17
    % e, e. ~- I( Q6 ?$ C0 ^3 WFormat                                   : PGS0 q6 |  a* ^' `- ?) }) D
    Muxing mode                              : zlib
    9 }3 `- Q  ?) _) mCodec ID                                 : S_HDMV/PGS4 ^) e/ u% w. N+ e! d% @
    Codec ID/Info                            : Picture based subtitle format used on BDs/HD-DVDs
    3 r# H- |" Y9 v% \! R% nDuration                                 : 1 h 20 min
    2 [& Z3 k% \4 s" ]* xBit rate                                 : 30.9 kb/s
    / J6 D2 T% ?3 m# Q0 H5 ]Count of elements                        : 1659
    9 ?- j( v# e8 m1 X2 n9 JStream size                              : 17.7 MiB (0%)
    & E" G+ b# v7 T/ W. D4 B3 x9 g* BTitle                                    : Finnish-PGS1 M  q4 s1 y. X6 t$ r( P9 L7 e
    Language                                 : Finnish
    # H! I2 E& F( b9 j- u7 L! sDefault                                  : No9 F% }3 ^1 N0 W
    Forced                                   : No/ K/ M( k5 J0 ?7 D  @* {" `$ ?) a
    : S" i. j; K' {* b
    Text #14% ^( ~7 Y5 Y6 Z8 N
    ID                                       : 18
    ' l, ^& o, I. |0 F% m. wFormat                                   : PGS" l, U* w  j/ V. e! l/ O) d+ R
    Muxing mode                              : zlib
    % n) r, s( l! ]1 V7 ^Codec ID                                 : S_HDMV/PGS7 M: H; ?5 P; n# T# Q; z( q3 M6 \
    Codec ID/Info                            : Picture based subtitle format used on BDs/HD-DVDs
    7 c3 M( n2 j3 ~& Y% ?( `1 qDuration                                 : 1 h 27 min
    ( P* Q5 n9 W; t& HBit rate                                 : 27.9 kb/s
    $ t0 A, {/ x1 q, \$ Y, F+ n: g. sCount of elements                        : 1888$ P7 q/ v+ ?0 W0 W# I4 ]* V
    Stream size                              : 17.5 MiB (0%)7 u. N6 p; c- ?7 F& v6 k1 r+ V! {0 v
    Title                                    : French-PGS8 P" Y/ \! t5 K, z; V; s2 x
    Language                                 : French
    . u) A% ]- x7 D- c5 bDefault                                  : No) \/ u1 d/ b: e' {. K$ Q3 G) p  v7 {. U
    Forced                                   : No, f' {! d5 z3 T$ `5 H

    " O: q# V( n& f) }3 V+ oText #15) {4 d1 q- {% L  p/ Z) j
    ID                                       : 19$ b" k# T+ k5 P# X% H9 }& S( B% [* m
    Format                                   : PGS
    ) e% Z, F1 ~( a) Z* u0 T8 X: {! ?Muxing mode                              : zlib
    9 A" L" O( t: k6 W/ d, ]8 @) wCodec ID                                 : S_HDMV/PGS
    ( S) V% H: l9 D# J+ N: jCodec ID/Info                            : Picture based subtitle format used on BDs/HD-DVDs, P: P, G7 |' ?' L
    Duration                                 : 1 h 20 min+ W% E3 x$ j9 N" y5 ?1 a
    Bit rate                                 : 37.9 kb/s1 g- S3 q4 i4 Z7 U1 M& J
    Count of elements                        : 2088# C) C+ o3 s2 j4 T& U. c4 F& e& c: a
    Stream size                              : 21.7 MiB (0%)& B2 C- R) @" i( N5 \
    Title                                    : German-PGS
    8 r; u4 H% M! p5 FLanguage                                 : German
    7 a* p5 N" X; }6 r0 n' ~1 sDefault                                  : No" O% N3 d. W& H9 s: \8 v
    Forced                                   : No
    & E, U# }  ~7 m0 o7 X- d1 F) R3 b# V% |2 B+ K
    Text #16
    6 b& e) ?) O7 Y7 F+ Y+ jID                                       : 20
    ! q" E0 t/ c" ~! t% RFormat                                   : PGS& S) D; s: }1 s1 P3 Z$ G( d
    Muxing mode                              : zlib( i1 A7 y6 f5 ~6 n
    Codec ID                                 : S_HDMV/PGS
    ; X! e' i$ F# E0 T! T7 S& [; c; mCodec ID/Info                            : Picture based subtitle format used on BDs/HD-DVDs8 |6 `) B0 L# I, H) y
    Duration                                 : 1 h 20 min
    6 A: L) y3 Y" U" I4 JBit rate                                 : 34.8 kb/s
      s7 c* D; U# {$ n8 |+ ZCount of elements                        : 2028% E# t9 _3 D0 Y) d1 v
    Stream size                              : 20.0 MiB (0%)- x9 G* o( Q) i# k3 \
    Title                                    : Greek-PGS. i2 t, x% v* [: W
    Language                                 : Greek4 `5 I. c0 S' P+ {: x- w1 _. U
    Default                                  : No) A  B& ?; @9 l8 o0 N( R
    Forced                                   : No* _& X2 Y" t) c

    " `) E5 r0 U4 k) N: c+ `8 S3 j5 XText #17
    ! E1 k( k5 h' P; @ID                                       : 21; Q3 n2 S" k' e: P% \! C- a
    Format                                   : PGS, T. b% {: X* C' s
    Muxing mode                              : zlib
    + R. |. `* R4 {+ gCodec ID                                 : S_HDMV/PGS
    2 a4 x5 I7 V0 bCodec ID/Info                            : Picture based subtitle format used on BDs/HD-DVDs! j5 d* N9 P% |4 _9 X. [, q
    Duration                                 : 1 h 20 min
    ) f0 R0 P4 ]+ ^4 QBit rate                                 : 32.7 kb/s4 o- [, u* ?' ]' J
    Count of elements                        : 20500 B# G1 P  C. `0 @" G/ [: D
    Stream size                              : 18.7 MiB (0%)+ G# ?! h( d5 c' L, Q4 \! j  J7 l
    Title                                    : Hungarian-PGS6 k' h* Z/ L2 z4 R$ u
    Language                                 : Hungarian
      N2 Z1 R/ g2 G) r8 nDefault                                  : No1 y! G4 P( R' F6 U$ P7 n. h3 `
    Forced                                   : No5 l7 n' t) [! {, ^) q
    : W0 D; @: p( D! _6 V% Z( a
    Text #18$ A6 t3 [' O7 Z* K: K9 I
    ID                                       : 22/ y  n1 W( a" k$ u2 e: C
    Format                                   : PGS& H, v7 B! f3 \: F+ t* L6 O
    Muxing mode                              : zlib
    ; w; M% _+ F7 K' F/ f: hCodec ID                                 : S_HDMV/PGS
    4 R. n* L& X9 X. {1 r( z5 o0 \6 XCodec ID/Info                            : Picture based subtitle format used on BDs/HD-DVDs
    3 V- P4 X5 w8 D: B- z; \Duration                                 : 1 h 20 min
    ) b! p. n% b" h5 @$ b5 DBit rate                                 : 37.1 kb/s$ {5 \; e% v/ h" f7 u6 \' E6 l
    Count of elements                        : 2076% q. g' D5 W" {$ `! R% o' G/ H: P
    Stream size                              : 21.2 MiB (0%)
    + |6 C- f2 B) R! CTitle                                    : Italian-PGS+ j, f) N" A/ w& @3 ~
    Language                                 : Italian2 z  k, j0 D) |
    Default                                  : No
    3 Y/ s8 s6 _) t8 nForced                                   : No7 {# T$ T; O6 J  L$ |

    # k9 R) _- m; y5 i, r' ]1 K( dText #19
    6 c/ A* R6 ]( D+ s/ ?ID                                       : 237 E1 m! a; x0 D7 V' R0 {
    Format                                   : PGS- h: J4 I3 Z4 F
    Muxing mode                              : zlib
    6 ~0 U* B. `5 _) LCodec ID                                 : S_HDMV/PGS
    8 X' z3 U6 ]( Y! @; E- u( RCodec ID/Info                            : Picture based subtitle format used on BDs/HD-DVDs$ e  p8 ?/ _* p/ m# C+ [$ l2 T
    Duration                                 : 1 h 20 min; M) B5 `9 ?, y5 `; @: W- X
    Bit rate                                 : 27.7 kb/s
    % l2 M+ N! n& `2 o& z" `Count of elements                        : 2391
    . j* P8 `# k' k  r' `7 }Stream size                              : 15.9 MiB (0%)% _% L+ k% @. `$ w8 E2 q" Z
    Title                                    : Japanese-PGS
    $ X& f) ~+ |& Q6 RLanguage                                 : Japanese
    9 q+ P1 x0 b( P; I( E' BDefault                                  : No# B) c+ F$ b! V8 l8 Z
    Forced                                   : No
    & V' W( _$ G  v/ T* Z9 G, x! g5 y$ {+ B/ k
    Text #20
    * Q3 a4 c( u9 r' a- }# H8 AID                                       : 24
    6 A! U% z+ f3 i# NFormat                                   : PGS
    0 |) V5 Y: U' `; j& FMuxing mode                              : zlib  U% y+ J& {2 |, ]& J
    Codec ID                                 : S_HDMV/PGS
    + I, a1 X% w8 C7 ?$ `* C' Q; O2 F  HCodec ID/Info                            : Picture based subtitle format used on BDs/HD-DVDs
    + _( i' n) o" w1 L3 dDuration                                 : 1 h 20 min$ q- A& A6 x: m
    Bit rate                                 : 29.0 kb/s# O7 W4 C" m: u# i; x
    Count of elements                        : 21046 }5 |2 g4 b" z: }$ \0 i
    Stream size                              : 16.6 MiB (0%)
    9 `) U% C# w& Z- d* pTitle                                    : Korean-PGS
      ^( n8 R+ ?8 o! c9 {Language                                 : Korean
    4 E4 X5 ?1 j+ B+ l  q! C- }Default                                  : No) r1 {- K; }. z
    Forced                                   : No7 r( q4 s) J- v5 P1 K. d8 K
    2 _* l# _8 @; r  l: F6 A$ _4 p, S
    Text #21
    9 H& M6 b- c+ h2 B( H# ]ID                                       : 25
    / P3 z3 C& m: `3 N: t+ W9 D* ^& NFormat                                   : PGS
    $ R3 D/ @2 _" p* H' h; I0 v7 ?Muxing mode                              : zlib2 m6 ~7 }, _  v
    Codec ID                                 : S_HDMV/PGS
    7 Z; v% c6 {6 u  A' |$ m% tCodec ID/Info                            : Picture based subtitle format used on BDs/HD-DVDs8 f% |, G# w) ^  w, y
    Duration                                 : 1 h 27 min
    9 Z; i% C! H, y# C8 ?Bit rate                                 : 27.4 kb/s% W# A1 Q, W6 w, r7 ^
    Count of elements                        : 1802$ J( Y. R4 n; d
    Stream size                              : 17.2 MiB (0%)
      C) A/ t6 ?$ I# h4 ]Title                                    : Norwegian-PGS
    + f* V6 {" V- f6 u" ?% D- o1 g  |Language                                 : Norwegian8 T: }1 H4 m1 ]' W, L7 k- d( k5 j) w
    Default                                  : No, E; }7 J. Q4 |) x/ D2 q
    Forced                                   : No$ ~) ?7 [# _) r2 U& b$ t

    + G2 A/ ^% G# d. z: R7 ^Text #22. S* W- c0 ^5 A# {5 W2 C
    ID                                       : 26
    7 \7 Z/ _: U7 j! _- j: cFormat                                   : PGS7 B  R1 G9 f9 T% k6 D2 H5 y1 F
    Muxing mode                              : zlib' M/ V3 L9 d( j6 X- G8 \2 ~
    Codec ID                                 : S_HDMV/PGS5 ~! [) L0 G3 H6 O7 f- ]5 n. ]: H% A
    Codec ID/Info                            : Picture based subtitle format used on BDs/HD-DVDs
      c+ K' a1 z! C4 F6 [Duration                                 : 1 h 20 min# z) F/ p. p8 B; K2 m' b6 f# B) ]" E
    Bit rate                                 : 27.3 kb/s  ~5 C- K8 j+ |% }9 S% K# f0 {# B' X
    Count of elements                        : 2062- q. ^. G# y5 u2 e' j
    Stream size                              : 15.6 MiB (0%)' a& L% w6 a) J9 I3 z
    Title                                    : Polish-PGS
    3 y) ?( c9 E& F9 zLanguage                                 : Polish" W* b/ N. j' i
    Default                                  : No
    * |9 z0 ~4 U) F* yForced                                   : No, P& r( Z* |3 U3 l; W/ m' [- P
    ( M, W8 P2 E* u% a
    Text #23
    % X7 e: u1 U' p; C# l5 Z+ GID                                       : 27) R! r8 ?6 k# c( B- T+ f) J, ]5 K0 d
    Format                                   : PGS% n+ D; {* }& Q6 h- F4 o% F
    Muxing mode                              : zlib
    . E% Y, A, T3 n, K, Z2 ]1 VCodec ID                                 : S_HDMV/PGS
    6 X8 [3 }2 e* ?" r+ ]0 Z7 h  O4 ?Codec ID/Info                            : Picture based subtitle format used on BDs/HD-DVDs
    9 S& h* _3 U( G9 `Duration                                 : 1 h 27 min" |  A/ }7 \& ~5 f0 w) I1 q
    Bit rate                                 : 29.3 kb/s
    ! Y. h+ D  M+ I. ~% ]Count of elements                        : 2010. V0 `! X, N/ y6 h  K* k
    Stream size                              : 18.4 MiB (0%)
    $ _/ g+ {0 V# g$ r6 K7 \Title                                    : Portuguese-PGS5 z( M4 J+ N& @5 `$ D7 _2 v$ g
    Language                                 : Portuguese/ d1 D' z9 A* ^  ^
    Default                                  : No
    0 l, n' y7 j" dForced                                   : No
    ; a% b7 y- @8 I
    % i; E: x) z$ sText #24
    ' f6 N$ b' e6 o7 L; [, YID                                       : 28
    , j/ D1 n7 |) H# M2 zFormat                                   : PGS3 K( ~  j/ h$ X9 r; v1 K& i
    Muxing mode                              : zlib
    5 w( k- K$ Z2 C! B" t: nCodec ID                                 : S_HDMV/PGS
    * F/ Q0 X" E. w: f$ DCodec ID/Info                            : Picture based subtitle format used on BDs/HD-DVDs' }0 G7 z3 g8 G$ }8 P& a! P4 T
    Duration                                 : 1 h 20 min
    . |1 Q: d3 }1 N+ ], cBit rate                                 : 37.9 kb/s
    8 J- l: H' k% r" H9 R1 }4 R$ tCount of elements                        : 20997 B0 w- a! N7 z& a; o' G
    Stream size                              : 21.7 MiB (0%)) p" z% O* [* C) _+ X" ]0 ]
    Title                                    : Portuguese-PGS
    " ]1 e1 U4 M. B' {0 X0 i0 r2 yLanguage                                 : Portuguese
    6 B2 y9 h* c6 D  s9 j$ t- ^Default                                  : No4 v& ?7 I, h) q  D$ S
    Forced                                   : No/ a5 ?, m! q  h

    ' L7 Y# c* ]; E9 n; p' MText #25# Z. |* F  x* |5 z0 S0 t
    ID                                       : 29
    # }/ J5 Q* y% w7 D: [! a4 e5 B3 e6 vFormat                                   : PGS. T+ Q, N. t- J. D/ t  Q
    Muxing mode                              : zlib
    1 C$ p# t! w1 p  i% [7 p' mCodec ID                                 : S_HDMV/PGS2 s8 o! g. j, s( s
    Codec ID/Info                            : Picture based subtitle format used on BDs/HD-DVDs( K. I1 b* Z3 y) D; j
    Duration                                 : 1 h 27 min
    ' P# h" f2 g" h6 `& D9 L$ tBit rate                                 : 30.2 kb/s% l6 u+ V2 \; E6 I& x
    Count of elements                        : 2078
    % {  w! P! V3 y- L: q4 O7 z: uStream size                              : 18.9 MiB (0%)
    9 K3 t, D# \0 ?Title                                    : Romanian-PGS; t6 h2 f  n2 e5 o2 ^
    Language                                 : Romanian
    & }  z5 h* P, P- pDefault                                  : No
    ! {, a: V# l( j) s" SForced                                   : No
    8 n' I* I. L1 P5 K  o4 s2 j' R1 l' ~: Q, @& y, R
    Text #26
    5 r7 X( x9 y' F% v1 QID                                       : 309 B' D) U! S/ P9 x; h% G' a5 y
    Format                                   : PGS
    & S* q# Z8 K- W2 A9 u" R: OMuxing mode                              : zlib1 w# R5 a) j% ]( F+ u
    Codec ID                                 : S_HDMV/PGS) R2 o, T0 J& d1 N' i' i
    Codec ID/Info                            : Picture based subtitle format used on BDs/HD-DVDs
    5 v2 k9 h* V1 x7 l7 R6 ?, MDuration                                 : 1 h 20 min( X+ i* J% z; O, {8 K  U
    Bit rate                                 : 40.6 kb/s
    ( e3 [5 r& [/ `2 r4 n+ ~, {4 v$ cCount of elements                        : 22780 ^& ~  |% `; D  X/ ?
    Stream size                              : 23.2 MiB (0%)& r& P& i( P8 ~; s6 L
    Title                                    : Russian-PGS& z: O" W' A4 @6 B# E8 E4 ?
    Language                                 : Russian
    2 M7 `7 ~: Y! _4 MDefault                                  : No
    . Q/ B2 Z/ a. ^/ x: HForced                                   : No
    : l* e6 B, s9 C2 H9 k# Y( h  z1 V7 ]9 W, p& I5 L, r2 w% I% S
    Text #27! ^; Y* O' N1 ?* _6 X6 S
    ID                                       : 31
    7 _  _* R' T: L! Q$ }# ?% o/ Z' iFormat                                   : PGS7 x9 M  Q3 n" n& q% D, R
    Muxing mode                              : zlib
    $ _  M& h" P# Z2 W& |Codec ID                                 : S_HDMV/PGS: O: M) X, t3 q% v# w) I
    Codec ID/Info                            : Picture based subtitle format used on BDs/HD-DVDs. N7 M4 _8 Y  B8 ]" \7 g
    Duration                                 : 1 h 20 min) h5 N* Z# @6 q4 K, T
    Bit rate                                 : 34.1 kb/s# s. H  _( p/ ^& r. ~* Z
    Count of elements                        : 21742 \3 A* o7 w9 i+ L
    Stream size                              : 19.5 MiB (0%); A: S! i8 k* h
    Title                                    : Spanish-PGS; Z# @* w4 O2 D0 ]0 h+ ?
    Language                                 : Spanish
    7 D( @7 Q/ N7 w' B4 x; v; j: S- YDefault                                  : No
    % T" o' W  a) ^  hForced                                   : No6 T" ?  d# E# _$ Y$ D: ?

    - n* p  E* S4 A( A$ j; g! IText #283 n9 Y" ?' q8 k: x+ m$ J& h$ \
    ID                                       : 32
    + @) I; X5 m3 A% OFormat                                   : PGS
    ( `0 U, J7 Y9 }$ y( K$ `Muxing mode                              : zlib
    * _4 I$ B3 c! \Codec ID                                 : S_HDMV/PGS3 `! O/ {! w" s* i& Q$ O& |- w" t+ E
    Codec ID/Info                            : Picture based subtitle format used on BDs/HD-DVDs: g' o  @& I' Q8 O& W& C
    Duration                                 : 1 h 20 min
    0 f4 f( v  Z  T7 [2 `Bit rate                                 : 36.1 kb/s+ x- W8 q; R$ e- U/ ^# z" i
    Count of elements                        : 2112
    4 u% J& _' N  m" c- F* x. wStream size                              : 20.7 MiB (0%)
    : O9 m  M, ^. ~) b! r% K( ]  pTitle                                    : Spanish-PGS2 @6 L; D' y5 Z$ o6 h: S- A1 @
    Language                                 : Spanish1 M. e2 l1 }2 C' E6 }% s/ }
    Default                                  : No" ?( Z* e1 [0 ]1 N2 z4 X
    Forced                                   : No! n0 W. f3 j2 H$ i2 G% B

    ; b( c" k6 b& y) H; G4 A3 FText #29. B+ c# ~. ~4 ^. F, H
    ID                                       : 33+ n: z# k- Q, v: p1 ]8 q: m* `
    Format                                   : PGS  Z# G$ T8 J9 j6 |3 B
    Muxing mode                              : zlib
    ( h1 z# }8 K' WCodec ID                                 : S_HDMV/PGS
    " i( l7 P7 g( g2 `( y2 vCodec ID/Info                            : Picture based subtitle format used on BDs/HD-DVDs
    - E" g! g6 B* f( J; E, bDuration                                 : 1 h 27 min
    4 E) k& _/ H" Z; T) XBit rate                                 : 27.3 kb/s# h8 V" e$ u$ p
    Count of elements                        : 15427 d: z* |0 U5 s2 C
    Stream size                              : 17.1 MiB (0%)) `1 B' q) ^) w/ J- L+ D. b0 H
    Title                                    : Swedish-PGS
    % a3 ?  J0 S: P, `Language                                 : Swedish
    6 a; k: _- s5 o) o' JDefault                                  : No' `( p: C" W8 Q3 L! q
    Forced                                   : No
    0 I; @5 Z1 {8 ^; i- e, Q
    , ^" F( d8 y! g4 h# n- v7 `Text #30
    % o/ C6 E0 b* RID                                       : 34
    ! ~$ J- {: e; A1 H8 y2 m" NFormat                                   : PGS$ ~5 G; b: y% ]) m9 A9 S9 s/ f
    Muxing mode                              : zlib$ _3 S" ~7 H! s4 v
    Codec ID                                 : S_HDMV/PGS. @* v& ]" }& W  t
    Codec ID/Info                            : Picture based subtitle format used on BDs/HD-DVDs" x6 ?/ o- Z2 I8 w/ v: @
    Duration                                 : 1 h 20 min! T- M+ W2 f' B$ |8 ?" [$ `
    Bit rate                                 : 34.0 kb/s) U- O+ U+ c9 F- n9 J
    Count of elements                        : 2169" @1 @. X1 |. J% p* ~4 T
    Stream size                              : 19.4 MiB (0%)4 [/ e9 E+ {4 x6 T. J2 P
    Title                                    : Thai-PGS
    ( {% ]  |8 G7 S  Q; q: eLanguage                                 : Thai; v# D0 }8 t- i& h9 H
    Default                                  : No
    5 W$ g6 n) F/ y% x$ R2 g, y" `Forced                                   : No
    6 c8 W/ z( Y4 l( }/ T- ~& p6 n6 }$ M; T
    Text #31
    - M, F2 ]9 B# H5 n0 N" gID                                       : 35
    ) F" e. }! M# I3 h2 F6 rFormat                                   : PGS
    8 q/ H* ?8 N8 c+ R, dMuxing mode                              : zlib3 c) R* Q9 t2 x( B: g% \
    Codec ID                                 : S_HDMV/PGS
    5 X4 |& ~1 @5 OCodec ID/Info                            : Picture based subtitle format used on BDs/HD-DVDs" {9 e, D: Q- ], L% c2 u& \0 k3 x
    Duration                                 : 1 h 20 min
    / N9 }: n; E6 |! g: }& CBit rate                                 : 35.2 kb/s" G2 g( A0 w$ k: \; L
    Count of elements                        : 21672 d0 V: u  _7 ^0 Z( u0 V
    Stream size                              : 20.2 MiB (0%)0 A# O: h) W+ ~0 a# d
    Title                                    : Turkish-PGS
    2 x7 n/ v- Z" H. XLanguage                                 : Turkish
    1 q. H5 j- p) `  O, D  A5 GDefault                                  : No
    7 y% B) {$ V9 j% g  O1 k& v  OForced                                   : No
    $ E+ h! `# l# |5 f
    + s8 i. L! y. t% y4 t! vMenu
    $ y/ [2 i% \# {' S2 o% N/ ]/ ^00:00:00.000                             : en:Chapter 1% T) K3 p( G& f, E+ ~' x% e( X* c
    00:07:01.129                             : en:Chapter 2! x# b2 K0 f, X) s( E
    00:13:20.716                             : en:Chapter 3
    " U0 C+ P) t* `0 B7 [* u00:19:05.936                             : en:Chapter 4
    6 ?. e$ h; {, ]+ s4 Q3 |1 U, H4 C00:24:23.170                             : en:Chapter 5
    - S2 i9 c8 K5 K00:30:41.256                             : en:Chapter 65 d9 o1 r3 H7 w* F3 s( `7 L- n
    00:34:59.388                             : en:Chapter 7
    - m: w- P- E- P; z0 r+ C+ J00:41:55.596                             : en:Chapter 8( W) P, }8 F) z  \, ~8 F! c- I
    00:48:13.974                             : en:Chapter 9
    1 d6 G6 Q$ E# M6 b: a' u00:52:32.858                             : en:Chapter 105 C5 W8 d: n8 r4 U0 c. J
    00:57:32.824                             : en:Chapter 11
      _+ u6 `( G, P6 S* s7 O) I01:02:34.125                             : en:Chapter 12
    " }1 k0 d1 c, f( o( B/ }01:06:20.434                             : en:Chapter 13
    . _* a( Z+ M% T0 _01:10:30.059                             : en:Chapter 14# D& |2 i! m0 i8 G: C2 z
    01:13:54.847                             : en:Chapter 15
    4 ?- Z4 v. h  n. G$ m! M01:16:02.474                             : en:Chapter 16
    5 K, G2 t( Z: ]
    游客,查看本帖隐藏内容请回复 | 加入VIP贵宾组可免积分免回复下载 立即了解 | 还不是会员:点击获取邀请码 Invitation Code
  • TA的每日心情
    开心
    4 天前
  • 签到天数: 56 天

    [LV.5]暂住蓝盘

    2

    主题

    558

    帖子

    2339

    积分

    Sponsor

    金币
    537 枚
    体力
    756 点
    tto138 发表于 2020-5-2 21:54:27 | 显示全部楼层
    其实我一直觉得楼主的品味不错!呵呵!
    # {) h# T) ~2 E& O& [8 ^% P4 N2 a/ A# oBlu-ray Film Forum is now my home!
    ( G' N" ^# ]+ b8 ^" q
  • TA的每日心情
    奋斗
    1 小时前
  • 签到天数: 73 天

    [LV.6]常住蓝盘

    6

    主题

    1131

    帖子

    6075

    积分

    Sponsor

    金币
    760 枚
    体力
    3049 点
    QQ
    shiji1973 发表于 2020-5-2 23:35:33 | 显示全部楼层
    感谢分享精彩电影
  • TA的每日心情
    擦汗
    2020-4-15 16:32
  • 签到天数: 2 天

    [LV.1]初来蓝盘

    0

    主题

    576

    帖子

    2779

    积分

    Sponsor

    金币
    4 枚
    体力
    1574 点
    xpg050811 发表于 2020-5-3 13:22:05 | 显示全部楼层
    啥也不说了,楼主就是给力!& H( G7 D8 H1 L8 T9 j4 D
    至少是现在,我一天没有访问蓝光电影论坛就不爽!At least now, my day did not visit the Blu-ray Film Forum on unhappy!
    % [  s/ U/ ]: V6 _" S

    本版积分规则

    小黑屋|Archiver|蓝光电影资源网

    GMT+8, 2020-6-2 13:20

    快速回复 返回顶部 返回列表