BluRayCD Forum

 找回密码
 立即注册【分享大片】

QQ登录

只需一步,快速开始

查看: 51|回复: 3
收起左侧

[4K极清电影] 猛禽小队和哈莉·奎茵 [4K REMUX无损版 自带中字] Birds of Prey 2020 2160p BluRaycd REMUX HEVC DTS-HD MA TrueHD 7.1 Atmos-FGT 54.68GB

[复制链接]
  • TA的每日心情
    慵懒
    2020-4-6 08:02
  • 签到天数: 615 天

    [LV.9]蓝盘精灵

    5355

    主题

    5710

    帖子

    6万

    积分

    Forum Moderator

    金币
    3615 枚
    体力
    25277 点

    卓越贡献勋章VIP蓝光勋章

    迅雷电影 发表于 2020-5-8 00:44:44 | 显示全部楼层 |阅读模式
    After splitting with the Joker, Harley Quinn joins superheroes Black Canary, Huntress and Renee Montoya to save a young girl from an evil crime lord. ) _6 I- `8 {/ ]. ?; |6 ~4 E
    4 g- r- H$ u2 x
    01.jpg
    5 a( d  Q* N, @* {! V1 X8 z, ^2 s# s
    ' D4 |/ T5 J% a! }! F5 `3 l◎译  名 猛禽小队和哈莉·奎茵/哈莉·奎因:猛禽小队/猛禽小队/猛禽暴队:解疯小丑女(港)/猛禽小队:小丑女大解放(台)/猛禽小队(以及一个哈莉·奎茵的奇妙解放)/猛禽小队与哈莉·奎茵的奇妙解放& a" c4 a+ i! ~3 M! f& y
    ◎片  名 Birds of Prey: And the Fantabulous Emancipation of One Harley Quinn / Birds of Prey / Birds of Prey (And the Fantabulous Emancipation of One Harley Quinn) / Harley Quinn: Birds of Prey( T; ?4 z4 Q7 L9 N4 P
    ◎年  代 2020
    + F& y. c1 v* i5 B. c! `1 B◎产  地 美国, z" }7 Y& B% a  X
    ◎类  别 动作/犯罪/冒险5 }7 \7 \9 r1 T8 y
    ◎语  言 英语0 w- t0 @2 ]* l  z  ^
    ◎上映日期 2020-02-07(美国)- y4 ?7 Q/ c2 K, j7 e
    ◎IMDb评分 6.2/10 from 104,876 users
    " H) X1 ^8 {( o0 y3 X◎IMDb链接 https://www.imdb.com/title/tt7713068/4 ]8 R- |) N, G) p1 T; t
    ◎豆瓣评分 5.7/10 from 50,063 users
    . `& E: ^) x3 L◎豆瓣链接 https://movie.douban.com/subject/30160393/5 [: B$ q) e/ _9 G
    ◎文件格式 x265 + DTS + TrueHD+ o* V/ H: K6 i8 V6 U0 b
    ◎视频尺寸 3840 x 2160
    / u; ?' a+ U3 e3 H◎文件大小 1DVD 54.68 GiB+ G, f9 d+ w! O0 W: `# U& i1 _; b7 j
    ◎片  长 1 h 48 min
    5 I+ f% m" S# I◎导  演 阎羽茜 Cathy Yan
    , V# R5 R$ x. `) k- I# [; U2 A1 j◎编  剧 克里斯蒂娜·霍德森 Christina Hodson
    0 _5 |/ Y& f. {4 A2 d       查克·狄克逊 Chuck Dixon
      {! a( F5 J5 x" G       乔丹·B·戈芬克尔 Jordan B. Gorfinkel ' k7 Z+ ^$ S' m; H% {/ p2 _2 \0 [! V
           格雷格·兰德 Greg Land  [  E. |- |, {, a
    ◎主  演 玛格特·罗比 Margot Robbie9 o$ m! V( k$ K& z, \3 p, {
           玛丽·伊丽莎白·温斯特德 Mary Elizabeth Winstead" r. V) ^4 ]  i/ e4 F
           罗茜·佩雷兹 Rosie Perez# @) ~4 }3 {4 L/ Y2 b
           朱尼·斯莫利特 Jurnee Smollett; B: ~9 O; R( _7 }
           伊万·麦克格雷格 Ewan McGregor
    # s5 p8 N  m$ f+ k) |& A3 @       埃拉·杰伊·巴斯科 Ella Jay Basco
    2 D- R4 Y9 M) z9 C8 C       克里斯·梅西纳 Chris Messina
    6 P: h2 U7 ]- i, `$ j  w' j       黄阿丽 Ali Wong
    % F, D: @" q* j4 r2 e# L' S       戴维·尤里 David Ury
    & j1 L  v- C+ C( o% U       萨拉·蒙特斯 Sara Montez: w2 A' y) B% y
           伊莎贝尔·帕克扎德 Isabel Pakzad
    ' ^9 L4 ?7 K- G8 E' r& X       丹尼尔·伯哈特 Daniel Bernhardt  C& a- O! y2 N0 }1 u% T" g" R
           帕洛马·拉比诺夫 Paloma Rabinov
    3 U' D7 O/ T) s. l  j7 e       德里克·威尔逊 Derek Wilson4 l# q, ?. I. E& q7 m
           乔·布卡罗三世 Joe Bucaro III) f+ }) b/ d3 \2 h
           弗朗克西斯·周 Fran?ois Chau
    7 J% A$ S3 D0 Y& V" c$ H       布鲁诺·奥利弗 Bruno Oliver! E: ?1 F$ E; G8 t! T* _
           马修·维利希 Matthew Willig. K( c, r% Q) C
           杰里米·丹茨林格 Jeremy Denzlinger7 @( d. p9 Z* W3 ~7 X% N& n6 b/ n
           迈克尔·马西尼 Michael Masini, b" }& z8 R) i& u, T# n
           杰西·布什 Jesse Bush
    * ~: d8 _# X! L       史蒂文·威廉姆斯 Steven Williams
    6 v) Y2 |7 \) V1 d: S5 Y7 J. I  C       夏洛林·阿莫亚 Charlene Amoia" W4 C; V$ z: A: n( g3 G" k) F
           罗伯特·卡特里尼 Robert Catrini
      ~3 t! n5 _0 G, p9 G       埃迪·阿尔法诺 Eddie Alfano
    4 k. S- W! f! O3 n" a, J       普拉莫德库马尔 Pramod Kumar
    3 m: B. |0 N& j       K.K. 巴雷特 K.K. Barrett
    " C" J% q. I- O  t9 K       西蒙·瑞 Simon Rhee
    # |1 r0 M2 q- r2 b" i" C. k       凯莱布·斯比尔亚兹 Caleb Spillyards- d6 y8 g2 |6 J! @
           萨拉·贝克 Sala Baker2 a6 _9 Y4 L* P) Y1 p6 v1 q  v
           埃夫卡·科瓦拉西尤斯 Efka Kvaraciejus
    5 k2 ~  a+ X  C       山姆·哈格雷夫 Sam Hargrave
    9 M, I% J, E# t0 @& K: p       丹尼斯·基弗 Dennis Keiffer! U( q$ R) v8 ]' z
           博亚娜·诺瓦科维奇 Bojana Novakovi?
    8 D; A4 p# i# @$ v       埃里克·迈克尔·科尔 Eric Michael Cole$ N# I, S0 z4 g3 P
           提姆·里格比 Tim Rigby
    ! ?) M: t( X- s1 W& u       大卫·安东尼·布廖内 David Anthony Buglione
    6 b$ P3 J' ~  f2 w       杰拉德·唐尼 Gerald Downey
    + v5 l$ i3 B( `0 A7 |: z  x" y       埃迪·J.费尔南德斯 Eddie J. Fernandez
    9 ?! j. x. G% h! c       尼科·格莱瑟姆 Nico Greetham; ]( w0 b3 P) J
           朱迪·凯恩 Judy Kain
    4 v' j# d" R, M3 j       杰夫·里帕瑞 Jeff Lipary8 F3 P; {1 w2 p
           詹妮尔·麦基 Jenelle McKee0 [: F. w2 k0 y2 j  _2 `5 S0 {
           伊戈·米基塔斯 Ego Mikitas
    & i2 v$ u' _5 q2 P2 r9 v1 D& |       安东尼·莫利纳利 Anthony Molinari! b( i8 y9 l) @4 S) [1 m, {
           迪索·拉莫斯 Diezel Ramos
    5 ]* h- O4 l% G8 t. V6 C       凯伦·特利哈 Karen Teliha
    " L0 x8 o+ K5 _8 z
    4 {. O3 s0 V* x* T- W◎标  签 DC | 犯罪 | 女性 | 美国 | 超级英雄 | 动作 | 漫画改编 | 2020
    , q; m' `- w9 b1 k4 h& I, ?
    5 p: J! Q3 }( p2 \" U; l+ N* u◎简  介  
    1 `9 H+ z- ?, J" ?4 o( c( {
    : a5 A! \: {8 c8 @7 R3 a' f   你听过一个有关警察、歌手、神经病和黑手党公主的故事吗?《猛禽小队和哈莉·奎茵》是一个只有哈莉·奎茵本人才能讲出来的超乎寻常的奇妙传奇。哥谭市最为凶残自大的恶棍罗曼·赛恩尼斯和他狂热的手下萨斯为了寻找一个年轻女孩卡斯,将这座城市翻了个底朝天。哈莉、女猎手、黑金丝雀和蕾妮·蒙托亚不期而遇,看似违和的四人组不得不团结一致、携手作战,才有可能打败罗曼。 0 h2 M8 u2 ?* Q" X5 b3 [
    : u; }2 t- \6 w9 j( r  n
      After splitting up with The Joker, Harley Quinn and three other female superheroes - Black Canary, Huntress and Renee Montoya - come together to save the life of a little girl from an evil crime lord., Y5 w! e) @) i  Y/ a, ]! ^( w
    : H" J. i0 _: `. p1 Z. }9 K
    ◎获奖情况  
    ) ]0 N  Q6 S2 ?$ i6 @6 O! A% S1 r6 V
      第6届豆瓣电影年度榜单(2019)
    # M9 S' T5 k. H, {* r; @2 T  最值得期待的外语电影(提名)
    4 Y% l/ h/ _5 l# C0 Y
    Video #19 h9 v( t: S1 c1 t4 }( l9 e/ g1 d
    ID                                       : 1
    * V5 ~- o. P7 s1 PID in the original source medium         : 4113 (0x1011)
    , F! D2 Y: p; Q+ U4 p2 OFormat                                   : HEVC+ J# w  y. p8 Q: K3 D+ d2 [
    Format/Info                              : High Efficiency Video Coding2 F# w7 n* D3 w" g( t6 C
    Format profile                           : Main 10@L5.1@High
    3 g# m. ^2 z1 S! T( PHDR format                               : SMPTE ST 2094 App 4, Version 1, HDR10+ Profile B compatible6 z; O4 l) ^, u  q3 t, z( L1 A  s
    Codec ID                                 : V_MPEGH/ISO/HEVC( P, V$ r8 z  M1 ?' g0 F: V- t/ q* Y
    Duration                                 : 1 h 48 min
    . {6 z, ?6 \) D" U8 EBit rate                                 : 59.9 Mb/s
    ' a6 b+ i5 e9 ?, l3 @* y' FWidth                                    : 3 840 pixels  `# F2 K2 H5 ]. H5 L
    Height                                   : 2 160 pixels. r( Q3 V! F" q0 C7 z
    Display aspect ratio                     : 16:9
    ! _. `# `: x1 J3 p% yFrame rate mode                          : Constant: z6 o' n* Y, w8 U
    Frame rate                               : 23.976 (24000/1001/11208/37687) FPS' N& a) N8 C" V( h" L2 B
    Color space                              : YUV
    * }* X( Z6 \4 ?& l" G& NChroma subsampling                       : 4:2:0 (Type 2)! o( C3 X5 q3 F4 }8 M! u! f7 M
    Bit depth                                : 10 bits9 E! e, R+ @7 X2 F& F* ]4 r
    Bits/(Pixel*Frame)                       : 0.3013 f$ g0 _" i. S1 }
    Stream size                              : 45.6 GiB (83%)/ Z; F# P9 U% I6 y
    Title                                    : Birds.of.Prey.2020.2160p.BluRayCD.REMUX.HEVC.DTS-HD.MA.TrueHD.7.1.Atmos-FGT
    # B0 K5 e' _8 q4 y) iLanguage                                 : English$ o/ Y7 f! j1 D" z
    Default                                  : Yes
    ) \: X. O0 }% V' I1 G+ BForced                                   : No
    8 a4 s* E7 X1 \/ u7 aColor range                              : Limited
      H0 g- J2 N1 ]Color primaries                          : BT.2020
    ) i' W2 M9 T8 A+ h. n% O" ~) t6 rTransfer characteristics                 : PQ
    $ G9 ?4 i$ r2 n5 PMatrix coefficients                      : BT.2020 non-constant2 f# T, D; V8 I% L) }
    Mastering display color primaries        : BT.2020' P+ e9 \9 @' k; @$ e
    Mastering display luminance              : min: 0.0050 cd/m2, max: 4000 cd/m2
    9 X/ t' u  m6 @1 X2 S$ [$ iMaximum Content Light Level              : 683 cd/m2( L  w' Z9 b9 r$ q+ J5 E+ o* x
    Maximum Frame-Average Light Level        : 136 cd/m25 t# w3 T7 T& T3 v. y- E
    Original source medium                   : Blu-ray4 F6 f* S0 `7 g, g  C
    & X: r- q! b% g+ ]& z* O; K. s
    Video #2. v+ M4 G1 J: y( T2 `
    ID                                       : 2: {: T% ^! i; o& ?/ m2 B
    ID in the original source medium         : 4117 (0x1015). g. D  e1 I+ a7 U+ C) t
    Format                                   : HEVC  q0 o' W# W; Z1 a; r
    Format/Info                              : High Efficiency Video Coding5 a# b( P" ~+ G% }
    Format profile                           : Main 10@L5.1@High, L, q/ k  e: j
    HDR format                               : SMPTE ST 2086, HDR10 compatible# u/ F# n7 d8 c& d
    Codec ID                                 : V_MPEGH/ISO/HEVC
    2 ?3 l  o1 F/ T* L9 j$ kDuration                                 : 1 h 48 min
    4 r0 n0 V% [- LBit rate                                 : 63.3 kb/s. a* h5 A+ _% E5 E! ~4 ^- X9 U
    Width                                    : 1 920 pixels- q' s2 r# i* c( s  `% B: o, o4 d% E
    Height                                   : 1 080 pixels
    6 z) _5 Y# N  v$ D% q  {Display aspect ratio                     : 16:9
    - i& h* O2 o) g, T0 f0 X0 F7 C, TFrame rate mode                          : Constant, n+ U$ u' ?  h& T" e* A
    Frame rate                               : 23.976 (24000/1001/11208/37687) FPS; p  X) V: ~) v9 O* {- }
    Color space                              : YUV
    9 f; N2 ^6 n9 @2 J1 s5 SChroma subsampling                       : 4:2:0 (Type 2)
    ( H; m, S, v- S9 aBit depth                                : 10 bits: J" n' b3 L- U. l  t
    Bits/(Pixel*Frame)                       : 0.001
    # i( }1 t9 v: T: `; LStream size                              : 49.3 MiB (0%)6 n  E' J' u3 n: `& e8 i$ ~
    Title                                    : Birds.of.Prey.2020.2160p.BluRaycd.REMUX.HEVC.DTS-HD.MA.TrueHD.7.1.Atmos-FGT
    1 a. w) e' J! o5 gLanguage                                 : English
    , g( s) _/ }0 K" ^3 g: B" xDefault                                  : No
    5 a# k* f0 e$ e' RForced                                   : No
    ; `9 Y9 l! Y- x5 n; b; K7 P1 M7 R$ wColor range                              : Limited
    8 z8 A9 L; x, ?Color primaries                          : BT.2020
    " [' A. m/ ~& }Transfer characteristics                 : PQ. s/ q# l+ H& r7 b4 q8 j! i
    Matrix coefficients                      : BT.2020 non-constant
    , X& d9 l. }7 Z9 U/ PMastering display color primaries        : BT.20206 z) b' o( ^8 c; z3 }& k
    Mastering display luminance              : min: 0.0050 cd/m2, max: 4000 cd/m2
    & N# I: v4 B: C5 d% L( YOriginal source medium                   : Blu-ray
    , u  G  L' Z5 G) y* v: H  l' i& p8 t# [/ q* z
    Audio #1
    2 @3 Q2 }; Q* z) [9 V( N. }ID                                       : 38 z6 b$ r4 p9 I7 p$ U/ u
    ID in the original source medium         : 4352 (0x1100)
    , X3 e# z+ \2 j6 I) `9 m7 R6 WFormat                                   : MLP FBA 16-ch  n7 d+ x/ T" F( o5 V
    Format/Info                              : Meridian Lossless Packing FBA with 16-channel presentation
    : X6 C3 o( o; B# l7 H8 WCommercial name                          : Dolby TrueHD with Dolby Atmos
    6 Q7 d. D! D) M4 Z2 T  ZCodec ID                                 : A_TRUEHD! g+ H5 v2 L5 R. l
    Duration                                 : 1 h 48 min8 X5 o$ n, W( a& w& P; o
    Bit rate mode                            : Variable4 x4 _9 _* b9 [! e& A6 c) J, j/ p. j
    Bit rate                                 : 3 686 kb/s0 ~: m7 j2 Q/ e' A
    Maximum bit rate                         : 6 912 kb/s
    ; k) N4 H  v% }Channel(s)                               : 8 channels: H% R  V, M7 O5 l5 d% J5 a
    Channel layout                           : L R C LFE Ls Rs Lb Rb! k* ?5 s( w# f! d1 Q
    Sampling rate                            : 48.0 kHz
    # L2 u/ Y" I0 j6 g# D( q/ |  X. VFrame rate                               : 1 200.000 FPS (40 SPF)- t0 A1 Z. K7 l, K0 q; }8 q0 R
    Compression mode                         : Lossless( |6 L9 L9 O0 P$ F0 V# D
    Stream size                              : 2.80 GiB (5%)
    3 ^  W$ J# n- }* H+ ETitle                                    : Birds.of.Prey.2020.2160p.BluRaycd.REMUX.HEVC.DTS-HD.MA.TrueHD.7.1.Atmos-FGT
    $ g8 h0 y6 S( H. t! c: t. ILanguage                                 : English7 L& k1 A. f" v
    Default                                  : Yes9 h2 C! o1 q3 q$ d
    Forced                                   : No( b+ M  d7 E9 Y
    Original source medium                   : Blu-ray" r, L4 B' L# W- B# s' U5 p
    Number of dynamic objects                : 15
    : |$ i3 L* `# e. e) YBed channel count                        : 1 channel
    4 f+ h+ M: S, q" T: `$ BBed channel configuration                : LFE$ t, r, u7 Q$ J+ O
    4 |4 m: _( M7 }" |( O3 C
    Audio #2
    * ^# I1 x4 W* F4 E" b6 wID                                       : 40 a3 @  t- G, C. n
    Format                                   : DTS XLL
    + {8 I3 p; n, ~8 tFormat/Info                              : Digital Theater Systems) S/ N( K' L  ?
    Commercial name                          : DTS-HD Master Audio
    . ~* K+ M$ I" s" ^7 _$ ~Codec ID                                 : A_DTS
    # m# j7 U6 r" A2 o; u/ PDuration                                 : 1 h 48 min0 m  z0 _+ n/ m6 C4 O3 [8 y9 [
    Bit rate mode                            : Variable% S0 ?: C! v+ z: A2 z7 Q! ]
    Bit rate                                 : 4 251 kb/s3 h! T* P" [1 V  B9 o; f0 |1 h7 p
    Channel(s)                               : 8 channels
    7 [) ^2 m9 z" c% t6 dChannel layout                           : C L R LFE Lb Rb Lss Rss
    7 b0 Z" V( Y; B$ W3 [0 {2 ~8 g+ D9 lSampling rate                            : 48.0 kHz1 p1 q7 b8 \1 {2 o3 A6 i4 T
    Frame rate                               : 93.750 FPS (512 SPF)
    - \1 n8 q3 j: }$ ^Bit depth                                : 24 bits
    * V5 t0 q2 \! `+ ^) T5 q3 E  kCompression mode                         : Lossless
    : [0 X. A2 N% E* z% d6 hStream size                              : 3.23 GiB (6%)
    0 Q' H# `5 W+ k% |9 fTitle                                    : Birds.of.Prey.2020.2160p.BluRaycd.REMUX.HEVC.DTS-HD.MA.TrueHD.7.1.Atmos-FGT
    3 L& }. v- U/ {, e/ V; eLanguage                                 : English# C& H1 V" c# |
    Default                                  : No
    . z% P" J/ c3 `" AForced                                   : No
    / l2 R3 I2 E: X& i6 g* y
    ' I! l1 T& u5 E% o# K; E3 WAudio #30 s; K1 V6 t3 J7 f
    ID                                       : 51 w1 I, ~" ~( E
    ID in the original source medium         : 4352 (0x1100)9 d; P" w2 X3 J+ K
    Format                                   : AC-3
    5 h; A  a; Y& i/ |* vFormat/Info                              : Audio Coding 3: }) ^. \% {/ R3 a5 K; t# n
    Commercial name                          : Dolby Digital7 ?/ p6 p7 {/ _* ]7 N/ B1 N
    Codec ID                                 : A_AC3
    $ ~2 ~  c, Q  I. ^0 IDuration                                 : 1 h 48 min
    6 D$ H8 @6 y6 N! J  ~7 \, eBit rate mode                            : Constant
    $ u* N' H& n: P2 ^! h  {Bit rate                                 : 640 kb/s
    ' L2 V  a" z# W8 \3 mChannel(s)                               : 6 channels
    1 }8 s  p7 e, i' u+ UChannel layout                           : L R C LFE Ls Rs
    7 o; s8 T7 A/ r4 g" g$ z) {: fSampling rate                            : 48.0 kHz
    9 ~2 A+ [& P/ l2 V) I0 S% XFrame rate                               : 31.250 FPS (1536 SPF)
    ' U' Y- L( L& n* WBit depth                                : 16 bits
    3 |9 H8 ]- Z  P: n6 ?Compression mode                         : Lossy  w6 ?2 }& R! x$ ~
    Stream size                              : 499 MiB (1%)* a) D+ r# G" B9 q4 i* ]3 |) l
    Title                                    : Birds.of.Prey.2020.2160p.BluRaycd.REMUX.HEVC.DTS-HD.MA.TrueHD.7.1.Atmos-FGT7 v! p4 F+ C6 F+ X8 J
    Language                                 : English; c# T  T6 k/ P9 O0 Z! t4 `. X
    Service kind                             : Complete Main* y* `* Y7 p" `1 O* G
    Default                                  : No
    2 T0 @6 [4 }/ \: j( n3 X/ Z/ M8 I: lForced                                   : No5 D' u. g+ U. v. t
    Original source medium                   : Blu-ray9 L( U. m5 c2 Z9 e3 r

    ) q+ `, X) e9 B6 T. s8 J% bAudio #4
    ; r! ^2 g$ u8 K# WID                                       : 6
    - |$ C" E' z+ {" f$ bID in the original source medium         : 4353 (0x1101); `# s  B" M" f; Y( m2 n. I2 H
    Format                                   : AC-3
    # n4 ^% r6 }6 I9 O( dFormat/Info                              : Audio Coding 3
    ! l9 S1 v1 ~/ X1 b5 p, o1 \Commercial name                          : Dolby Digital
    0 h" D1 W$ D" u/ nCodec ID                                 : A_AC3. N( K3 f: b% r; b
    Duration                                 : 1 h 48 min
    2 T( k" I  h* Y1 |9 k- [Bit rate mode                            : Constant; F! T3 D( y6 y- @8 p4 v. R- G
    Bit rate                                 : 448 kb/s
    - e6 e  _8 v/ a& C2 ^Channel(s)                               : 6 channels
    0 p! M3 |4 Y5 n- p. v: l( QChannel layout                           : L R C LFE Ls Rs
    * H* b$ u$ L, d( e0 G/ m0 eSampling rate                            : 48.0 kHz9 X; Z0 s; P8 h* d
    Frame rate                               : 31.250 FPS (1536 SPF)3 I; I7 X- Y5 b4 a3 O: |
    Bit depth                                : 16 bits' [2 x% P* n0 n$ O
    Compression mode                         : Lossy
    3 ~% A7 t# d( a4 v2 MStream size                              : 349 MiB (1%)) w1 g6 p# E2 i! |
    Title                                    : Birds.of.Prey.2020.2160p.BluRaycd.REMUX.HEVC.DTS-HD.MA.TrueHD.7.1.Atmos-FGT% _) P0 y) Q0 h! p! n2 _
    Language                                 : English
    1 K& }* V; |' x  V4 cService kind                             : Complete Main+ q9 L& e: ^) v
    Default                                  : No. C+ j6 [1 M* N; o+ \& W6 C9 r
    Forced                                   : No1 ~) O0 v; b: d! }
    Original source medium                   : Blu-ray
    2 G, L/ x6 U) r' u0 G
    5 v( c$ _( \5 ~/ l. O0 m: GAudio #5
    ( W$ F' b* V: P/ e1 pID                                       : 71 h! U; T7 G: l% R
    ID in the original source medium         : 4354 (0x1102)
    6 K- \/ r5 g1 _( a/ z$ `Format                                   : AC-3
    ' }- |4 g# i' p) |" g$ B& W; WFormat/Info                              : Audio Coding 3
    3 r$ k3 i2 U% V: g1 kCommercial name                          : Dolby Digital
    9 F: w# J2 v; q  s5 U/ oCodec ID                                 : A_AC3
    & B% c3 K* j$ i- i; IDuration                                 : 1 h 48 min& F7 h( J% _. \" u
    Bit rate mode                            : Constant
    6 k( b% I& f2 M+ L5 bBit rate                                 : 448 kb/s% A2 c$ f1 |- H. o# U9 `
    Channel(s)                               : 6 channels
    5 D2 X" m: B& {. t# KChannel layout                           : L R C LFE Ls Rs) \5 E: X5 P  c# A# t
    Sampling rate                            : 48.0 kHz1 H# K% z1 x9 l' H7 D$ L) c1 w, i& c
    Frame rate                               : 31.250 FPS (1536 SPF)
    + t1 f: l; v+ ~' MBit depth                                : 16 bits) C- k7 s# U6 @- x/ I6 D8 t# ]) d
    Compression mode                         : Lossy
    & \7 n% b' [; u) t1 s& lStream size                              : 349 MiB (1%)8 ~9 r9 X0 W" \* Z) l4 \
    Title                                    : Birds.of.Prey.2020.2160p.BluRaycd.REMUX.HEVC.DTS-HD.MA.TrueHD.7.1.Atmos-FGT0 C7 }. X& n. w6 Y1 @' L$ Q& S/ K
    Language                                 : English
    % c9 N; S6 Z5 i& x4 FService kind                             : Complete Main
      ^9 w% P# @  _" xDefault                                  : No$ h) [7 O- Z- J
    Forced                                   : No9 {( ]: L$ {) p/ ~5 {. `
    Original source medium                   : Blu-ray
    " a$ k- a, H7 }; \: z" W% M: I! }! W: `/ X% \& J" W; H% S
    Audio #60 }6 G9 e. ?# D
    ID                                       : 8& E7 W8 b6 G! o; n9 A
    ID in the original source medium         : 4355 (0x1103)
      r% x8 C( M6 w. |Format                                   : AC-34 f' A  c/ ?9 M* ^6 b9 h5 B- D
    Format/Info                              : Audio Coding 3- a2 z% ]" ?: b" f4 w$ D
    Commercial name                          : Dolby Digital( \( a9 p2 ]/ o5 x, I0 S
    Codec ID                                 : A_AC3
    * d( E5 u: Y7 ]# ZDuration                                 : 1 h 48 min
    ; C8 R! q/ }9 s0 L' lBit rate mode                            : Constant
    1 U1 j1 t& H5 S5 A+ F- h8 qBit rate                                 : 448 kb/s5 S! y7 L# C/ K) A
    Channel(s)                               : 6 channels
    ' r( |; J* M) e! z, sChannel layout                           : L R C LFE Ls Rs6 m/ n; ~$ i/ W, k* x8 z: F# S2 e
    Sampling rate                            : 48.0 kHz
    , P- J' O; A8 `5 N( B1 qFrame rate                               : 31.250 FPS (1536 SPF)+ \4 {/ K: y2 m9 m! S+ N0 E: b- c
    Bit depth                                : 16 bits
      Q* W; ~6 x% p, V, X5 U1 A6 dCompression mode                         : Lossy
    * b6 b; V( w6 IStream size                              : 349 MiB (1%)
    0 f. D6 t1 o$ |+ hTitle                                    : Birds.of.Prey.2020.2160p.BluRaycd.REMUX.HEVC.DTS-HD.MA.TrueHD.7.1.Atmos-FGT! o1 Y% e7 X& B
    Language                                 : French+ Q6 l& s* ]6 G, K
    Service kind                             : Complete Main
    ) X' u% I& z" wDefault                                  : No
    , r8 M3 m) R8 UForced                                   : No2 ]; B& _6 z% ~" {' Z
    Original source medium                   : Blu-ray
    - T. G# z* F3 K: H1 |& h5 B& w
    ' S8 [) b; Y5 X9 MAudio #77 l% k* O- F& T3 y  q
    ID                                       : 9
    : {; o/ l8 h- ZID in the original source medium         : 4356 (0x1104)) S+ Z9 R2 Y1 o- b! O3 o
    Format                                   : AC-3
    4 B' J" a. m& ?( y2 DFormat/Info                              : Audio Coding 3% L) _" w" U# d$ J: I, D& x
    Commercial name                          : Dolby Digital
    3 {+ z6 E( T1 V' n8 ^' _0 sCodec ID                                 : A_AC3% U3 y4 u1 u7 e/ y0 K; B# w
    Duration                                 : 1 h 48 min
    9 o; E8 \: V' F* q! w6 XBit rate mode                            : Constant+ i1 k, w- c! a# l
    Bit rate                                 : 448 kb/s( O5 \* ?" W8 v. C0 d! q
    Channel(s)                               : 6 channels
      a' n8 }( @6 ~0 u* @Channel layout                           : L R C LFE Ls Rs
    1 L7 Y5 y% @7 [9 o' QSampling rate                            : 48.0 kHz: [0 f# V8 ?6 G5 C$ d4 P6 H/ x/ p
    Frame rate                               : 31.250 FPS (1536 SPF)1 t' l* K7 t* J, m% W* H  k
    Bit depth                                : 16 bits
    1 Y2 ^# r7 _2 o  M1 A% KCompression mode                         : Lossy+ C8 d( s- w+ ?( C1 }
    Stream size                              : 349 MiB (1%)
    & E/ E$ u9 h. \Title                                    : Birds.of.Prey.2020.2160p.BluRaycd.REMUX.HEVC.DTS-HD.MA.TrueHD.7.1.Atmos-FGT
    2 g" L( R/ Q0 _& l& b8 L4 eLanguage                                 : Spanish
    4 E& A: D' H; g' b  ?$ H0 l) i+ H1 uService kind                             : Complete Main
    : g3 O+ T  _+ a" iDefault                                  : No
    6 o7 v  D/ B( Y( g' ^Forced                                   : No
    " C! J, l8 W) ?9 MOriginal source medium                   : Blu-ray' c7 G3 h0 g' O2 R* j

    $ m9 M! z7 f1 s# O1 }Audio #85 p( y( r- S/ E$ {4 p: i7 I7 N
    ID                                       : 107 |3 ?% c4 w5 L5 S
    ID in the original source medium         : 4357 (0x1105)
    ) i7 {$ R/ T% a3 U8 T- tFormat                                   : AC-3
    # f* g2 C; C* c- qFormat/Info                              : Audio Coding 3& P) M" a# b; p' Z% d
    Commercial name                          : Dolby Digital, Z' v/ U: ?% G0 H+ i. i! x
    Codec ID                                 : A_AC3, K2 H+ j  ]2 h1 l5 k
    Duration                                 : 1 h 48 min
    + R8 ^: B' Z( n5 l: S0 R- wBit rate mode                            : Constant( S5 I4 D4 h6 N' k
    Bit rate                                 : 448 kb/s
    1 ^: \$ _" `6 |Channel(s)                               : 6 channels- D& E* r7 {0 G
    Channel layout                           : L R C LFE Ls Rs( `% Q2 E& @5 B. G5 l; Q9 x; g
    Sampling rate                            : 48.0 kHz
    / x# {- G5 Q. D9 rFrame rate                               : 31.250 FPS (1536 SPF)
    - f0 n" ?# n6 R# @2 H( X0 N+ L7 N; OBit depth                                : 16 bits
    7 r( ?- C# s! v& a9 T) l( U0 QCompression mode                         : Lossy0 q+ ]" E) V! @, j
    Stream size                              : 349 MiB (1%)
    " D  D3 z* E5 f7 QTitle                                    : Birds.of.Prey.2020.2160p.BluRaycd.REMUX.HEVC.DTS-HD.MA.TrueHD.7.1.Atmos-FGT& w9 b" ]4 @7 L. J% w4 |
    Language                                 : Czech
    # N9 Q3 |- r" L2 }* A3 P& |- GService kind                             : Complete Main/ k: x* J7 b+ v  D' |- u
    Default                                  : No' G0 p# w  ^6 f$ L
    Forced                                   : No
    4 X9 Y8 N8 k1 kOriginal source medium                   : Blu-ray
      O& ^% E0 d! b! J3 b( C
    7 o* T. `/ S; c) m, L6 KAudio #9' s# G; w1 r' b+ J# f
    ID                                       : 115 F$ w7 h+ X, D' _: @' V1 V
    ID in the original source medium         : 4358 (0x1106)
    9 D) R- [0 L, O: m& g" tFormat                                   : AC-3
    ( g/ g! r* W" @  @6 _, e/ X% DFormat/Info                              : Audio Coding 3
    6 k5 \  v3 ^4 _5 }1 }5 H( q( l$ ACommercial name                          : Dolby Digital
    1 V* v. a4 z* l" A9 ^Codec ID                                 : A_AC3
    / V* n% i4 z2 `$ f7 v& l& LDuration                                 : 1 h 48 min% J3 s5 E4 {& [% m
    Bit rate mode                            : Constant
    3 J! s0 S: P3 s; Y# fBit rate                                 : 448 kb/s
    7 i5 s, g; K7 _% C  |Channel(s)                               : 6 channels7 ~! B4 V; q$ M
    Channel layout                           : L R C LFE Ls Rs0 l) m8 B* X/ e3 j( z3 I& R( o
    Sampling rate                            : 48.0 kHz6 s. {. W" ^; h  f* S2 A  c3 c
    Frame rate                               : 31.250 FPS (1536 SPF)
    0 m: y) G9 @7 C5 ]6 TBit depth                                : 16 bits4 F5 E( Y! E1 E9 u( n( A
    Compression mode                         : Lossy! [4 R' B5 @- k4 B- }
    Stream size                              : 349 MiB (1%): e  p& V1 k. V/ `$ W
    Title                                    : Birds.of.Prey.2020.2160p.BluRaycd.REMUX.HEVC.DTS-HD.MA.TrueHD.7.1.Atmos-FGT- j: A, J1 j3 a4 h& o$ v8 q0 p* Q
    Language                                 : Hindi
    9 E' H. M8 \5 l5 ]: [Service kind                             : Complete Main3 e. p( Z1 N+ t3 l% r! u1 s& s
    Default                                  : No6 l: s' j, s% X9 X" b% ~' C
    Forced                                   : No! d4 l! ^0 u  Y$ H
    Original source medium                   : Blu-ray
    3 O/ ?- {. |' t$ k5 `6 s& `  q: M. F2 P. s
    Audio #10. K/ N% x% M3 Q
    ID                                       : 12! d, u( [3 U% Q- n# S7 I! Z9 E
    ID in the original source medium         : 4359 (0x1107)* J/ L1 ]+ S( \% O: N5 e
    Format                                   : AC-3
    9 [" q/ o7 I5 j+ V8 PFormat/Info                              : Audio Coding 31 }( I& ]1 g) K0 U9 u  C
    Commercial name                          : Dolby Digital
    7 S8 V  u6 @1 a8 KCodec ID                                 : A_AC3( W7 K3 A# O3 y' @# l: j
    Duration                                 : 1 h 48 min; t" O4 @1 L, e  O3 @
    Bit rate mode                            : Constant4 q- ^3 h2 S7 ^* `* t6 Q5 F
    Bit rate                                 : 448 kb/s0 T; _" T9 U  E$ `6 X% t
    Channel(s)                               : 6 channels% Z1 F; @4 x: ^: v" L- Q+ V
    Channel layout                           : L R C LFE Ls Rs
    + a5 G8 q* `7 L/ _+ X; NSampling rate                            : 48.0 kHz
    - ~. z5 G4 L+ T2 D" X9 ^0 oFrame rate                               : 31.250 FPS (1536 SPF)6 `" c& ?' b- S9 W- r* H4 G
    Bit depth                                : 16 bits
      E, s$ c! @5 S6 J# i! ACompression mode                         : Lossy
    & `9 Y" _! n0 j) ^; \Stream size                              : 349 MiB (1%)
    0 Y- y6 g  H+ r7 ~Title                                    : Birds.of.Prey.2020.2160p.BluRaycd.REMUX.HEVC.DTS-HD.MA.TrueHD.7.1.Atmos-FGT
    0 O0 n2 A5 R& t5 s! r  YLanguage                                 : Polish
    3 O8 x# s1 _8 k0 A: V- |Service kind                             : Complete Main
    * g5 G+ F. a. J/ i' [5 FDefault                                  : No* T+ N: K: p& P- Z" c
    Forced                                   : No4 _# c9 c. G0 ]7 \8 u6 K8 d7 E
    Original source medium                   : Blu-ray
    1 H" {2 h1 v2 k5 \0 Q( D5 D" S# R) ~3 g4 C" `$ J# w; N- ?7 I
    Text #1$ ?' g8 z. n3 z' L: w6 ?9 ~+ k
    ID                                       : 13- |( q+ {9 o5 p7 I$ Z7 J
    Format                                   : UTF-8
    3 K0 S- }3 f! M% M$ tCodec ID                                 : S_TEXT/UTF8
    $ K4 R4 T3 {! H+ xCodec ID/Info                            : UTF-8 Plain Text- H$ `' J0 t$ T
    Duration                                 : 1 h 48 min$ `1 N/ h4 t% h- h6 o
    Bit rate                                 : 60 b/s
    + T. U* W* f2 s( |$ a" X: K7 f1 OCount of elements                        : 1677' S3 g* p8 j7 ]% S2 r2 _/ k, d
    Stream size                              : 47.7 KiB (0%)
    5 C# h% U2 P% L; M3 @Title                                    : English-SRT. [# D% F. K! A( M
    Language                                 : English" e7 q* \9 B2 t# ^! `
    Default                                  : Yes
    - y! A* W* ~) }, FForced                                   : No# p, D! z6 ?- O$ `" V. @- C: u
    ! [4 U( }$ ^5 R3 f7 v: t
    Text #2
    5 R) o  ^8 f0 p- W& p9 ~ID                                       : 14
    5 ^$ ^6 o2 r9 s+ {ID in the original source medium         : 4768 (0x12A0)
    & H  H, y( K, @; I, ^- n9 x4 Z1 ZFormat                                   : PGS
    , C9 \4 k. f3 tMuxing mode                              : zlib
    2 H2 M: d1 U. [; I# {1 RCodec ID                                 : S_HDMV/PGS
    ' _2 \% |) U" @, ~: vCodec ID/Info                            : Picture based subtitle format used on BDs/HD-DVDs$ B* E+ p; i3 o( I0 m" \* N
    Duration                                 : 1 h 48 min8 h/ g+ t( I( H5 r
    Bit rate                                 : 43.7 kb/s. H" ~) X/ t8 Q* {
    Count of elements                        : 3876
    ( J9 I3 H! m* T* kStream size                              : 33.9 MiB (0%)
    . ?) Z" U" ~5 h0 VTitle                                    : English-PGS
    ; X. B' G' A# Z+ ?# n2 rLanguage                                 : English
    7 z5 T/ S0 t; p& {3 qDefault                                  : No) }, E: K: E# e- Z9 u
    Forced                                   : No
    , i$ i- w) \4 \) [Original source medium                   : Blu-ray% O1 o0 V; i* [. [7 W

    0 N8 y' C' V. y' h0 d0 z. ]! ~% CText #3, A4 q1 o1 T3 r" _, m1 h( y# h
    ID                                       : 15
    : M  G6 v7 b  S9 HID in the original source medium         : 4769 (0x12A1)) L. F! h0 h3 _) ^
    Format                                   : PGS
    / z. ?& V# i- W: bMuxing mode                              : zlib
    5 I) V* H. C6 BCodec ID                                 : S_HDMV/PGS
    * F  B( m+ ]; kCodec ID/Info                            : Picture based subtitle format used on BDs/HD-DVDs
    : k4 ~$ {# @- pDuration                                 : 1 h 48 min5 n/ N6 p9 _8 @& m+ N5 o& b
    Bit rate                                 : 27.3 kb/s
    ! t& D: ?6 L# B$ c  [& }Count of elements                        : 2854
    3 @4 n7 M# J1 x* VStream size                              : 21.2 MiB (0%)
    6 {1 T6 u5 I2 h8 h& ]! |7 aTitle                                    : French-PGS
    % C$ C$ M+ B. y/ \. _7 FLanguage                                 : French& Y& j1 q0 Z$ }, \
    Default                                  : No
    ' V- H$ K2 o# ZForced                                   : No
    : R5 h# @- l0 s, s& K" \Original source medium                   : Blu-ray7 G* _! F# |  ]; g6 f' h. o. S
    + K8 Q# p1 s& P
    Text #4
    : a/ w; j" h3 r7 qID                                       : 169 x/ r3 d" n5 g* i
    ID in the original source medium         : 4770 (0x12A2)( r* m  K! I& q% u' u; L
    Format                                   : PGS3 w2 l' O7 D, f2 b3 f) H
    Muxing mode                              : zlib' G, S- p; [% Q' G' k0 y& m
    Codec ID                                 : S_HDMV/PGS# ?, N) I+ L5 o  Z( W7 {  I
    Codec ID/Info                            : Picture based subtitle format used on BDs/HD-DVDs
    , h: F- q% a- b1 ZDuration                                 : 1 h 48 min' h, S7 ?. k" n5 I' e8 e4 W
    Bit rate                                 : 28.4 kb/s
    + [! ~6 T3 ?& s& b$ D8 x' eCount of elements                        : 2786# ^6 h  M* Q$ x+ |+ {8 G
    Stream size                              : 22.0 MiB (0%)+ `8 X4 r- m& Z4 l, e/ J
    Title                                    : Chinese-PGS- C* Y8 s0 J. }
    Language                                 : Chinese! W6 Y5 w* C" X9 ]" b
    Default                                  : No. _( y; L6 E3 R+ G  I& e4 D
    Forced                                   : No
    2 x# N- ]7 A7 p( UOriginal source medium                   : Blu-ray$ j% Y/ F8 J9 P1 v

    1 `! o$ B5 Q; M/ w# g: nText #5$ T: s# s* x9 f" J
    ID                                       : 17
    - M, C# K& L. L) [+ NID in the original source medium         : 4771 (0x12A3)
    $ u4 y$ y3 o/ j2 o) hFormat                                   : PGS
    * T" a* `8 k5 K+ a% S9 SMuxing mode                              : zlib
    . `6 |/ I, c  xCodec ID                                 : S_HDMV/PGS
    5 z9 \+ [2 B! E  sCodec ID/Info                            : Picture based subtitle format used on BDs/HD-DVDs
    % a: T5 f. X9 p0 O6 kDuration                                 : 1 h 48 min
    . y& f1 e, S" M' j' R# H4 UBit rate                                 : 28.5 kb/s
      y3 {* W8 E$ q6 E. rCount of elements                        : 2926, Y7 c& |. _% g! c; v- E$ t
    Stream size                              : 22.1 MiB (0%); l, p. c2 }; {8 I9 o% {# D0 L4 R, A$ D
    Title                                    : Chinese-PGS
    8 @0 C2 `7 r4 x/ {- l; o& J5 ALanguage                                 : Chinese
      j# V: R, ?! B; jDefault                                  : No) r2 s& N2 W. v; `! k
    Forced                                   : No
    % r( d0 o% n7 zOriginal source medium                   : Blu-ray% i" [& }  j' R  n  N7 K/ k) H% t0 d

    ) m5 Z* ~8 h! i; ~7 p8 E* ^Text #66 o$ y' `6 d: {5 E# N. h7 w
    ID                                       : 18
    3 ]% z. s+ P( |( o- s' U- VID in the original source medium         : 4772 (0x12A4)
    3 @6 w9 }/ f/ \) T8 T! C1 RFormat                                   : PGS& G' n4 r! ?; |& m
    Muxing mode                              : zlib
    . }0 S( l# Q7 a0 ^' w- O! TCodec ID                                 : S_HDMV/PGS
    ( h/ V3 u# W9 H5 Q' ^' k+ eCodec ID/Info                            : Picture based subtitle format used on BDs/HD-DVDs
    - @# c1 v' C( m0 E- v4 O+ R9 fDuration                                 : 1 h 48 min9 ]* u1 a9 m: F) ]# }2 f5 m
    Bit rate                                 : 18.4 kb/s; j' \) E8 @# m4 f
    Count of elements                        : 2848" n. f; s6 e; t, p+ x
    Stream size                              : 14.3 MiB (0%)5 q7 P: e' z) P- a2 C
    Title                                    : Korean-PGS# _0 X. A4 X* i9 u: ^( _2 r
    Language                                 : Korean
    4 z  l6 t$ O( r+ dDefault                                  : No9 P  ]4 O7 N2 s9 J
    Forced                                   : No- p/ [& ~$ r6 H# ^" ~/ b
    Original source medium                   : Blu-ray0 O0 M4 g; M% ~/ P

    ' e; o2 ?1 R% ^& Z+ DText #7
    + `% L3 g& e" R3 EID                                       : 19$ ?& d+ Z  K. T8 R/ }- [! T
    ID in the original source medium         : 4773 (0x12A5)
    7 K! m) B4 [/ B( _0 VFormat                                   : PGS
    ! y9 H  ?) \. v5 V& P' iMuxing mode                              : zlib
      c2 t, H$ ^$ m7 Z8 m8 I: |- n$ v" E0 UCodec ID                                 : S_HDMV/PGS
    ; R5 i" d5 N0 i% o/ FCodec ID/Info                            : Picture based subtitle format used on BDs/HD-DVDs
    0 ?- T6 S" O/ f8 h  _0 ]. ZDuration                                 : 1 h 48 min* Z; O8 {9 _9 T& x4 C# i* A% e
    Bit rate                                 : 32.8 kb/s3 {7 d. ~: J5 K  ]
    Count of elements                        : 2926
    , Q+ E. H1 \6 s5 S8 G+ y* w5 N  D" @Stream size                              : 25.4 MiB (0%)
    3 W" M! X' c: ]" g5 C/ u8 l7 qTitle                                    : Spanish-PGS9 m1 w* W8 e- i& Z+ |
    Language                                 : Spanish' h! B% ]/ _2 i" L
    Default                                  : No, f  H1 {3 S5 A
    Forced                                   : No
    9 B) Z+ k6 x, |0 T) Y9 ]Original source medium                   : Blu-ray
    2 u8 Q$ X$ D% @% l* E& s+ S4 D- D* a9 f* p3 T+ z+ s
    Text #8
    1 y. [' {% B5 P  L! D! aID                                       : 20* w/ X) I$ l' h( n
    ID in the original source medium         : 4774 (0x12A6)1 c& t2 _! |! k" M  F7 x
    Format                                   : PGS8 U  e4 P. z+ m+ z8 z1 \
    Muxing mode                              : zlib# j7 z$ H& U; S- z
    Codec ID                                 : S_HDMV/PGS. h) e& S1 q3 g" k: y7 F2 w
    Codec ID/Info                            : Picture based subtitle format used on BDs/HD-DVDs( n( }& e) ?; Z, |
    Duration                                 : 1 h 48 min3 j1 f0 [$ W$ z1 X
    Bit rate                                 : 18.4 kb/s* V( \0 R' I- D5 q7 z8 f
    Count of elements                        : 3012
    7 T. @( v+ s/ M+ `Stream size                              : 14.2 MiB (0%)+ V9 ~3 p1 x! L' e1 ]; Q& E
    Title                                    : Arabic-PGS7 H: m! w, D7 M3 a$ v
    Language                                 : Arabic! j: K# Y# F: @, U/ |* d8 \% x
    Default                                  : No
    9 N1 t0 @; a2 ]3 u9 y: B- hForced                                   : No
    ) I( r* o' }! `$ m$ }. YOriginal source medium                   : Blu-ray; [( R% x( V. }6 z

    3 h; Z3 O: W' _) _3 h6 nText #9
    $ ?# Q0 V7 c- A6 [# M8 zID                                       : 219 }" T' T0 N5 H* o" v8 o
    ID in the original source medium         : 4775 (0x12A7)
    : O' @) }& }  D* oFormat                                   : PGS8 y  t, g1 r2 I
    Muxing mode                              : zlib1 j4 v1 o- t/ Y+ r7 Z: ]
    Codec ID                                 : S_HDMV/PGS  e# a2 G- z! K1 b9 |. g$ ^0 d
    Codec ID/Info                            : Picture based subtitle format used on BDs/HD-DVDs
    ' D! z' q+ Y; c0 {  iDuration                                 : 1 h 48 min1 d8 @+ Y0 G# y) x( z% ]) r3 q8 v8 A9 ^
    Bit rate                                 : 29.5 kb/s3 h. j% I( g9 ^- M8 v+ g
    Count of elements                        : 29225 R; E3 f2 _0 S: q$ G
    Stream size                              : 22.9 MiB (0%)9 D6 j8 y& g: G% w, F
    Title                                    : Czech-PGS
    " v0 d' m, V# H1 @& \% m7 Y  z) ]Language                                 : Czech# J9 V; r% y3 x' }0 i* b/ n3 s
    Default                                  : No" _5 c, `# W) t! ]' b
    Forced                                   : No: ?; d. R2 J* m2 b1 s7 t) W
    Original source medium                   : Blu-ray9 l" v3 [% G$ f* R" V2 a. [8 k

    3 i; Z, l9 ~: l( QText #10
    ' k1 B, z% o( W! L  X8 yID                                       : 22
    & I- ~9 ^8 f  I9 K4 R$ i4 v; yID in the original source medium         : 4776 (0x12A8)" @# J1 D/ [  {* n
    Format                                   : PGS& L! Z3 c0 C8 R: a+ }; `) m2 K0 b
    Muxing mode                              : zlib9 m8 K$ @2 z& ~' g6 W; U. J7 m
    Codec ID                                 : S_HDMV/PGS% R2 B' v4 a9 [; W6 [' N* a; l, s) M
    Codec ID/Info                            : Picture based subtitle format used on BDs/HD-DVDs
    / K7 z4 @* `9 W1 Q* o' }Duration                                 : 1 h 48 min! ~) o0 C/ j- r+ q. l$ v1 U; M
    Bit rate                                 : 27.6 kb/s
    5 r- P: o2 @, h# l8 \$ Y% wCount of elements                        : 2772
    5 `* \3 I; i( F( R& {Stream size                              : 21.3 MiB (0%)/ J0 @# d  _& r, T
    Title                                    : Polish-PGS. C  X  ?) o4 v, X  G; L  q/ T
    Language                                 : Polish0 p8 [: X7 E# k, P& j# A
    Default                                  : No9 U# D1 y7 p5 m: _; c& D/ P. C
    Forced                                   : No% J9 [/ M# j0 n1 i1 I! x
    Original source medium                   : Blu-ray
    5 ^8 u: h" P- l# F5 s* c& j# S8 d& j  Z( h# R7 u
    Text #118 H* l9 Q6 [& |7 h4 q
    ID                                       : 23
    & ?; |  V& A! m# L! \, c+ y+ c. DID in the original source medium         : 4777 (0x12A9)7 ~1 ?; r4 P+ d) W& Y! P' V
    Format                                   : PGS; S4 @  P0 E% Y
    Muxing mode                              : zlib3 K* ]4 w1 f; w$ |; {
    Codec ID                                 : S_HDMV/PGS8 P- J. H' w- T( Q  \  h( ?1 i
    Codec ID/Info                            : Picture based subtitle format used on BDs/HD-DVDs4 m% j; V7 ^9 O% c' y5 M
    Duration                                 : 1 h 39 min
    * O6 ~1 L* ~+ x# D* i' u3 Q4 \Bit rate                                 : 1 077 b/s3 ?  k, _+ E6 o9 X. e
    Count of elements                        : 70( Y/ p1 ^# o3 S6 C, w0 Q
    Stream size                              : 787 KiB (0%)1 \% X/ k7 h5 o
    Title                                    : French-FORCED-PGS
    ) ^1 U5 L3 N" b3 G- k1 C! L) b! PLanguage                                 : French3 ?8 h4 s. Q! f) s
    Default                                  : No
    6 B3 G+ w5 C# b. gForced                                   : No4 {' E. i9 p5 D$ A( |( G
    Original source medium                   : Blu-ray: n7 h+ Z- y. d. L2 x# A

    7 [5 X1 C% o1 XText #12
    * j0 B' o* L+ A5 a0 |7 p4 WID                                       : 24
    * l$ p9 G2 a+ OID in the original source medium         : 4778 (0x12AA)
    / J$ p3 f/ X; Y5 E( QFormat                                   : PGS' K, X$ X8 ?7 H; p/ F2 x
    Muxing mode                              : zlib, Q0 X& R$ P5 i% I
    Codec ID                                 : S_HDMV/PGS, s$ L, k) O( {; J: f- ^
    Codec ID/Info                            : Picture based subtitle format used on BDs/HD-DVDs# U5 ]- \) w- d4 F. Q! ~4 `) g; ?
    Duration                                 : 1 h 33 min( ~" s/ Y8 z; H
    Bit rate                                 : 151 b/s! f+ w& E- c! H9 |. {1 O
    Count of elements                        : 143 W# F6 }" x8 F
    Stream size                              : 104 KiB (0%)
    & _, r" w8 {' E4 S! g! ]2 NTitle                                    : Spanish-FORCED-PGS: j; H) e4 q  Z: e% y+ L
    Language                                 : Spanish
    ) B' w6 P4 l$ _% M( P+ f% F* F$ pDefault                                  : No
    & y# s2 e: t: Q& s; tForced                                   : No/ E; t1 K0 Q% J; Z* G& u* c
    Original source medium                   : Blu-ray* Z" z* J$ ]- S: D, v2 l& M
    ) j/ M" E! \' s- X4 s
    Text #13% P+ @) w# l; Q' f0 `7 {" _
    ID                                       : 25
    + J2 j* \. h' I" ?  ~# CID in the original source medium         : 4779 (0x12AB)
    0 A2 P* ^) t1 qFormat                                   : PGS
    ) I1 x4 j4 k6 u# dMuxing mode                              : zlib
    - Z; M$ S9 _7 u# aCodec ID                                 : S_HDMV/PGS
    : v  r7 ?- K& }: ECodec ID/Info                            : Picture based subtitle format used on BDs/HD-DVDs
    5 W  y4 b0 A0 r  e% S% yDuration                                 : 1 h 41 min
    6 b5 z( s% l6 n$ g/ Y! a8 B7 L% L/ gBit rate                                 : 1 131 b/s
    " k  H" |# ]3 c  I* p) ECount of elements                        : 94" K% }# C# W& \3 t! e
    Stream size                              : 844 KiB (0%)% l# r% [+ ~% Z' o0 @1 }
    Title                                    : Czech-PGS: j, N' P1 N4 G
    Language                                 : Czech
    - ^. O( r" k$ [( ZDefault                                  : No
    & S2 I: u# u9 h1 H$ iForced                                   : No
    9 H$ x% |9 Q& k8 T6 zOriginal source medium                   : Blu-ray9 P1 k0 t, ]- m; U$ g1 d

    ' ?2 p5 U% R& e3 @+ SText #14
    ; V, _, ~2 |6 f2 E/ z: yID                                       : 264 ~0 W; l' r) p4 r, s8 \0 |
    ID in the original source medium         : 4780 (0x12AC)" M- [+ \9 z3 ~
    Format                                   : PGS+ n! m1 r+ a! r* `7 E" n
    Muxing mode                              : zlib
    0 u8 U8 q  M3 K$ i+ KCodec ID                                 : S_HDMV/PGS
    0 k/ K6 G/ _/ @% n* g3 kCodec ID/Info                            : Picture based subtitle format used on BDs/HD-DVDs0 i. Z( L. ]$ Y9 Q
    Duration                                 : 1 h 47 min
    9 v$ i! _; s9 i+ }' j" x: i1 qBit rate                                 : 789 b/s
    9 |3 ?$ f. j: O7 j7 Z$ lCount of elements                        : 102
    1 E8 A/ K* G0 V3 c; SStream size                              : 623 KiB (0%). [* ]1 ]% E+ v  o) C& ^2 ^
    Title                                    : Hindi-FORCED-PGS& \/ z( i7 E" j! \/ x' U5 r
    Language                                 : Hindi/ D7 h8 K8 M: R9 {, z9 w
    Default                                  : No
    2 _0 U0 y- `, LForced                                   : No
    , ~6 K" ^% A: V9 Y( POriginal source medium                   : Blu-ray! V) e7 m6 }4 V+ X* S

    1 @1 O# s* A$ w7 C) vMenu. N- r* [" @" d, t
    00:00:00.000                             : en:Chapter 01
    , s, f2 @, U+ L  v- e, n5 K- b* r00:08:08.446                             : en:Chapter 02; k" A* c% y9 k, Q. ]% o
    00:17:53.739                             : en:Chapter 03) ?- s1 f4 t9 L' @0 c; c. I
    00:27:11.838                             : en:Chapter 04
    6 N$ |9 p5 {: O8 q00:35:40.805                             : en:Chapter 05
    4 L5 j. ?8 Y, B1 u+ b00:44:48.268                             : en:Chapter 06
    % F. S' Q, h- j% w00:53:43.386                             : en:Chapter 07
    7 s8 `3 b8 d; j1 d9 ~' b- U1 J01:01:15.296                             : en:Chapter 08
    # G4 u! l1 L' M! M3 I01:10:55.960                             : en:Chapter 09
    1 m+ [! f- [# R; H$ W01:19:06.158                             : en:Chapter 107 c" R: q8 k- V2 ^8 \" c
    01:24:28.146                             : en:Chapter 11
    4 n# Y- r5 \, |7 t" `5 P01:34:27.620                             : en:Chapter 12
    % Z& P/ |" ^3 }01:41:26.997                             : en:Chapter 13
    " r! o$ Y+ H0 D5 U
    游客,查看本帖隐藏内容请回复 | 加入VIP贵宾组可免积分免回复下载 立即了解 | 还不是会员:点击获取邀请码 Invitation Code
  • TA的每日心情
    开心
    5 天前
  • 签到天数: 33 天

    [LV.5]暂住蓝盘

    35

    主题

    850

    帖子

    3252

    积分

    Sponsor

    金币
    364 枚
    体力
    1134 点
    lanpanshuma 发表于 2020-5-8 13:04:54 | 显示全部楼层
    每天都来蓝光论坛看看,我爱蓝光电影。
    7 G  G5 D9 O+ n. k" I6 f5 `- H, DAfter reading the posts have nothing to do I Amoy posts!1 Z$ }( W& g6 V0 c% m4 ^
    该会员没有 ...
  • TA的每日心情
    擦汗
    5 天前
  • 签到天数: 102 天

    [LV.6]常住蓝盘

    552

    主题

    1640

    帖子

    1万

    积分

    VIP advanced

    金币
    1230 枚
    体力
    3844 点

    公主勋章卓越贡献勋章

    21cn 发表于 2020-5-19 18:37:06 | 显示全部楼层
    楼主发贴辛苦了,I*老*虎*U!
    & O( y  V/ E& `# s% v6 L% Q0 t* IBlu-ray movies Community: my favorite!. i1 j8 R7 g! C  Z3 `: ~! g. a/ h4 }

    本版积分规则

    小黑屋|Archiver|蓝光电影资源网

    GMT+8, 2020-6-2 12:22

    快速回复 返回顶部 返回列表