BluRayCD Forum

 找回密码
 立即注册【分享大片】

QQ登录

只需一步,快速开始

查看: 41|回复: 3
收起左侧

[2160P极清] 猛禽小队和哈莉·奎茵 [4K SDR高码版 自带中字] Birds of Prey 2020 2160p BluRaycd x265 10bit & 8bit SDR DTS-HD MA TrueHD 7.1 Atmos-SWTYBLZ 39.15GB & 40.87GB

[复制链接]

4335

主题

4496

帖子

5万

积分

Post Share

金币
8062 枚
体力
16227 点

卓越贡献勋章

黄金嫖客 发表于 2020-5-19 18:20:13 | 显示全部楼层 |阅读模式
' l! ^1 J3 L$ o) \) F+ F1 Z
' z% S: @/ y, Z9 Y: P* F2 f
◎片  名 Birds of Prey: And the Fantabulous Emancipation of One Harley Quinn / Harley Quinn: Birds of Prey( V" y' S: @, ?8 e( ?
◎译  名 猛禽小队和哈莉·奎茵/哈莉·奎因:猛禽小队/猛禽暴队:解疯小丑女(港)/猛禽小队:小丑女大解放(台)
; }% i" j) S0 ?; I◎年  代 2020- Y# d, e' W" y3 a  e$ v3 L
◎产  地 美国" l0 i/ a7 W7 U4 N/ L, b
◎类  别 动作/犯罪/冒险% O. A3 T3 @: B" W5 N4 J
◎语  言 英语/ D0 V) @" K+ v3 x* R% J7 Q) U' q6 ~
◎上映日期 2020-02-07(美国)( `9 y0 g4 n0 a! w/ J9 q$ `
◎IMDb评分 6.2/10 from 110,538 users
$ @4 G. L/ J% ^2 x( [9 ?2 I( X9 ~( e◎IMDb链接 https://www.imdb.com/title/tt7713068/
) O9 [1 L, v- F% b0 n8 k$ k" o* B◎豆瓣评分 5.7/10 from 51,646 users
2 C; f- d& o8 i, w7 d◎豆瓣链接 https://movie.douban.com/subject/30160393/& C  K7 t& d0 D$ f8 v9 `* d$ P. u
◎片  长 1 h 48 min+ r5 Z- c) K$ h
◎导  演 阎羽茜 Cathy Yan9 G$ J" t* x3 w5 t3 E: R" m
◎编  剧 克里斯蒂娜·霍德森 Christina Hodson 5 k( Y9 z1 A  x( Z! H: B
       查克·狄克逊 Chuck Dixon # I; D2 B3 Y0 N) ^. `
       乔丹·B·戈芬克尔 Jordan B. Gorfinkel 9 h$ j  t1 [( @% Q9 ]
       格雷格·兰德 Greg Land' d5 w" m- T! |# `
◎主  演 玛格特·罗比 Margot Robbie( g& R2 Z4 `4 t9 v3 u4 r8 Q" M' N
       玛丽·伊丽莎白·温斯特德 Mary Elizabeth Winstead
7 s4 l+ G8 e0 B- G: Z       罗茜·佩雷兹 Rosie Perez
9 y, n- G/ u0 ]6 \) W' _       朱尼·斯莫利特 Jurnee Smollett
2 M, x" M; i2 x       伊万·麦克格雷格 Ewan McGregor
( g3 _7 \" Y  G; Z/ t" o5 ^) N       埃拉·杰伊·巴斯科 Ella Jay Basco
! e. a* O5 i+ L       克里斯·梅西纳 Chris Messina6 F1 L7 n9 f2 v3 n: {2 o' F
       黄阿丽 Ali Wong. g: g. Y2 c. L  A( A2 S* E
       戴维·尤里 David Ury
8 @$ ]4 {9 ]! g, [       萨拉·蒙特斯 Sara Montez; c- q* g( z: C# n3 k
       伊莎贝尔·帕克扎德 Isabel Pakzad
) C* l  R( Y; A% F       丹尼尔·伯哈特 Daniel Bernhardt( j5 a2 I( d) z
       帕洛马·拉比诺夫 Paloma Rabinov! X. w3 H. p+ l* q* _% Y2 n( U
       德里克·威尔逊 Derek Wilson
* z) C& f: B& c& e% h7 g  E       乔·布卡罗三世 Joe Bucaro III
  W( }8 s3 \2 H2 [. q       弗朗克西斯·周 Fran?ois Chau2 @: y$ R- ]9 l3 N
       布鲁诺·奥利弗 Bruno Oliver
3 e4 @$ k. }$ L       马修·维利希 Matthew Willig+ y3 y1 \6 ]3 k, t
       杰里米·丹茨林格 Jeremy Denzlinger& T9 o9 ]3 ?) B
       迈克尔·马西尼 Michael Masini7 _: X; D4 @# {& S
       杰西·布什 Jesse Bush
7 _! K& \" Q* N8 H# c       史蒂文·威廉姆斯 Steven Williams& b: M2 o4 S+ h1 h) U0 ~1 g0 z7 Y
       夏洛林·阿莫亚 Charlene Amoia
+ g9 f6 A; @8 o$ L# x       罗伯特·卡特里尼 Robert Catrini
! Y/ C9 v% z, a& }% c- z       埃迪·阿尔法诺 Eddie Alfano! K# A6 X0 w5 [$ g2 j
       普拉莫德库马尔 Pramod Kumar
" e4 j/ n/ N4 V7 g! F( F       K.K. 巴雷特 K.K. Barrett6 O! u6 S/ S' S# f
       西蒙·瑞 Simon Rhee6 ^4 Y' s, q' L* m
       凯莱布·斯比尔亚兹 Caleb Spillyards
7 e! v5 X  ~* X       萨拉·贝克 Sala Baker; h" x$ i6 I: L6 I
       埃夫卡·科瓦拉西尤斯 Efka Kvaraciejus1 y. ~, g, k1 D7 f9 M, H
       山姆·哈格雷夫 Sam Hargrave
/ |2 G- y7 ?" S& k  W       丹尼斯·基弗 Dennis Keiffer
6 w( n( J. o! P* S- L' f       博亚娜·诺瓦科维奇 Bojana Novakovi?
- n) L6 x) n0 i; C! D% J" A       埃里克·迈克尔·科尔 Eric Michael Cole
' h+ v6 |/ |! O* \! A+ Q, b9 _5 k       提姆·里格比 Tim Rigby
6 d) q7 B5 k3 x       大卫·安东尼·布廖内 David Anthony Buglione4 \, A; E: q; C! V
       杰拉德·唐尼 Gerald Downey. M0 N6 A# |/ A; v  P% A
       埃迪·J.费尔南德斯 Eddie J. Fernandez) Z4 P/ H' `" R1 d/ n
       尼科·格莱瑟姆 Nico Greetham( ?  j; |* I5 X% d
       朱迪·凯恩 Judy Kain
8 a8 |1 L5 z% q# r  c       杰夫·里帕瑞 Jeff Lipary6 H, _% _+ D7 D" b' X" ~  H' e
       詹妮尔·麦基 Jenelle McKee
. s$ B7 {0 w2 @* \       伊戈·米基塔斯 Ego Mikitas4 K, _* f% @: r" c5 k7 g
       安东尼·莫利纳利 Anthony Molinari
  ?) s* k! Z. @% {* E2 u       迪索·拉莫斯 Diezel Ramos
. X. Z4 ~6 b6 \2 Z       凯伦·特利哈 Karen Teliha
- i2 B. M6 i1 ~' O% ~* r2 _4 j8 j# `% ]0 Y8 r/ P/ c- ~+ u
◎标  签 DC | 犯罪 | 女性 | 美国 | 超级英雄 | 动作 | 漫画改编 | 20201 l  c+ Y5 i) Y
9 `7 j# B+ R: w% v1 ^0 S! ~4 L- i
◎简  介  % X7 A  T0 x( n' F! X& o
2 V1 M( Z! D; D% c: H: |" _$ n
  你听过一个有关警察、歌手、神经病和黑手党公主的故事吗?《猛禽小队和哈莉·奎茵》是一个只有哈莉·奎茵本人才能讲出来的超乎寻常的奇妙传奇。哥谭市最为凶残自大的恶棍罗曼·赛恩尼斯和他狂热的手下萨斯为了寻找一个年轻女孩卡斯,将这座城市翻了个底朝天。哈莉、女猎手、黑金丝雀和蕾妮·蒙托亚不期而遇,看似违和的四人组不得不团结一致、携手作战,才有可能打败罗曼。 2 `, R& F9 n% b: H& P& O  E) r/ {8 G
9 H) a7 V5 {- n  P# m6 @
  After splitting up with The Joker, Harley Quinn and three other female superheroes - Black Canary, Huntress and Renee Montoya - come together to save the life of a little girl from an evil crime lord.$ M/ ]- y& @$ _) \4 V+ I' V3 }2 T
; ]% \3 X1 j; t3 r
◎获奖情况  
. }* @8 X: h. u9 c4 J1 P) t# q+ a- v4 Y
  第6届豆瓣电影年度榜单(2019)5 a& {" W! \$ \, Y
  最值得期待的外语电影(提名)  t$ m( ~3 l. b" A3 h2 C  e

: g8 ?2 n4 ]7 t. _. |
SWEATY BALLZ presents
# ?0 Y! h( ]* P; J
& \2 C0 l) X) l9 R) aBirds.of.Prey.And.the.Fantabulous.Emancipation.of.One.Harley.Quinn.2020.2160p.BluRayCD.x265.10bit.SDR.DTS-HD.MA.TrueHD.7.1.Atmos-SWTYBLZ
) q. X7 Q' y7 M- lConverted from 10 bit HDR to 10 bit SDR using tripple mixed Hable-Reinhard-JJ per scene+frame analysis algorithm$ @& _2 a- j) F& {6 @. E
Screenshots are 8bit SDR
+ u9 g2 O* x2 j* x7 j+ _; B1 [; l" C
1 Z4 v5 Z3 v, `0 h  i9 PVideo
' i: s* M( d$ T3 NID                                       : 1
" R( u) c) m1 s$ ]9 M% JFormat                                   : HEVC# u4 e; Y' O4 W
Format/Info                              : High Efficiency Video Coding
1 @, |! L3 |7 x7 q& }Format profile                           : Main 10@L5.1@High
, _* l7 Y: I; I3 J& n& {Codec ID                                 : V_MPEGH/ISO/HEVC
( S0 a0 J5 v4 F& w& qDuration                                 : 1 h 48 min% ~6 }/ w: m8 g
Bit rate                                 : 42.5 Mb/s
' S& Y# s+ X+ |+ Q2 C+ w. l  LWidth                                    : 3 840 pixels' {) R1 G3 ~# |7 i* y$ G& \; s
Height                                   : 1 608 pixels, v# n# E- b4 d/ o, t
Display aspect ratio                     : 2.40:10 w- @' S( C" a+ [
Frame rate mode                          : Constant. C/ G5 v( T0 u2 J& V0 i: L
Frame rate                               : 23.976 (24000/1001/11208/37687) FPS# y! M3 S# G5 F4 Z5 _& w( @* t
Color space                              : YUV
$ H( \* v. D' y& @" E; `* QChroma subsampling                       : 4:2:00 t- Q$ U: N: L. ?  C  z+ D
Bit depth                                : 10 bits% R0 |4 x( |( \; L+ H9 s7 `* V) X6 m
Bits/(Pixel*Frame)                       : 0.287
/ @7 m- T- @+ }! b% H4 kStream size                              : 32.3 GiB (83%)
' ]1 }  o2 O5 V5 vTitle                                    : Birds.of.Prey.And.the.Fantabulous.Emancipation.of.One.Harley.Quinn.2020.2160p.BluRaycd.x265.10bit.SDR.DTS-HD.MA.TrueHD.7.1.Atmos-SWTYBLZ
0 U" o/ K- J0 U. d3 P4 w" d+ BWriting library                          : x265 3.0+1-ed72af837053:[Windows][GCC 8.2.0][64 bit] 10bit
: Z% V$ v0 S; _6 ?( \/ SEncoding settings                        : cpuid=1111039 / frame-threads=6 / numa-pools=40 / wpp / no-pmode / no-pme / no-psnr / no-ssim / log-level=2 / input-csp=1 / input-res=3840x1608 / interlace=0 / total-frames=156665 / level-idc=51 / high-tier=1 / uhd-bd=0 / ref=3 / no-allow-non-conformance / repeat-headers / annexb / aud / hrd / info / hash=0 / no-temporal-layers / no-open-gop / min-keyint=1 / keyint=24 / gop-lookahead=0 / bframes=4 / b-adapt=2 / b-pyramid / bframe-bias=0 / rc-lookahead=25 / lookahead-slices=4 / scenecut=40 / radl=0 / no-splice /  no-intra-refresh / ctu=64 / min-cu-size=8 / no-rect / no-amp / max-tu-size=32 / tu-inter-depth=1 / tu-intra-depth=1 / limit-tu=0 / rdoq-level=0 / dynamic-rd=0.00 / no-ssim-rd / signhide / no-tskip / nr-intra=0 / nr-inter=0 / no-constrained-intra / strong-intra-smoothing / max-merge=2 / limit-refs=3 / no-limit-modes / me=1 / subme=2 / merange=57 / temporal-mvp / weightp / no-weightb / no-analyze-src-pics / deblock=0:0 / no-sao / no-sao-non-deblock / rd=3 / no-early-skip / rskip / no-fast-intra / no-tskip-fast / no-cu-lossless / no-b-intra / no-splitrd-skip / rdpenalty=0 / psy-rd=2.00 / psy-rdoq=0.00 / no-rd-refine / no-lossless / cbqpoffs=0 / crqpoffs=0 / rc=crf / crf=16.0 / qcomp=0.60 / qpstep=4 / stats-write=0 / stats-read=0 / vbv-maxrate=160000 / vbv-bufsize=160000 / vbv-init=0.9 / crf-max=0.0 / crf-min=0.0 / ipratio=1.40 / pbratio=1.30 / aq-mode=1 / aq-strength=1.00 / cutree / zone-count=0 / no-strict-cbr / qg-size=32 / no-rc-grain / qpmax=69 / qpmin=0 / no-const-vbv / sar=1 / overscan=0 / videoformat=5 / range=0 / colorprim=2 / transfer=2 / colormatrix=2 / chromaloc=0 / display-window=0 / max-cll=0,0 / min-luma=0 / max-luma=1023 / log2-max-poc-lsb=8 / vui-timing-info / vui-hrd-info / slices=1 / opt-qp-pps / opt-ref-list-length-pps / no-multi-pass-opt-rps / scenecut-bias=0.05 / no-opt-cu-delta-qp / no-aq-motion / no-hdr / no-hdr-opt / no-dhdr10-opt / no-idr-recovery-sei / analysis-reuse-level=5 / scale-factor=0 / refine-intra=0 / refine-inter=0 / refine-mv=0 / refine-ctu-distortion=0 / no-limit-sao / ctu-info=0 / no-lowpass-dct / refine-analysis-type=0 / copy-pic=1 / max-ausize-factor=1.0 / no-dynamic-refine / no-single-sei / no-hevc-aq / qp-adaptation-range=1.00" i$ U9 T9 Y: K  }4 J# e
Default                                  : Yes. v! ?/ ?0 e) y# S
Forced                                   : No7 ]1 d  d9 _0 M/ y8 K! F
/ o7 ]& H3 e# ^! I: F# J
Audio #11 H) \% h  `2 q
ID                                       : 2
) I0 e9 J" i8 \6 O( j7 B8 }Format                                   : MLP FBA 16-ch
! n& M/ g( v5 v3 [" }% p8 C7 GFormat/Info                              : Meridian Lossless Packing FBA with 16-channel presentation' j* E! z* U4 [8 c
Commercial name                          : Dolby TrueHD with Dolby Atmos; j0 m/ S0 T6 C! ]% q- Q- ^7 @
Codec ID                                 : A_TRUEHD  R3 q. G/ i# f6 k
Duration                                 : 1 h 48 min* T) A$ O+ e! |5 O. e  J, X
Bit rate mode                            : Variable9 o( e) v6 S/ k6 n$ K; k) E
Bit rate                                 : 3 686 kb/s6 s4 \' n3 x1 c1 z  y$ A, L  D- o
Maximum bit rate                         : 6 912 kb/s
% y$ d; y; W: g4 ?+ fChannel(s)                               : 8 channels/ e) Z( V: a  }7 ]+ @
Channel layout                           : L R C LFE Ls Rs Lb Rb( V: `7 v$ _4 {
Sampling rate                            : 48.0 kHz/ b3 g4 M  u9 v5 ~/ ?) U3 `* `; P
Frame rate                               : 1 200.000 FPS (40 SPF)
& d+ Y# I+ @' G; V. K7 O  |Compression mode                         : Lossless
" ?- P$ ~+ Z' i- o5 vStream size                              : 2.80 GiB (7%)
9 b  s( h0 d6 O! \9 Q  oTitle                                    : Birds.of.Prey.And.the.Fantabulous.Emancipation.of.One.Harley.Quinn.2020.2160p.BluRaycd.x265.10bit.SDR.DTS-HD.MA.TrueHD.7.1.Atmos-SWTYBLZ
. T9 M8 G; x; RLanguage                                 : English) w0 i, |1 S4 u( S7 Y6 n, B! F2 {
Default                                  : Yes
9 @! G+ Z8 K/ l& C/ s3 {5 PForced                                   : No1 K  m* _' A. ~2 W9 @+ Y  [
Number of dynamic objects                : 155 \% Y1 M; q! Y6 e! D5 e0 I0 e
Bed channel count                        : 1 channel
! y) C) o- z% T3 O4 j' ?Bed channel configuration                : LFE
3 d) v: X, V: X3 k, {; S& f( y5 U2 j; J! P
Audio #27 x! [0 t" l/ `1 p$ A0 j, ?
ID                                       : 3
( V, `, P! }9 o7 }5 O) ^% iFormat                                   : DTS XLL5 ]' ^+ |  D- d, N+ J* Q1 X
Format/Info                              : Digital Theater Systems
$ {2 q3 |* _1 z7 XCommercial name                          : DTS-HD Master Audio( |+ t( F/ z8 z) b" ^6 z9 C
Codec ID                                 : A_DTS- j+ M; p; n  Q7 ^3 q0 e; S
Duration                                 : 1 h 48 min
+ E3 D+ J5 E- r% _8 ~/ \1 h! _; ^Bit rate mode                            : Variable
+ Z4 k" ?: j9 K0 L1 `0 y, x( [Bit rate                                 : 4 251 kb/s
3 V; W2 L& L  ~0 z5 V7 RChannel(s)                               : 8 channels9 ?2 A- U" Q% z" z
Channel layout                           : C L R LFE Lb Rb Lss Rss' m' J, g; L" |7 J/ U( H/ J; n
Sampling rate                            : 48.0 kHz
* a6 L* p! r7 s( d. w$ pFrame rate                               : 93.750 FPS (512 SPF)
) {9 y. v" n4 g  I- }Bit depth                                : 24 bits
9 ]  i9 Q* y, @/ k5 {; |Compression mode                         : Lossless
. r6 A' H2 e  X" O* D2 t* ?3 LStream size                              : 3.23 GiB (8%)
! e  k2 `: L& G  N1 T# y! uTitle                                    : Birds.of.Prey.And.the.Fantabulous.Emancipation.of.One.Harley.Quinn.2020.2160p.BluRaycd.x265.10bit.SDR.DTS-HD.MA.TrueHD.7.1.Atmos-SWTYBLZ+ }2 g0 C/ q( ]7 N) f+ H, e/ E4 u: w
Language                                 : English) z$ ]- ~! x# s& o
Default                                  : No* ]7 V7 {/ ?% r% a% `3 F, b/ i
Forced                                   : No
# T6 J/ M& h5 L7 [& H+ N& F, S
; a. a( ~6 E6 O( u0 Q& c8 Q, h( OAudio #3* v# B/ H7 f$ U: b7 j8 H* v
ID                                       : 4* O4 {0 p5 d+ f: j
Format                                   : AC-3
: n( h* E7 a; W+ ]Format/Info                              : Audio Coding 37 d8 ]7 \4 A) i8 ]- c% H% E. t
Commercial name                          : Dolby Digital
& k6 \. O+ k/ f2 x# g* lCodec ID                                 : A_AC3
, Q% J& u6 s/ ~$ F2 Z/ kDuration                                 : 1 h 48 min
3 L5 k8 c0 g' G5 o! R, o. JBit rate mode                            : Constant3 ]; \  k$ @! v/ B0 [$ o2 M
Bit rate                                 : 640 kb/s
/ C6 _/ j- d6 g# gChannel(s)                               : 6 channels# W" b0 t- [" n
Channel layout                           : L R C LFE Ls Rs+ \" @: |% W0 \" h
Sampling rate                            : 48.0 kHz5 d0 A0 P' b# q, v. `
Frame rate                               : 31.250 FPS (1536 SPF). N0 b' y9 D! w7 V* r. w* V3 `
Bit depth                                : 16 bits1 L( q  ]# f, Y
Compression mode                         : Lossy; y* d7 i: J; f+ G; O& m  s0 f
Stream size                              : 499 MiB (1%)1 x* }- b6 o7 M, K
Title                                    : Birds.of.Prey.And.the.Fantabulous.Emancipation.of.One.Harley.Quinn.2020.2160p.BluRaycd.x265.10bit.SDR.DTS-HD.MA.TrueHD.7.1.Atmos-SWTYBLZ
3 L* @1 t+ w& R  c: @! d- H' CLanguage                                 : English
" I9 |9 G; j, Y6 @; ]- j8 `Service kind                             : Complete Main9 J" E' e) r3 J8 `5 |
Default                                  : No& B$ F- g+ }9 _/ }% x! ^3 r
Forced                                   : No& @/ C% R; v' M7 _' e- G
5 f) b( i0 l1 U0 U+ `
Text #14 P- B# r; `1 H+ v/ t9 P. p: E6 B+ M
ID                                       : 5
0 k4 o) p' T/ ]+ s# M9 z/ V7 n8 uFormat                                   : UTF-8! p/ t+ I- e$ u) T( `: Y9 b
Codec ID                                 : S_TEXT/UTF8+ j  ^3 H" h% C3 N. l. H
Codec ID/Info                            : UTF-8 Plain Text( |8 |9 e/ a) H: b( @5 B
Duration                                 : 1 h 48 min
$ n" {9 h& ]& Q) FBit rate                                 : 60 b/s
3 t0 ]5 z# N' `* gCount of elements                        : 1677: ^8 U3 X$ z: V( ?0 p; ~1 k& \5 K
Stream size                              : 47.7 KiB (0%)
" g( T# D# ]/ q! ~' nTitle                                    : English-SRT
, [# ?# d& I) r' OLanguage                                 : English
( M0 _6 I( Q; j( L1 W6 s9 r; {Default                                  : Yes! w3 M" }2 e" {/ \4 N6 C
Forced                                   : No9 w" g4 ?3 ^* Y4 ?2 Z8 A( D9 _
6 p, J6 L0 L4 z
Text #24 b  J+ [% B& j2 x, `2 D' U
ID                                       : 6
3 s! U* ~' U; V2 n/ D; [2 CFormat                                   : PGS% C3 {- r! A" r7 T2 H8 I3 M* u2 \( m
Muxing mode                              : zlib
$ _" l, o* r& a) b7 L$ HCodec ID                                 : S_HDMV/PGS* R5 N9 y; k3 y1 k7 k
Codec ID/Info                            : Picture based subtitle format used on BDs/HD-DVDs: U: H6 s! S4 c0 u
Duration                                 : 1 h 48 min
4 n! g. l& T5 X+ C- {4 i1 _$ c3 bBit rate                                 : 43.7 kb/s' P' w$ c( b1 K
Count of elements                        : 3876
  e, o9 n' I( {7 j$ J. c4 _Stream size                              : 33.9 MiB (0%)
) D7 m) M7 @7 |1 ]3 nTitle                                    : English-PGS1 K8 _! R' G7 K; c9 [" k* Q
Language                                 : English
# K( m5 v  P, L+ p+ I  oDefault                                  : No
8 B# m' {- c$ i6 R: vForced                                   : No
3 |9 Q! h$ l2 ~6 V
# u: I7 D( \/ G: T( n" }7 RText #30 T4 o  u; n# O$ o
ID                                       : 7
/ Z5 w% J' t+ ]# D' ~& JFormat                                   : PGS
8 w& R) l- y) C% }/ X" SMuxing mode                              : zlib
+ g4 D8 z2 L* |# U4 XCodec ID                                 : S_HDMV/PGS
# Z$ v/ i. v/ G* U, v$ ]6 MCodec ID/Info                            : Picture based subtitle format used on BDs/HD-DVDs
$ s4 i& a2 K/ n' X& W( GDuration                                 : 1 h 48 min
3 q+ R7 O1 E& ]! d; b% sBit rate                                 : 18.4 kb/s/ I! S) H7 o( G- B* d: h. q
Count of elements                        : 3012- ~  K- u, F2 k" G' l7 y
Stream size                              : 14.2 MiB (0%)
. ?5 d, h; ^- QTitle                                    : Arabic-PGS- s2 l; W- x. H) |$ Z9 _' E
Language                                 : Arabic, Q5 m; C! Z* Z/ r" @( h
Default                                  : No
! K  B+ x6 X+ r- G6 x5 _Forced                                   : No1 e; w! q; f- ~: g5 I2 N
9 ^: f# P- T. b$ L% o- t7 L3 T0 u
Text #4; z/ b- a3 L* a; ?& P% L4 e( s* \2 v
ID                                       : 8
0 N; _4 P" y) `Format                                   : PGS* H8 Y8 z/ O3 U; Y
Muxing mode                              : zlib
' u$ e4 Y6 j: ~Codec ID                                 : S_HDMV/PGS* @, ^5 k. a; Y" ~- v! i& n
Codec ID/Info                            : Picture based subtitle format used on BDs/HD-DVDs
7 a/ L$ L7 b: w% o7 wDuration                                 : 1 h 48 min
; I! {; {4 A( _% B* qBit rate                                 : 28.5 kb/s
/ Z. K: m: v; t3 F0 ~Count of elements                        : 2926/ K/ L8 D1 m) L, [, K5 V) ]  _, N+ U
Stream size                              : 22.1 MiB (0%)
' ~; m+ n6 N8 b1 |% h1 [" nTitle                                    : Chinese-PGS% r- b8 Q/ b4 @6 K8 h# S2 Z2 [& P
Language                                 : Chinese0 B4 Q. ]7 z5 N7 m+ K
Default                                  : No
5 Y: R% S* Y7 a1 H) ?  b9 c9 [Forced                                   : No, M9 @# Z% R' h- j! @* _6 I: Z
( B6 u; v0 P! ]! }  E% l$ A" t
Text #5. t( Y* q8 ]* ]# L) V
ID                                       : 9$ b4 n) Q9 J- x. h- ~' r3 I9 A
Format                                   : PGS
% Q! e8 }( J" RMuxing mode                              : zlib
# @4 t/ H4 i( }+ `9 XCodec ID                                 : S_HDMV/PGS
; J* A  h4 w1 N$ @, GCodec ID/Info                            : Picture based subtitle format used on BDs/HD-DVDs9 ]: J. G" ?! e6 O4 x* O# T
Duration                                 : 1 h 48 min
$ W0 {! Y4 m4 ?1 w" s* ABit rate                                 : 28.4 kb/s
" _/ x* n" N' f6 a  _Count of elements                        : 2786
* t! d. ?4 [4 t% N3 b0 ?& T1 tStream size                              : 22.0 MiB (0%). l6 o6 a- H2 {3 ?) G! c) N; t* ?+ \" f* J
Title                                    : Chinese-PGS6 s9 }* L3 P( M" y
Language                                 : Chinese
8 p$ }4 s$ w# i# c: C; k; j4 v/ @Default                                  : No4 o' o, Z" _; |" H
Forced                                   : No1 p0 ]7 J* w5 d# y5 S" D

. u: F! X: ?% hText #6
( ]6 n0 J$ ]; D4 [ID                                       : 109 y* k! @2 F# o8 B/ P
Format                                   : PGS7 ]' V2 B; z/ S8 E$ U, n1 i
Muxing mode                              : zlib
! f! F; s- W( b. q$ jCodec ID                                 : S_HDMV/PGS5 s" _- N+ ^' R1 j
Codec ID/Info                            : Picture based subtitle format used on BDs/HD-DVDs
: W7 W4 P3 R: D% J  N1 Q4 BDuration                                 : 1 h 48 min
! N0 ^6 B3 [9 ^& ^Bit rate                                 : 29.5 kb/s0 S% B* K0 ^- Y% |  ~) C: @/ w: ^
Count of elements                        : 2922% `& z9 a0 |! i1 m6 f* i5 y* M$ r
Stream size                              : 22.9 MiB (0%)3 x# s- E2 @8 E! w( q) v2 x
Title                                    : Czech-PGS
( Y4 C+ ]! i, ]  L" fLanguage                                 : Czech% T  c0 i" L8 y+ q$ v2 j. x1 l
Default                                  : No
7 E, a4 ?4 R$ a' mForced                                   : No
! Q# S) p+ x8 d# C) Q% l1 `( e! [3 O9 p- u
Text #7
/ P- I9 i# Q6 `' I; @/ s$ e$ IID                                       : 112 A/ \) j7 d5 S* ?! l# Q/ K: U
Format                                   : PGS' o6 S3 H/ y/ Y6 ^7 A5 m
Muxing mode                              : zlib5 W/ k% t  y1 V+ F/ \9 P+ x; i$ v
Codec ID                                 : S_HDMV/PGS
' ]4 P% M3 A6 z  oCodec ID/Info                            : Picture based subtitle format used on BDs/HD-DVDs- |4 Y7 a; {. ]0 D% M( A, t, E
Duration                                 : 1 h 48 min+ ?6 k6 ?5 h4 O2 z
Bit rate                                 : 27.3 kb/s! b% C" y* O" M/ ?
Count of elements                        : 2854
: U+ W( A' o* o1 e. ~Stream size                              : 21.2 MiB (0%)# m3 U, |  C$ B+ R
Title                                    : French-PGS
0 [& j) s' j* S6 _+ U/ V3 y. JLanguage                                 : French9 z( L, ]' X# F4 G  b& t6 R& u
Default                                  : No9 \" S+ s9 b1 [7 D
Forced                                   : No
! w, j; f: G! ]# l
5 b: d6 d3 Z- pText #8
8 }* p" W% F! n# b7 s( UID                                       : 12
3 L+ }& V& k' Z5 hFormat                                   : PGS; |3 u5 ]4 F; K$ S) s5 V
Muxing mode                              : zlib4 u2 u5 s9 }2 C3 y& @# ]: N! y; d
Codec ID                                 : S_HDMV/PGS" Y' D8 F: S) _/ F0 P$ O
Codec ID/Info                            : Picture based subtitle format used on BDs/HD-DVDs
! L0 d7 [" X: x: m! XDuration                                 : 1 h 48 min& I& H; R) [  r9 E1 j/ Y0 |% F
Bit rate                                 : 18.4 kb/s+ S9 A% e! F+ w/ [
Count of elements                        : 2848
7 [6 i- X: g* N' o1 S1 `& \. ?# C* WStream size                              : 14.3 MiB (0%)' k! c/ k# Q; r5 C+ V
Title                                    : Korean-PGS
% T+ [/ h- ?! G$ \( [" I8 G  `Language                                 : Korean
4 U/ H; N& [* [7 S1 Q* o$ ADefault                                  : No" w9 O  s1 E- B, f, p6 U
Forced                                   : No
2 K4 Q7 P  B* r& s( o8 S. r5 g9 {- t" b* D1 B# h) b
Text #9/ j% N! a3 u- z+ h/ o/ O
ID                                       : 13
9 x9 I' f, p8 i* kFormat                                   : PGS7 c& [. v; [; j
Muxing mode                              : zlib' ^& y( [3 @8 {1 a6 k. d2 L
Codec ID                                 : S_HDMV/PGS9 `# m; B. x6 k! w$ m3 _0 `* l
Codec ID/Info                            : Picture based subtitle format used on BDs/HD-DVDs9 X* [. Y" m% `: C, y8 M
Duration                                 : 1 h 48 min
: ^! m+ B, V/ ^, zBit rate                                 : 27.6 kb/s
" R( R2 Q# l  b$ L' {Count of elements                        : 2772" _" W. Z& l$ t
Stream size                              : 21.3 MiB (0%)! J. M% Y  M) |7 R4 K! ^
Title                                    : Polish-PGS, C1 [6 v% c- Q  R1 W
Language                                 : Polish
- N- h: Z  X: B: t" VDefault                                  : No  c9 I" G$ j: ^/ T! o1 d
Forced                                   : No
0 p; }# z7 c& o  }; Z# ~
6 ~4 l7 ?: z9 F8 R( i, Z7 IText #10
4 K% Q# D# l( [1 C' G9 L/ QID                                       : 147 V' @" x) V' j/ Y3 _/ g
Format                                   : PGS
* C- n/ J" @  |+ i, Y3 u* }) _# DMuxing mode                              : zlib+ s% o' [& J% o3 ^/ P3 _; P- j8 T! _
Codec ID                                 : S_HDMV/PGS2 Z, L/ e5 d, k6 f1 S
Codec ID/Info                            : Picture based subtitle format used on BDs/HD-DVDs
9 _, {, Z' ~. @+ z2 t1 oDuration                                 : 1 h 48 min' `. B+ D8 z/ U
Bit rate                                 : 31.6 kb/s
* Q5 L. a" g& Q- H. x$ c0 Y" nCount of elements                        : 2914
6 C+ i, }7 t; v: P7 M6 rStream size                              : 24.5 MiB (0%)- M) X! U4 I3 z/ W2 p, k
Title                                    : Portuguese-PGS1 }$ U! G$ m; m3 Y/ `; l8 l* i
Language                                 : Portuguese( Z( ^) q& l9 ~/ Y2 ^; y; s! j- g
Default                                  : No1 w1 s6 ~+ M2 Y- t6 j$ ^8 f3 |" @
Forced                                   : No/ V/ d/ s1 ~9 v9 m% a" I

* o) n, p: K" o2 ]' LText #11
7 J8 _* o. w  [1 l5 @2 yID                                       : 154 V% l9 u  C+ V0 c) a6 }
Format                                   : PGS
! t7 |4 b$ j; Y, sMuxing mode                              : zlib
7 b# G0 ~2 E: Y: RCodec ID                                 : S_HDMV/PGS: ^8 W$ C& `3 C+ c$ T- L5 h
Codec ID/Info                            : Picture based subtitle format used on BDs/HD-DVDs
) o5 u$ H0 o4 t; x; b6 j2 mDuration                                 : 1 h 48 min
% s8 f0 {2 Q) k( X7 j* L1 U( f. NBit rate                                 : 32.8 kb/s
+ w. s, M6 H) U" iCount of elements                        : 2926; q; n1 P4 z$ T+ L
Stream size                              : 25.4 MiB (0%)& P% n7 J* ?" i
Title                                    : Spanish-PGS
" a! b& h3 L7 |+ p% TLanguage                                 : Spanish  Z$ a5 Q  [' |" K2 e$ q) T
Default                                  : No% P4 {0 B- a+ g7 L2 ]/ O/ S# Z
Forced                                   : No. _7 a; v. F7 S. n4 H

. I, o) T2 K6 H( \) q: JMenu0 s" E1 e) {( a+ @
00:00:00.000                             : en:Chapter 1
9 @9 d2 D5 e* n; G# |7 ]* U% f/ N00:08:08.446                             : en:Chapter 2- V( e) |5 t" k
00:17:53.739                             : en:Chapter 3. M& _- t: W; @% X0 s( I. O
00:27:11.839                             : en:Chapter 4
8 f5 ]( f4 ^; n( P" f& l2 t00:35:40.805                             : en:Chapter 5
* i/ s" K( Z8 r, N3 X% Z00:44:48.352                             : en:Chapter 6* |9 W* `8 v8 Z4 f' [. F
00:53:43.387                             : en:Chapter 72 f! m- k7 C4 k* m9 t& P
01:01:15.547                             : en:Chapter 83 F# G& C' L: b5 t8 R( ~
01:10:55.960                             : en:Chapter 9
; D* Y  v& ^$ Y' N6 L' n01:19:06.492                             : en:Chapter 10  `1 z* J1 p/ N' X8 `
01:24:28.146                             : en:Chapter 11& c  \& O7 Q% `: V' S* T8 Y1 c
01:34:27.996                             : en:Chapter 12& _4 s) P) n  C2 }4 C
01:41:26.998                             : en:Chapter 13
* S, L% f7 G& r; |, f$ J
SWEATY BALLZ presents
1 p6 p4 u& O* N# S# t, Z: T
4 k: s, ^3 E; R0 \$ `Birds.of.Prey.And.the.Fantabulous.Emancipation.of.One.Harley.Quinn.2020.2160p.BluRaycd.x264.8bit.SDR.DTS-HD.MA.TrueHD.7.1.Atmos-SWTYBLZ
. D: S4 q5 T7 Z9 {4 YConverted from 10 bit HDR to 8 bit SDR using tripple mixed Hable-Reinhard-JJ per scene+frame analysis algorithm
* r5 E4 l6 P6 H  q
. ]9 t4 C; `6 m; ?; y* O8 MVideo
. X% s' K- [* `+ Y0 E7 V5 ~ID                                       : 1) z; {0 r% T: Y" o$ M
Format                                   : AVC
4 Y5 `" b/ v3 `4 T' \Format/Info                              : Advanced Video Codec4 o' K0 w8 O/ h) k) F
Format profile                           : High@L5.1* b( ]2 u" v. u* E  K
Format settings                          : CABAC / 5 Ref Frames+ i3 h6 i' ?+ E( }  r# k7 N& g
Format settings, CABAC                   : Yes
5 {1 w% `) i- G9 V' A( B, yFormat settings, Reference frames        : 5 frames% H. v0 |) p+ X1 A9 C: q! B3 e
Codec ID                                 : V_MPEG4/ISO/AVC1 X3 O& D  i! l7 @$ ~! a9 T
Duration                                 : 1 h 48 min- z* L$ _! y( `- @7 I: a- X+ o0 i. e2 P
Bit rate                                 : 44.8 Mb/s# a5 ?9 O$ m( O5 Y5 _0 u) v
Width                                    : 3 840 pixels
/ V* B6 O8 Q8 }$ DHeight                                   : 1 608 pixels9 D- m, E0 v! j4 m0 ]2 O6 N
Display aspect ratio                     : 2.40:1
2 `4 j6 y2 J& M- `Frame rate mode                          : Constant& L: {' p1 a$ C. D
Frame rate                               : 23.976 (24000/1001/11208/37687) FPS
; ^2 F5 G3 O+ _1 q7 u6 CColor space                              : YUV( W7 M* G& A2 k% i& z  k
Chroma subsampling                       : 4:2:0
, _! s8 ^4 X( ~9 B" g/ cBit depth                                : 8 bits
% C" N; S0 L0 f3 W7 uScan type                                : Progressive
' b3 T1 j7 Z6 w2 {) V: j! V, NBits/(Pixel*Frame)                       : 0.302- J$ W! H* Q2 c# w" v* S1 a
Stream size                              : 34.0 GiB (84%)
( b8 m- l9 j  E4 E  rTitle                                    : Birds.of.Prey.And.the.Fantabulous.Emancipation.of.One.Harley.Quinn.2020.2160p.BluRaycd.x264.8bit.SDR.DTS-HD.MA.TrueHD.7.1.Atmos-SWTYBLZ
" z7 L8 M$ i2 J: G' {Writing library                          : x264 core 157 r2935 545de2f
! r. A6 s$ j5 j8 b, ^5 rEncoding settings                        : cabac=1 / ref=5 / deblock=1:-1:-1 / analyse=0x3:0x113 / me=umh / subme=10 / psy=1 / psy_rd=1.00:0.15 / mixed_ref=1 / me_range=48 / chroma_me=1 / trellis=2 / 8x8dct=1 / cqm=0 / deadzone=21,11 / fast_pskip=1 / chroma_qp_offset=-3 / threads=48 / lookahead_threads=4 / sliced_threads=0 / nr=0 / decimate=0 / interlaced=0 / bluray_compat=0 / constrained_intra=0 / bframes=3 / b_pyramid=2 / b_adapt=2 / b_bias=0 / direct=3 / weightb=1 / open_gop=0 / weightp=2 / keyint=250 / keyint_min=23 / scenecut=40 / intra_refresh=0 / rc_lookahead=50 / rc=crf / mbtree=1 / crf=18.0 / qcomp=0.60 / qpmin=0 / qpmax=69 / qpstep=4 / ip_ratio=1.40 / aq=1:1.00
1 @& Z% ?! Y9 J8 Z  Y. g6 {' t. jDefault                                  : Yes/ c! a5 m8 k' i9 M, |5 I% r
Forced                                   : No
3 h- r* c( g" N( T0 a8 \( H; m1 T+ i" u. R- Z" i
Audio #15 c& d& j# Q3 A6 e: n6 e% e) t
ID                                       : 2: \7 f( V7 Y' c8 R
Format                                   : MLP FBA 16-ch" M+ p/ Z. q# ?7 h- [
Format/Info                              : Meridian Lossless Packing FBA with 16-channel presentation# Z, |# l0 i$ Q4 G+ {& c! P
Commercial name                          : Dolby TrueHD with Dolby Atmos
; K/ c- R9 a* c8 ICodec ID                                 : A_TRUEHD
/ X, Y( D. J: Q; t3 vDuration                                 : 1 h 48 min/ y$ n* V6 _2 t5 \: e' K
Bit rate mode                            : Variable
; l$ a, `2 J2 I  ?: KBit rate                                 : 3 686 kb/s
  |" g+ U7 o  O( N5 F( bMaximum bit rate                         : 6 912 kb/s
9 m& ]  e  _) m5 T9 nChannel(s)                               : 8 channels' g2 w" Y- T# E4 W
Channel layout                           : L R C LFE Ls Rs Lb Rb% ]' o2 ]9 r- `0 O; q4 R
Sampling rate                            : 48.0 kHz3 Y8 Q/ C9 o2 n3 s# q, A
Frame rate                               : 1 200.000 FPS (40 SPF)7 R, o, z- a% @8 C( N$ n& U
Compression mode                         : Lossless
3 b" H, u( {3 C* H, ~Stream size                              : 2.80 GiB (7%)& ~( L3 h. V6 V
Title                                    : Birds.of.Prey.And.the.Fantabulous.Emancipation.of.One.Harley.Quinn.2020.2160p.BluRaycd.x264.8bit.SDR.DTS-HD.MA.TrueHD.7.1.Atmos-SWTYBLZ: o" E9 A" E% c: E  B- i
Language                                 : English
2 q6 H4 h) N& D$ L. s! [' C& v' DDefault                                  : Yes( x" s8 n# [: j+ r. t" S! {
Forced                                   : No
6 a. n" _8 x* w8 w& F3 T! r" bNumber of dynamic objects                : 15
0 L2 x# I, A+ n1 A% q, |/ y5 |7 @2 _Bed channel count                        : 1 channel  a5 ]4 C0 A' T: {
Bed channel configuration                : LFE
0 Y$ s% r" v, i- j% b
9 k# r) E) ~: F& [) hAudio #2
, C" l( e8 ^/ EID                                       : 3
4 z* B' ~9 l/ U5 s( }2 x. MFormat                                   : DTS XLL7 [+ K' H9 t$ [
Format/Info                              : Digital Theater Systems
7 t2 C1 N# v+ [' r/ |. j. JCommercial name                          : DTS-HD Master Audio4 L+ o2 c$ Y- w) S) B/ b2 o! U, m$ v
Codec ID                                 : A_DTS1 F" ~, w/ _8 v( R, h
Duration                                 : 1 h 48 min
5 u3 a* z: l4 x9 s* F) S& s  n. BBit rate mode                            : Variable4 I0 w# N1 P# M) K1 j
Bit rate                                 : 4 251 kb/s7 z! ^5 I: u- k7 Y3 `  H
Channel(s)                               : 8 channels- G; \5 K6 Y; @( k# I% R
Channel layout                           : C L R LFE Lb Rb Lss Rss
( k8 `+ h9 {) j* n' J; A3 f+ rSampling rate                            : 48.0 kHz% D2 g1 G* y& |% Z; P" R2 n/ S' G8 C
Frame rate                               : 93.750 FPS (512 SPF)# K8 a0 ?, u) `6 V; u$ ]# m
Bit depth                                : 24 bits8 }- }& X3 N" P2 n: }( V9 U
Compression mode                         : Lossless# Q" Q7 G0 O$ b; T8 f: [
Stream size                              : 3.23 GiB (8%)
' P# Q6 g0 X% ~4 ?# ?$ fTitle                                    : Birds.of.Prey.And.the.Fantabulous.Emancipation.of.One.Harley.Quinn.2020.2160p.BluRaycd.x264.8bit.SDR.DTS-HD.MA.TrueHD.7.1.Atmos-SWTYBLZ
  X& Z8 l5 _; I/ iLanguage                                 : English9 s) v) W, G2 \  [
Default                                  : No
$ W8 @; J/ @' }, Y+ u3 Q" X4 }1 lForced                                   : No
5 m! t  E# \% W2 a! X/ Y' V& v" N
Audio #3! J$ _3 C: l2 Z( c" Z8 d
ID                                       : 4
1 U, A0 r' J9 a$ F  yFormat                                   : AC-3
& ^, C. i  H* }- }. OFormat/Info                              : Audio Coding 3
: F* b) w, S8 F6 h4 [Commercial name                          : Dolby Digital
1 Z. V& [" O" DCodec ID                                 : A_AC3
' R, ^4 f1 S3 P2 oDuration                                 : 1 h 48 min
* c$ I, K: y' A! `Bit rate mode                            : Constant
% x5 t8 j4 m( Q' i% PBit rate                                 : 640 kb/s
+ c& p6 O+ F' C4 m) TChannel(s)                               : 6 channels
8 v2 d  S; e$ ]% C& Y1 DChannel layout                           : L R C LFE Ls Rs2 H3 i3 U9 h% t$ S+ U
Sampling rate                            : 48.0 kHz
# M% \8 C$ H1 l1 C+ b2 Y0 [" o+ HFrame rate                               : 31.250 FPS (1536 SPF)4 A$ O$ @4 [7 i8 E
Bit depth                                : 16 bits
+ k3 C% e" k6 A* k' TCompression mode                         : Lossy
) B! ?, _  j7 p  v9 jStream size                              : 499 MiB (1%)
' n  U+ ~8 `9 p- \2 Z, I) hTitle                                    : Birds.of.Prey.And.the.Fantabulous.Emancipation.of.One.Harley.Quinn.2020.2160p.BluRaycd.x264.8bit.SDR.DTS-HD.MA.TrueHD.7.1.Atmos-SWTYBLZ
' X+ W! _0 l0 P4 M9 xLanguage                                 : English
+ [( b: p1 U5 `* X- j; mService kind                             : Complete Main
+ H; [" f4 j3 \Default                                  : No
% l, }3 @; E7 @Forced                                   : No
, B3 X! B* A6 Y; R3 e* {1 H2 }0 x4 s5 N
Text #1
; l* `* `; U: a8 l5 bID                                       : 5) X5 Z. p6 l- X# u+ f  T; i
Format                                   : UTF-8# T$ Z  Q3 b5 |, r  b5 j4 }1 c
Codec ID                                 : S_TEXT/UTF8
  y, f6 ?$ }& R/ E2 LCodec ID/Info                            : UTF-8 Plain Text5 L' V& n6 E& v5 T" e+ V2 K
Duration                                 : 1 h 48 min
' y# P& q1 H4 ^& }Bit rate                                 : 60 b/s
7 @, }: S" s! [Count of elements                        : 1677
. j9 v" e( D) v; c6 h; q5 q. jStream size                              : 47.7 KiB (0%)0 S1 i. G2 m! V" _
Title                                    : English-SRT8 ^6 d1 c2 R5 x1 g
Language                                 : English
) t4 b3 {0 e3 |) ^7 BDefault                                  : Yes7 ~# ?! j* o) p# R# ]& D
Forced                                   : No1 h9 E" f. @  D& e) K9 ^9 }/ x
, L+ W2 D+ o1 B. L6 I9 I4 Q
Text #2" W$ X) z9 e2 r
ID                                       : 66 n( Q$ P4 M" _8 d- ~8 E' A
Format                                   : PGS
1 k6 a! {# w2 U) u8 {9 nMuxing mode                              : zlib
) s8 T5 K" t+ r0 C0 i" r9 RCodec ID                                 : S_HDMV/PGS" O1 G" U) z0 v$ {; w
Codec ID/Info                            : Picture based subtitle format used on BDs/HD-DVDs
/ v5 |# d% g1 E  c0 \, D: I+ aDuration                                 : 1 h 48 min
8 ]  |. Q# `+ o. P  F; c6 e- E7 gBit rate                                 : 43.7 kb/s( u3 r8 B* S/ d' h+ x* j$ E* U- `
Count of elements                        : 38769 r: B% P4 G9 `6 {
Stream size                              : 33.9 MiB (0%)
5 }- _; G) P: K/ M' R, g  YTitle                                    : English-PGS* h; w" G$ i6 a  M* Z
Language                                 : English/ K* M# o* E. x3 Y
Default                                  : No/ }7 H' k& T' s6 Q% j, {% @# {! T
Forced                                   : No. X7 |! m8 B5 M
- [! t; p! Q5 a
Text #3
9 M( B" V/ I9 d/ R" xID                                       : 7( n2 A% L4 f& l% N/ {4 w
Format                                   : PGS
/ z6 `- N& m7 ^. s7 |9 RMuxing mode                              : zlib
; l3 F2 S1 I. [% x) HCodec ID                                 : S_HDMV/PGS1 b- e( @' ], k- o
Codec ID/Info                            : Picture based subtitle format used on BDs/HD-DVDs- \7 z9 R" F3 F
Duration                                 : 1 h 48 min
  w( G( @' r1 R: FBit rate                                 : 18.4 kb/s
4 U. ?, Q& v9 m9 o( i$ b, A/ b7 n, }Count of elements                        : 3012
6 R# m2 c% H6 O9 d+ O5 uStream size                              : 14.2 MiB (0%)+ N: Q( b1 ^6 B& ?1 m4 T/ j
Title                                    : Arabic-PGS& p, r. {: u. a
Language                                 : Arabic2 N) @9 h# O& @: p
Default                                  : No- p; T/ C' M) a) y
Forced                                   : No& S. z6 }( n! x6 t# @6 Y) @/ ~2 l

3 C1 p- x& Q+ ~2 T4 l5 W# _Text #4
1 x# x4 U+ z! f5 V, t* H0 q! {ID                                       : 8
9 g& y3 ], C8 K6 y# yFormat                                   : PGS
/ U# \! l/ r) P/ O- u1 EMuxing mode                              : zlib
* M; R' Z0 m* x7 bCodec ID                                 : S_HDMV/PGS
5 ?9 D; I" Q2 r/ ZCodec ID/Info                            : Picture based subtitle format used on BDs/HD-DVDs; k, `3 N$ d7 D. j
Duration                                 : 1 h 48 min
$ ]" q9 Y7 S4 P8 WBit rate                                 : 28.5 kb/s, x& O) E' ^6 s0 P
Count of elements                        : 2926
5 v, {: j# G0 G5 Z: \6 c& lStream size                              : 22.1 MiB (0%)
" p* H3 K8 x- L+ M' X, lTitle                                    : Chinese-PGS
( O; I5 H% @! D6 E7 X$ t. c$ j" XLanguage                                 : Chinese
' i4 T/ H" G) B, f$ E% KDefault                                  : No: J4 {3 U: P. i  K1 Z5 Q' p
Forced                                   : No
( ?4 u. B9 b' @. g! N8 }  z7 J& u4 d3 B* \( T7 f$ ?( A
Text #5
) y5 P% @+ t- H, x# }ID                                       : 9: q( I# A& Y1 ]9 f) J
Format                                   : PGS2 V( ^; G/ A3 h4 S( ]0 C: V
Muxing mode                              : zlib& I8 }4 g; M' Q/ _7 P! T
Codec ID                                 : S_HDMV/PGS: }# V" Z" p1 _4 s; {$ Z# r1 z! X
Codec ID/Info                            : Picture based subtitle format used on BDs/HD-DVDs
; \- B+ ^0 b9 t. _3 T; W. NDuration                                 : 1 h 48 min; e- G! c  {5 v
Bit rate                                 : 28.4 kb/s2 E5 @/ d: U0 ~+ T; w( u; z- J- r
Count of elements                        : 2786
% i. }, I/ R; ~$ T2 t* T6 MStream size                              : 22.0 MiB (0%)
3 M7 a7 [# Q8 @) G. xTitle                                    : Chinese-PGS" s$ V* L9 c+ I+ F. }1 y$ i
Language                                 : Chinese
1 U$ G5 t9 u9 a+ ~# g9 D5 `Default                                  : No
/ h$ p7 l4 D+ gForced                                   : No! G% T: x& s9 c7 o/ X+ E+ ]
! ~6 p! _" h( q" {  i2 ?
Text #6
) A7 T4 P) w7 |9 VID                                       : 10' k, u. A! g; a: C( ~! m
Format                                   : PGS
: i4 \1 c0 u: I7 s6 O& cMuxing mode                              : zlib
+ B( C) i" W! d, ^. WCodec ID                                 : S_HDMV/PGS
7 N! |9 A5 L! Z+ k( @Codec ID/Info                            : Picture based subtitle format used on BDs/HD-DVDs: ?5 G6 F9 X3 T2 m1 Y
Duration                                 : 1 h 48 min
+ {# B3 [1 S* o) p0 UBit rate                                 : 29.5 kb/s
$ E3 D3 e$ ?9 P: L( u* V5 lCount of elements                        : 2922
) d4 ?" I4 ]; I2 e7 CStream size                              : 22.9 MiB (0%), j: U6 E9 F9 U
Title                                    : Czech-PGS
* M. G+ \8 C! H7 SLanguage                                 : Czech
; ]* p) D% }6 ?# `' A# pDefault                                  : No
. h! I* v8 q9 f2 }: _8 M1 s- gForced                                   : No
7 ^8 l9 k  I/ f" M
9 z, j" H+ s. F' F, b1 T( }Text #7
5 x) j8 a5 ^$ \5 S5 e: l1 ^. H: U# CID                                       : 11
& j/ s5 d0 u8 M# z7 N+ S* L8 ^( NFormat                                   : PGS" ~) D+ o! s9 K4 a# \( d7 V
Muxing mode                              : zlib0 n+ `$ O( W. ~6 y
Codec ID                                 : S_HDMV/PGS5 Y( P+ x' M$ v
Codec ID/Info                            : Picture based subtitle format used on BDs/HD-DVDs  g: a& W- b( c; z
Duration                                 : 1 h 48 min5 z9 |+ F& w- P! I/ y3 v" Q
Bit rate                                 : 27.3 kb/s
. S" S5 u, p# g% `Count of elements                        : 2854
; n9 r" ?' }( s) k0 yStream size                              : 21.2 MiB (0%)
; G1 Q3 I- F: [2 }, Y. p/ X, E& ^1 r( FTitle                                    : French-PGS
$ w8 c! c' l" O6 g% x% fLanguage                                 : French
7 M$ r8 g( J( ?! e% vDefault                                  : No
; [$ b, U( ]( mForced                                   : No
" j- G1 ~9 C) {: _- U7 L$ C3 B  ^' C& i8 v, V0 U" u& ^
Text #8
* g+ L9 x% i6 y5 o5 b4 kID                                       : 12
$ ^. P, b$ {: }, N3 jFormat                                   : PGS
5 A) ~5 E0 c; ?% e3 GMuxing mode                              : zlib' ^( h6 A0 R! ?9 d$ k/ Q
Codec ID                                 : S_HDMV/PGS: v; \3 q# [0 _( h
Codec ID/Info                            : Picture based subtitle format used on BDs/HD-DVDs
) k/ M3 D& i5 @# Z6 R; ?Duration                                 : 1 h 48 min- \6 M' _$ p1 w' {/ Y' b% m) I% a
Bit rate                                 : 18.4 kb/s
; Z5 j9 D; ?& w. d7 @' W" c' ?- iCount of elements                        : 2848+ A  q4 s2 }" l! R; ^: B9 Y- Z
Stream size                              : 14.3 MiB (0%)
) {" \- m7 g3 t+ F8 l0 j# u4 zTitle                                    : Korean-PGS# w  ~4 A, J" U% d' r
Language                                 : Korean
; z# c* [; ^. r6 W3 e' |Default                                  : No
5 Z4 E9 q- @5 v6 u" SForced                                   : No
# g0 e9 i2 L+ k( M; w
) U+ U) F& F; F: [6 L. S/ ]9 HText #9) p: F# Q& g: F" X& X' U
ID                                       : 13) e  b2 C! V  ?7 c1 ^
Format                                   : PGS
" Z4 t9 h1 J7 s. oMuxing mode                              : zlib
( s# z7 x! Y! T( a% I, sCodec ID                                 : S_HDMV/PGS! @( W0 j% c3 |+ Y
Codec ID/Info                            : Picture based subtitle format used on BDs/HD-DVDs
% K* B$ u( V9 ^+ P# c7 bDuration                                 : 1 h 48 min' d0 B6 R7 K/ `8 X0 `& C8 l( F) W
Bit rate                                 : 27.6 kb/s
4 u5 ~3 M& ^$ p8 s: t; lCount of elements                        : 27726 {% ^$ R. h% X
Stream size                              : 21.3 MiB (0%)
3 u; e+ z, G# Q6 q' dTitle                                    : Polish-PGS1 a# P9 ?& t! L; n8 _3 z' Z
Language                                 : Polish6 M8 \" ], K! }, B4 N
Default                                  : No% Q. Q  B9 |- Y. j7 t; s2 ]: e
Forced                                   : No3 _7 L2 g$ Y7 M3 n3 w

" C# z0 r. j3 @, H" jText #104 a# s& f2 {5 J) K/ N, y
ID                                       : 14( v  |# J1 |  X0 S( R
Format                                   : PGS
8 i; N: _3 ]$ @9 {( pMuxing mode                              : zlib
9 [# Z- K; c6 D* xCodec ID                                 : S_HDMV/PGS+ M( _' {! V4 e) a
Codec ID/Info                            : Picture based subtitle format used on BDs/HD-DVDs
* h  l; [4 b+ M- b) cDuration                                 : 1 h 48 min9 k. P$ p7 P: N2 v; {; Q
Bit rate                                 : 31.6 kb/s
  _$ R5 I- x1 O4 o! `. Y0 @# {Count of elements                        : 2914
, Z! u, L: |0 f% g  @) T, tStream size                              : 24.5 MiB (0%)
# @, q& L$ E6 o: iTitle                                    : Portuguese-PGS1 }* O* t# @/ K/ w. z+ p
Language                                 : Portuguese
8 \7 u& s" r/ Q" v- z9 DDefault                                  : No
' G% q) b# U! N  Z. E) YForced                                   : No
. x0 [9 l# Z$ e. [# D
- C0 u' d/ F/ F/ v( nText #11  r0 P4 r* k2 P! C2 p
ID                                       : 15! a" w- G: G' _, j, A
Format                                   : PGS
/ i1 W: C% J$ Q( WMuxing mode                              : zlib
+ p2 ?3 c: u, b7 m: E: FCodec ID                                 : S_HDMV/PGS
, I8 V' o: q7 oCodec ID/Info                            : Picture based subtitle format used on BDs/HD-DVDs3 [% e8 G/ g3 t, ^! p, x
Duration                                 : 1 h 48 min' y, Q. u& F$ t, N
Bit rate                                 : 32.8 kb/s
* I2 }% Z" l' T% ?/ t) D) LCount of elements                        : 2926" k/ Q" F, d  a9 q3 Z/ `0 N
Stream size                              : 25.4 MiB (0%)9 S5 `2 X1 v( z2 y* q; o# G
Title                                    : Spanish-PGS
$ j5 z8 R- z7 \, p* f$ l- KLanguage                                 : Spanish
) h, S4 j; r' t$ A* zDefault                                  : No
2 X6 }9 n) C/ X. G0 XForced                                   : No6 R# R, h+ j8 A3 `% T
' U" a+ Z: X8 g) n$ L+ B2 x* [
Menu
" i* z$ V4 o* L  Z7 A( z  B! y00:00:00.000                             : en:Chapter 1
* x( a( ]  q2 z00:08:08.446                             : en:Chapter 28 T5 W" V: m- F( L0 x* D
00:17:53.739                             : en:Chapter 3* F0 ^% _4 U6 j9 [
00:27:11.839                             : en:Chapter 4+ ~) d8 V! u, ^  d; U& b+ S
00:35:40.805                             : en:Chapter 57 D5 O2 i  L: j# ]' A
00:44:48.352                             : en:Chapter 6; e( s- g- ^5 D; ~* T
00:53:43.387                             : en:Chapter 7' s# x' J' ?4 g0 {9 a" Z
01:01:15.547                             : en:Chapter 8! e1 k. \6 h) Q1 r2 n+ c5 C8 h
01:10:55.960                             : en:Chapter 9
% Q& ~  s+ m) K: P5 e0 H0 U! |# B01:19:06.492                             : en:Chapter 10
# s; A% G1 z8 X01:24:28.146                             : en:Chapter 116 c) @7 e$ A6 d% z  R" I, L# U& {
01:34:27.996                             : en:Chapter 12$ E4 G+ M: O- F4 B' \
01:41:26.998                             : en:Chapter 13

, d( ~; Q  T- ?9 L
游客,查看本帖隐藏内容请回复 | 加入VIP贵宾组可免积分免回复下载 立即了解 | 还不是会员:点击获取邀请码 Invitation Code

2

主题

644

帖子

2763

积分

Sponsor

金币
598 枚
体力
951 点
tto138 发表于 2020-5-19 22:20:14 | 显示全部楼层
沙发是抢的而不是占的!
- @% a( ^) F% _* |2 f6 gBlu-ray Film Forum is now my home!, p: V, ^8 Y: U" Q! Y0 h

0

主题

8

帖子

169

积分

Sponsor

金币
130 枚
体力
20 点
chly227 发表于 2020-6-13 19:44:10 | 显示全部楼层
是不是以前那个

10

主题

1204

帖子

6453

积分

Sponsor

金币
835 枚
体力
3215 点
QQ
shiji1973 发表于 2020-6-24 10:12:53 | 显示全部楼层
感谢分享精彩电影

本版积分规则

小黑屋|Archiver|蓝光电影资源网

GMT+8, 2020-7-16 20:46

快速回复 返回顶部 返回列表