BluRayCD Forum

 找回密码
 立即注册【分享大片】

QQ登录

只需一步,快速开始

查看: 36|回复: 4
收起左侧

[4K极清电影] 神偷联盟 [4K REMUX无损版] Logan Lucky 2017 2160p BluRaycd REMUX HEVC DTS-HD MA 5.1-FGT 54.79GB

[复制链接]

4794

主题

4967

帖子

6万

积分

Post Share

金币
9442 枚
体力
17370 点

卓越贡献勋章

黄金嫖客 发表于 2020-5-19 23:00:56 | 显示全部楼层 |阅读模式
Two brothers attempt to pull off a heist during a NASCAR race in North Carolina.
1 y7 m$ A3 z  S8 t1 j! F
5 G  z2 j4 ?& t( Z 01.jpg
, |: }1 k1 o3 S+ x6 H4 O
: L, |8 O# x1 F0 g8 ^: Y4 u◎译  名 神偷联盟/幸运的罗根/罗根好好运(台)/卢根急转弯(港)
: k1 X+ _: i; a4 v' H: m; g◎片  名 Logan Lucky8 E/ e4 `+ a4 X$ T' F
◎年  代 2017
  |+ K7 {) f/ P9 n◎产  地 美国
. l) z9 I: @2 _◎类  别 喜剧/犯罪
; a2 Y$ i* k7 X7 g3 A◎语  言 英语3 m( Y" n) j9 m3 `/ H) q- ]
◎上映日期 2017-08-18(美国)# f2 _1 o6 E" b. m, D1 s
◎IMDb评分 7.0/10 from 120,182 users  Q1 ?- V1 b5 a0 A( r2 B
◎IMDb链接 http://www.imdb.com/title/tt5439796/# p3 r* q' P$ {- j$ P2 N4 }. [* l8 Q
◎豆瓣评分 7.1/10 from 30,230 users0 r# T/ j/ ?# x7 Q
◎豆瓣链接 https://movie.douban.com/subject/26723165/  |/ B* X! [5 H! q" _) g( e
◎文件格式 x265 + DTS
+ H9 l1 q' @; D* n◎视频尺寸 3840 x 2160
; z+ N/ q  B/ S  _- T◎文件大小 1DVD 54.79 GiB1 M" g, B: i7 w) f- y4 I. o
◎片  长 1 h 59 min: A8 s9 {, i; y* O1 I- s
◎导  演 史蒂文·索德伯格 Steven Soderbergh4 p( u1 q4 u) ?2 `
◎编  剧 丽贝卡·布朗特 Rebecca Blunt
" M( c0 [' w/ P& Y% `3 N9 u  j9 M◎主  演 查宁·塔图姆 Channing Tatum
8 K4 k6 |. Y5 h8 v- \      丹尼尔·克雷格 Daniel Craig) I! n" a$ C4 J, n' r
      亚当·德赖弗 Adam Driver
/ K2 n6 m7 `- K6 a      丽莉·克亚芙 Riley Keough
* N" q: i. X1 k( k3 F3 S: Q5 U  n: o& r      希拉里·斯万克 Hilary Swank
1 t( i) h2 r8 O/ R      凯瑟琳·沃特斯顿 Katherine Waterston# J) }0 v! ?  P# }. S9 ]4 R
      大卫·丹曼 David Denman
; t" e( o" z/ ~( }) f  F, V+ j      杰克·奎德 Jack Quaid
7 h7 s  z2 q8 L7 G* W( h! A      布莱恩·格里森 Brian Gleeson
4 [3 l4 F6 u3 B7 E      吉姆·奥希尔 Jim O'Heir1 u$ t6 z: ]6 S) ~9 \
      法拉·麦肯齐 Farrah Mackenzie
: ^9 w4 B. l; i: {0 z      布登·约翰斯顿 Boden Johnston5 U/ X1 G  y7 G% J: D* o) l
      萨顿·约翰斯顿 Sutton Johnston
) E  X. d" ~  k- Y- K      塞巴斯蒂安·斯坦 Sebastian Stan: U  t/ _( O8 A9 w
      塞思·麦克法兰 Seth MacFarlane/ r3 \+ z* ]) i0 y; J
      凯蒂·霍尔姆斯 Katie Holmes9 E2 v8 ]9 m  d6 Z! c: D
5 |' F- b1 |% f* p* E5 u. [
◎简  介. i/ F' F+ [, y0 ~8 S; e& `) S) {* e' F

  |# s6 G/ ^" g* Q% i  v+ e   背负着家族厄运的罗根兄弟(查宁·塔图姆、亚当·德赖弗)决心摆脱屌丝命运,他们招募精英搞怪团队,与爆破专家乔·邦(丹尼尔·克雷格)一起,在纳斯卡车赛现场盗窃金库,并成功逃脱FBI的追查。 ! y+ ^  y5 e$ C4 e2 V# ^
( h* y6 u- u2 q
  Channing Tatum and Adam Driver star in this US comedy directed by Steven Soderbergh. In a desperate attempt to overcome a family curse, siblings Jimmy (Tatum), Clyde (Driver) and Mellie (Riley Keough) stage an elaborate heist during the Coca-Cola 600 NASCAR race at the Charlotte Motor Speedway. With the race acting as the perfect distraction, the gang look to break into an underground vault where money is transported via a pipeline under the speedway circuit. However, if the Logans are to pull it off they must recruit experienced but unpredictable thief Joe Bang (Daniel Craig) to help with their ambitious plans to blow the vault. The cast also includes Seth MacFarlane, Katie Holmes and Hilary Swank.
5 q- N% [$ T6 T
4 J6 ^) Z8 R! ]  i8 |% A% G& w
Video
' g; i: @# o8 M: B+ I+ QID                                       : 1
+ E1 g0 M: {& Q4 A: Q& I- i' NFormat                                   : HEVC
: e* ]5 M3 x) B7 nFormat/Info                              : High Efficiency Video Coding' h, @9 n3 |$ O8 k% Y* b6 ?
Format profile                           : Main 10@L5.1@High8 B' o# d- S; o/ t" X* R( j+ @1 N
Codec ID                                 : V_MPEGH/ISO/HEVC+ y: {2 V9 C/ _- b
Duration                                 : 1 h 59 min
6 }7 V2 o7 b4 V# [Bit rate                                 : 61.2 Mb/s
1 h$ z) _" N: `5 Q  p. ]Width                                    : 3 840 pixels
/ y1 d  Q5 Z# `! d( XHeight                                   : 2 160 pixels: i+ i) R) \% w- t$ H# N: i
Display aspect ratio                     : 16:9
# B5 }0 v/ R$ i# rFrame rate mode                          : Constant  k$ h% {  H. L7 x/ G
Frame rate                               : 23.976 (24000/1001/37687) FPS
: M7 P% M- @* [3 M3 ]7 R9 yColor space                              : YUV
, B9 H! ~# ~' aChroma subsampling                       : 4:2:0 (Type 2)
: e0 F' B8 P4 Z2 T" D, ZBit depth                                : 10 bits: |$ r1 z6 U# ~3 b* S
Bits/(Pixel*Frame)                       : 0.308
* s5 l( u* P9 E  C/ Z. m5 Q$ S! LStream size                              : 50.9GB (93%)
' x% V. b& T. G1 M: J, QTitle                                    : Logan.Lucky.2017.2160p.BluRayCD.REMUX.HEVC.DTS-HD.MA.5.1-FGT2 F# |# l# m9 O! N( M% m5 o
Writing library                          : ATEME Titan File 3.8.3 (4.8.3.0)        
4 C7 t: D7 P7 D& ~& v7 u2 ~( {6 o% W. ~Default                                  : Yes( Y# V6 l. p8 \* u. m! D, Q5 L3 N8 R
Forced                                   : No
% b/ I4 D3 n; K. Y! d+ qColor range                              : Limited% t& ]- l0 ?0 r0 I) e: T2 @
Color primaries                          : BT.2020
7 m8 e! O$ ], v, z$ R+ R6 g* FTransfer characteristics                 : PQ& @+ v" G+ L; M0 _, p
Matrix coefficients                      : BT.2020 non-constant) H  @$ _9 d$ Y/ Z3 ^) J% m/ I5 L
Mastering display color primaries        : Display P3
$ ^" m; l2 C- ?: H7 c: J) O. yMastering display luminance              : min: 0.0050 cd/m2, max: 1000 cd/m2
+ A5 V0 `; l) Q2 _; k# q9 XMaximum Content Light Level              : 847 cd/m2! t$ S( p: [8 _( U2 i
Maximum Frame-Average Light Level        : 476 cd/m29 E6 v7 F- w9 I& k9 \3 N
, R. o+ m9 J& [* U% }
Audio #1
7 V0 d7 [( X( n# D9 l2 hID                                       : 2% o/ c% t/ {) z* e' m
Format                                   : DTS
% d1 Z8 _; J! G* t. [" PFormat/Info                              : Digital Theater Systems
, ~- \6 D9 G, u# F2 bFormat profile                           : MA / Core% i, G9 q% P2 M+ R
Codec ID                                 : A_DTS2 o9 L8 j6 s, u: M, C& n
Duration                                 : 1 h 59 min0 D% T3 n- B% A- {$ J. `2 C- h6 ]
Bit rate mode                            : Variable / Constant
! G1 p: ~" L7 h5 ^Bit rate                                 : 3 267 kb/s / 1 509 kb/s  I! s% V5 m: _- _4 T3 h0 r
Channel(s)                               : 6 channels
1 F- s: J( i  U3 p/ [Channel positions                        : Front: L C R, Side: L R, LFE
3 N. J2 `& a- d8 R( V' F. `Sampling rate                            : 48.0 kHz
4 B5 E, F4 X7 j" d9 Z0 ZFrame rate                               : 93.750 FPS (512 SPF)9 P/ @5 `  k- f6 }' [% y
Bit depth                                : 24 bits
) _% M3 N1 w- b: `/ `: QCompression mode                         : Lossless / Lossy
0 Q4 t3 `* T$ x) O$ `" I; AStream size                              : 2.72GB (5%); f/ @; w( P- R3 E, L( }8 M6 M
Title                                    : Logan.Lucky.2017.2160p.BluRaycd.REMUX.HEVC.DTS-HD.MA.5.1-FGT& F/ S' n1 J5 }7 V3 p$ s
Language                                 : English
, y. g3 H1 }& L5 ?) x* \Default                                  : Yes
  |: E, A2 j9 M  nForced                                   : No
6 f* E; X: N; V8 @7 }* }( g. v  A) o3 T' ?* M0 \
Audio #22 u' I) G% D* N
ID                                       : 3' ]6 r6 B7 i+ n3 @5 ], e& M7 ]
Format                                   : DTS0 i, G- ^: }% v2 M  u
Format/Info                              : Digital Theater Systems
& r% M8 P0 E3 U# @& x7 Z8 G7 ]Codec ID                                 : A_DTS
; @9 h% ^& M2 O# V0 p0 ^Duration                                 : 1 h 59 min
: u+ p+ f' x* b6 C, A0 K& [Bit rate mode                            : Constant, o+ z8 h4 I9 A" D3 m6 t) `; e3 h
Bit rate                                 : 447 kb/s
6 H5 Y9 f$ f- L; W, w# rChannel(s)                               : 2 channels7 J* ?& ^; x8 a6 l  u; O: V; v
Channel positions                        : Front: L R
5 _- ~# V% i/ I& ^! v, m; LSampling rate                            : 48.0 kHz- N* y2 P, \" G# D
Frame rate                               : 93.750 FPS (512 SPF)8 W1 U2 X* h' w8 u8 T% K
Bit depth                                : 24 bits) S' S7 F9 o# _
Compression mode                         : Lossy& Q: }) K  \; i# z
Stream size                              : 381 MiB (1%)8 k) f4 M8 m& c5 ]3 l4 c, T
Title                                    : Logan.Lucky.2017.2160p.BluRaycd.REMUX.HEVC.DTS-HD.MA.5.1-FGT) c* R" c: E3 M* y* L' y
Language                                 : English% j# f$ b6 _0 y8 I5 M
Default                                  : No) k, ]. e  Y5 {# y1 ^
Forced                                   : No
5 W. _; B# d- e% V, k6 h6 e# I8 J# g* r) x2 j
Audio #3
+ n0 V# F" _' ^; s: FID                                       : 4
! ^% }9 c( J5 Z1 M- c. O9 I; T* m6 DFormat                                   : AC-3+ a  [, f4 D9 u- I- _( i
Format/Info                              : Audio Coding 3; v6 x+ P1 O2 [& X, J
Codec ID                                 : A_AC3
4 z2 F0 }* a! v! b8 ?Duration                                 : 1 h 59 min2 W4 q1 B+ n3 g! ^
Bit rate mode                            : Constant3 b9 R8 N# J& q
Bit rate                                 : 192 kb/s6 x+ x; _2 j% L' }: v
Channel(s)                               : 2 channels
- p; B* M8 G1 W1 v+ D9 V4 W0 uChannel positions                        : Front: L R
$ {* Y6 m$ s% sSampling rate                            : 48.0 kHz' V$ b0 k$ ~% \* ~" W9 u
Frame rate                               : 31.250 FPS (1536 SPF)
5 V7 z0 b- K* B( p6 B; K& aBit depth                                : 16 bits
5 r" |6 o, r" K7 f1 q7 Z7 d1 YCompression mode                         : Lossy: p1 T' a7 d  h6 H. R2 `  |
Stream size                              : 163 MiB (0%)# _! p) x: ~9 X
Title                                    : Logan.Lucky.2017.2160p.BluRaycd.REMUX.HEVC.DTS-HD.MA.5.1-FGT+ M( E' I3 ^+ q- g+ J% i
Language                                 : English  I5 n! O1 p- Y/ K
Service kind                             : Complete Main7 U) [3 U( @$ b
Default                                  : No. f( r# y8 T; Q, i* b6 l
Forced                                   : No
0 k8 e9 J( i7 |0 i" @* K$ X) \1 W( t: L( ~: U, k& f# x
Audio #4  `/ z: v# e" \$ X; g
ID                                       : 5$ ?$ o8 D' W& A$ Q/ `* l& c$ b
Format                                   : DTS* ?- O7 H! \9 R0 x8 P9 K
Format/Info                              : Digital Theater Systems
6 U, L6 J% U3 y( g4 v3 q: t9 _Codec ID                                 : A_DTS
2 c2 j; V8 o, y% V' Z% ^" CDuration                                 : 1 h 59 min9 Q- E3 Y7 y# V& D
Bit rate mode                            : Constant; W0 [/ |: o7 d3 G: z
Bit rate                                 : 768 kb/s7 f; p  v* M$ `" J% d2 C5 ^
Channel(s)                               : 6 channels
6 I$ U3 Y& _6 o; u" GChannel positions                        : Front: L C R, Side: L R, LFE
! ?; \( z* L: `/ J7 MSampling rate                            : 48.0 kHz/ c5 ~$ x2 ]2 K5 n$ i4 H
Frame rate                               : 93.750 FPS (512 SPF)4 y# P. V. P. K7 R2 V  }1 F& @
Bit depth                                : 24 bits
2 n8 v" }+ b" uCompression mode                         : Lossy
4 ?) j5 d" W+ d3 X% P; lStream size                              : 654 MiB (1%)
( b5 h* i  o) ^% Z7 l0 QTitle                                    : Logan.Lucky.2017.2160p.BluRaycd.REMUX.HEVC.DTS-HD.MA.5.1-FGT
) P# v! @' T$ ?, I% T7 DLanguage                                 : French9 ?+ Q! B+ A3 ]& n3 f$ q
Default                                  : No0 k6 l" e$ U& g! H/ v1 Z) m2 `- ~
Forced                                   : No
) q9 B* |0 f; I) [
: r, H& V  n' |8 X7 H7 vText #1
: m/ O2 y  ?- H" _1 a5 W$ _7 oID                                       : 6& J: A  z+ X. }6 c( ~
Format                                   : PGS. {/ o* T6 F$ y/ e; n$ s
Muxing mode                              : zlib
$ B& E6 X* ~4 ^7 oCodec ID                                 : S_HDMV/PGS. S: P% A$ N& u" d, g4 C' l
Codec ID/Info                            : Picture based subtitle format used on BDs/HD-DVDs$ o) H' V4 d6 h/ g5 u
Duration                                 : 1 h 57 min
* `0 x; i  X3 r2 F7 RBit rate                                 : 45.3 kb/s- v/ s1 `. R7 O% @/ d
Count of elements                        : 34942 Z% k: [+ i! S/ X5 j' @1 h+ H
Stream size                              : 38.2 MiB (0%)
" S) F- u' k: K( t( B# LTitle                                    : English-PGS
# U: E3 Y5 Q% ?+ ~/ gLanguage                                 : English7 Y/ ?1 T, A1 d" f3 V0 A* U
Default                                  : Yes% y2 I" I# l( m. i: J: O6 {2 q8 G% x
Forced                                   : No0 c6 @0 P# B& z8 @3 p

  _% _" t" W- m" D# FText #2
6 ?4 S, n' A# n# ~0 gID                                       : 76 @" k' H! E3 y
Format                                   : PGS. L# q# o' w. T1 h5 Z- F+ e
Muxing mode                              : zlib
$ d, Y: ^7 L1 ~1 S9 A  T5 }1 R& e* DCodec ID                                 : S_HDMV/PGS
: b, b+ p& Q, H% G0 yCodec ID/Info                            : Picture based subtitle format used on BDs/HD-DVDs1 Y; b5 E6 T# |
Duration                                 : 1 h 58 min
5 w% }* C0 L4 A% J1 I/ n( ~Bit rate                                 : 35.6 kb/s
* f7 r9 z- S* P4 k# Y# U" w0 NCount of elements                        : 2676
' A$ D' t7 E: bStream size                              : 30.1 MiB (0%)
" f+ I) T5 B, ~8 U7 Z" M% G+ }! l7 {Title                                    : Spanish-PGS
$ l: I1 E0 b6 J; HLanguage                                 : Spanish2 R2 C- c2 H9 s  K7 d
Default                                  : No* N2 P+ t1 X# N( a0 L( T0 D
Forced                                   : No, Y$ ]( c/ Q) f7 p4 k5 B

$ Z$ k  Q3 a. d! c' T0 ^Text #3
9 A- T0 N4 ^; v1 q. f; k" J, Z0 pID                                       : 8
" {2 B2 c" d! _7 lFormat                                   : PGS
8 k$ f# Q/ P" y/ uMuxing mode                              : zlib
$ V! J7 D5 E% V6 Y+ W$ O' zCodec ID                                 : S_HDMV/PGS& }9 }. F7 c7 I5 U  ]
Codec ID/Info                            : Picture based subtitle format used on BDs/HD-DVDs0 T7 ]& w7 B. D& z; u4 `
Duration                                 : 1 h 58 min
" U  I( f" K8 M. i* G9 b- ?) HBit rate                                 : 38.8 kb/s$ J/ f% l1 E2 d* {" i8 ?
Count of elements                        : 2958+ k# y3 Y7 C9 l5 e1 u6 i0 ]
Stream size                              : 32.7 MiB (0%)& o' X! w7 h/ d3 B
Title                                    : French-PGS: g6 P) }0 D6 D! L- w0 \* f. M5 A
Language                                 : French
. f* X$ B& n3 o) ]9 }/ lDefault                                  : No
# y6 c% j8 X% AForced                                   : No' @+ F) x6 ^* [4 x3 W. }  ?
$ p6 A7 j8 \: G! I1 V6 N* M
Text #4- g# \- U+ L1 O# F8 f
ID                                       : 9
2 `, _: q) U; HFormat                                   : PGS
: t6 J& F. _& v4 h7 q* EMuxing mode                              : zlib
$ J' d$ ^. n5 Q  p5 TCodec ID                                 : S_HDMV/PGS
- h) m6 c' s: m0 e! rCodec ID/Info                            : Picture based subtitle format used on BDs/HD-DVDs
6 p8 a4 W7 M) x9 V' w- g) TDuration                                 : 1 h 57 min) w7 r7 c' [3 M. x4 L3 O
Bit rate                                 : 2 084 b/s" ^6 |/ Q* M7 }3 Q; `- b# o* T' E
Count of elements                        : 186
4 V$ F- a$ w* E! TStream size                              : 1.75 MiB (0%)+ x& T: W. ?, U. ]) R/ z  N! `" B1 t4 L
Title                                    : French-FORCED-PGS
& ^" t+ ~9 b* |1 D( n7 eLanguage                                 : French0 J9 w1 f5 m, M# S
Default                                  : No
) T: Q( c+ e$ M& E" ?Forced                                   : No
- d4 Y& U3 V5 ^) R9 t0 V3 U+ q% T# l& e
Menu
1 {" S9 ^) i% R  [8 Y6 z5 r$ B00:00:00.000                             : en:Chapter 1
; G/ l. e+ z, M3 e7 F) Y4 f00:05:41.758                             : en:Chapter 2, Q5 C0 W$ L  y$ G- l
00:07:33.202                             : en:Chapter 3$ p+ D! ?7 X2 h/ h
00:10:40.931                             : en:Chapter 4
' `% l: S8 U; {$ F6 e5 T00:16:24.024                             : en:Chapter 5
  O2 K2 ~4 f! p, Y8 c00:21:23.282                             : en:Chapter 6
0 M2 C2 Q, f8 |& f2 e00:29:08.747                             : en:Chapter 7
- v- q0 K* ?5 O, {00:36:03.703                             : en:Chapter 87 }, S& Q4 Y4 x' C3 g. v  S' ]4 X
00:41:49.423                             : en:Chapter 9" W  k2 S$ c0 _" C6 B! v
00:47:11.078                             : en:Chapter 10
+ A' [! G7 L' |: a4 B% k00:50:08.880                             : en:Chapter 11
$ J& q) P8 W0 U; R. X/ ?00:54:40.527                             : en:Chapter 12
, b$ H; h3 S! _, N, z+ l% y00:57:27.152                             : en:Chapter 135 [9 B0 I6 J+ S! c6 U
00:59:16.469                             : en:Chapter 14
- R, A3 T1 }, q' i. K! E01:04:37.290                             : en:Chapter 15
8 t% \" h( R# f01:07:27.877                             : en:Chapter 16
7 f! s2 I- u* B9 L" b01:12:12.911                             : en:Chapter 17
3 p. h* X& `6 O8 R% T6 o4 M01:17:50.248                             : en:Chapter 18
0 B: f4 q, P+ y2 B( b! c01:19:20.422                             : en:Chapter 19$ {: g& T+ i# r2 c- e
01:24:02.912                             : en:Chapter 20
) T3 d( L8 Z/ Z' I4 Q; \01:28:33.099                             : en:Chapter 21/ p8 a( L4 m/ `. V1 J! f6 \7 [
01:32:41.514                             : en:Chapter 22: Z( F, O; i) b, T7 h
01:42:27.432                             : en:Chapter 23/ ?9 E% ?) d8 @, P2 d- E
01:46:07.652                             : en:Chapter 24
5 \/ g! }5 L; ?% W; e! g01:50:50.935                             : en:Chapter 25
  m5 K9 j7 E1 B8 h$ R& r01:54:55.263                             : en:Chapter 26
. H. K5 ?+ P& g( C8 I$ ]
游客,查看本帖隐藏内容请回复 | 加入VIP贵宾组可免积分免回复下载 了解详情 | 还不是会员:点击获取邀请码 Invitation Code

67

主题

1721

帖子

6418

积分

Sponsor

金币
510 枚
体力
2374 点
lanpanshuma 发表于 2020-5-20 04:39:47 | 显示全部楼层
楼主发贴辛苦了,I*老*虎*U!
0 h+ i% {0 L1 E! ]Blu-ray Film Forum is now my home!4 c! d+ m2 D. C% W' @
该会员没有 ...

2

主题

713

帖子

3242

积分

Sponsor

金币
590 枚
体力
1303 点
tto138 发表于 2020-5-20 22:31:55 | 显示全部楼层
这么好的帖子不回对不起自己!( J+ c4 r5 }  q( ~
bluraycd forum, a lot of Blu-ray movies!9 Y$ J0 @- T1 Y" i

0

主题

98

帖子

651

积分

Sponsor

金币
5 枚
体力
444 点
zuiqingfeng 发表于 2020-5-22 19:32:24 | 显示全部楼层
感谢楼主分享好资源

2

主题

713

帖子

3242

积分

Sponsor

金币
590 枚
体力
1303 点
tto138 发表于 2020-5-23 20:38:30 | 显示全部楼层
楼主发贴辛苦了,I*老*虎*U!
; m9 ~$ f$ ^: {- p- m+ G祝愿蓝光社区越办越好!I wish Blu-ray communities better and better!5 a" q' \9 \1 s& B! p

本版积分规则

小黑屋|Archiver|蓝光电影资源网

GMT+8, 2020-12-6 08:24

快速回复 返回顶部 返回列表