BluRayCD Forum

 找回密码
 立即注册【分享大片】

QQ登录

只需一步,快速开始

查看: 19|回复: 4
收起左侧

[4K极清电影] 神偷联盟 [4K REMUX无损版] Logan Lucky 2017 2160p BluRaycd REMUX HEVC DTS-HD MA 5.1-FGT 54.79GB

[复制链接]
  • TA的每日心情
    奋斗
    2020-5-24 20:30
  • 签到天数: 368 天

    [LV.9]蓝盘精灵

    4227

    主题

    4373

    帖子

    5万

    积分

    Post Share

    金币
    7748 枚
    体力
    15947 点

    卓越贡献勋章

    黄金嫖客 发表于 2020-5-19 23:00:56 | 显示全部楼层 |阅读模式
    Two brothers attempt to pull off a heist during a NASCAR race in North Carolina. + g: T1 k6 w* z0 b$ c; T5 o
    , Z8 P/ O/ S" C0 P+ a. s! o. Q$ w
    01.jpg   ~1 g+ w: h/ N; A
    " d  k$ m1 n( D( @. j& R
    ◎译  名 神偷联盟/幸运的罗根/罗根好好运(台)/卢根急转弯(港)
    4 }& d* h. ?) B2 v- h# b) X7 Z0 d) _◎片  名 Logan Lucky% S& [( p; V# E) L" s6 Q
    ◎年  代 2017
    0 i" K5 Z+ ~& X5 z4 m◎产  地 美国
    & n2 Y5 }$ M, h◎类  别 喜剧/犯罪( a3 v3 e& l$ n. X5 C+ B. @
    ◎语  言 英语
    $ f- b; p4 s) u, I- g) |◎上映日期 2017-08-18(美国)
    ( U! P- ?3 Y5 w9 b, ~2 v◎IMDb评分 7.0/10 from 120,182 users
    # k. q4 K# t9 U( z9 T◎IMDb链接 http://www.imdb.com/title/tt5439796/
    & F2 s1 a% q) r/ l) q- t◎豆瓣评分 7.1/10 from 30,230 users
    3 E$ a& I7 k- t" @5 {0 O◎豆瓣链接 https://movie.douban.com/subject/26723165/3 o, p% ]" H' W
    ◎文件格式 x265 + DTS
    5 b1 R% `, g5 c9 @4 U( B◎视频尺寸 3840 x 2160
    ! q* R5 |1 S: ]' l1 F◎文件大小 1DVD 54.79 GiB
    2 \5 R- I2 h  X+ t4 P1 c◎片  长 1 h 59 min
    4 |  ?# \% I  N8 R+ S) ?) A0 x◎导  演 史蒂文·索德伯格 Steven Soderbergh
    2 T, {$ }4 N% B) \4 t$ d◎编  剧 丽贝卡·布朗特 Rebecca Blunt" ?* j8 M7 j8 P  k, p4 r
    ◎主  演 查宁·塔图姆 Channing Tatum' q& d: b9 j7 N4 H) z: m
          丹尼尔·克雷格 Daniel Craig
    . F- X  {, _2 O1 s      亚当·德赖弗 Adam Driver( k4 y8 E, W* k' n& i
          丽莉·克亚芙 Riley Keough
    1 J/ o" P2 `' Q0 G      希拉里·斯万克 Hilary Swank2 z6 M8 K0 H8 M7 i0 T% x* V" Q
          凯瑟琳·沃特斯顿 Katherine Waterston
    4 ?4 K; Y( g) o, B! r+ U      大卫·丹曼 David Denman5 f+ @+ q' a7 j6 A6 }
          杰克·奎德 Jack Quaid
    8 d. V' @7 `5 b, F      布莱恩·格里森 Brian Gleeson
    9 X4 O+ L! J2 y- G$ L) S7 a2 ~" F      吉姆·奥希尔 Jim O'Heir
    ' |( U& Q/ [8 K; [. `; @6 }0 S9 O; `      法拉·麦肯齐 Farrah Mackenzie
    4 n: y  X4 w$ b/ |0 m      布登·约翰斯顿 Boden Johnston0 ?! n3 ^  J+ A$ R( `
          萨顿·约翰斯顿 Sutton Johnston
    " l% z) t: x+ u      塞巴斯蒂安·斯坦 Sebastian Stan3 l- [4 K5 ^& n3 S/ m: ~
          塞思·麦克法兰 Seth MacFarlane5 v: ~  h) v9 S
          凯蒂·霍尔姆斯 Katie Holmes
    9 n7 g; J$ L1 A
    1 r4 N4 K* ~- S◎简  介/ F  L$ L+ s! E: Z" j- b

    5 m, {0 z& t; ?- O  Q' C   背负着家族厄运的罗根兄弟(查宁·塔图姆、亚当·德赖弗)决心摆脱屌丝命运,他们招募精英搞怪团队,与爆破专家乔·邦(丹尼尔·克雷格)一起,在纳斯卡车赛现场盗窃金库,并成功逃脱FBI的追查。 $ J8 Q+ Y1 M0 }9 Y+ m
    0 M$ y  v+ Y' g. p) R- b$ k! G
      Channing Tatum and Adam Driver star in this US comedy directed by Steven Soderbergh. In a desperate attempt to overcome a family curse, siblings Jimmy (Tatum), Clyde (Driver) and Mellie (Riley Keough) stage an elaborate heist during the Coca-Cola 600 NASCAR race at the Charlotte Motor Speedway. With the race acting as the perfect distraction, the gang look to break into an underground vault where money is transported via a pipeline under the speedway circuit. However, if the Logans are to pull it off they must recruit experienced but unpredictable thief Joe Bang (Daniel Craig) to help with their ambitious plans to blow the vault. The cast also includes Seth MacFarlane, Katie Holmes and Hilary Swank.
    6 E9 y9 w: Q& O! X! O8 |2 U  Q
    Video# v# w: L1 L( `5 n/ s5 V
    ID                                       : 12 t+ d/ \3 j$ U1 b8 G) g
    Format                                   : HEVC
    # |/ d9 f  e* R/ }Format/Info                              : High Efficiency Video Coding
    0 C; X; ]4 i1 O3 ?8 z1 Y( kFormat profile                           : Main 10@L5.1@High- S9 p/ i: {; J
    Codec ID                                 : V_MPEGH/ISO/HEVC
    2 M5 {4 v4 \0 xDuration                                 : 1 h 59 min
    . q$ F3 l- H3 m  v7 BBit rate                                 : 61.2 Mb/s( b. t# M3 }0 N
    Width                                    : 3 840 pixels) w4 ~1 L! v! T% g/ c% F9 V/ N% G" G
    Height                                   : 2 160 pixels
    , ~$ {" p! s  \' }& _- a* S7 f! xDisplay aspect ratio                     : 16:98 s: O" M& }& U; h: B7 W8 @
    Frame rate mode                          : Constant
    4 S$ |% o  J+ x$ gFrame rate                               : 23.976 (24000/1001/37687) FPS8 `, R* P" c+ j9 H5 P9 M
    Color space                              : YUV
    " z: z# Z  ?7 sChroma subsampling                       : 4:2:0 (Type 2)
    7 M+ d# a% D% T" g* LBit depth                                : 10 bits6 G" v) X9 D) y/ ^! V) H* z2 d) _
    Bits/(Pixel*Frame)                       : 0.3083 f6 w! R! q$ \5 S! n. T. b
    Stream size                              : 50.9GB (93%)5 N4 X9 m; `. G+ {$ t$ j, G7 G' n
    Title                                    : Logan.Lucky.2017.2160p.BluRayCD.REMUX.HEVC.DTS-HD.MA.5.1-FGT
    ; ^: P2 |7 H. ]7 ]- |* |* z8 fWriting library                          : ATEME Titan File 3.8.3 (4.8.3.0)        9 c' m, R( ?0 d- ^
    Default                                  : Yes
    ( E* T2 P, Y5 n: O9 wForced                                   : No" l2 T, W# m) \- b5 S3 g3 h1 G9 ?
    Color range                              : Limited
    & ^/ F/ e0 Y$ x/ LColor primaries                          : BT.2020
    ) N/ a# P. v; h0 a5 {# r0 m0 sTransfer characteristics                 : PQ% P8 e4 Z4 m, g; B  j8 _$ M& N0 Z1 _6 A& q
    Matrix coefficients                      : BT.2020 non-constant6 l  L! {. g% C3 A, P
    Mastering display color primaries        : Display P32 Z, v5 k8 j5 ]. m% Q; D3 Z$ s: @( p
    Mastering display luminance              : min: 0.0050 cd/m2, max: 1000 cd/m2  I; T* x- K9 l# d  V
    Maximum Content Light Level              : 847 cd/m2# r2 Z* B9 ?0 F
    Maximum Frame-Average Light Level        : 476 cd/m2
    : Z2 V! y* S# R) V
    7 W, ~' w( l! r" z5 jAudio #10 C9 y% Z0 [0 [2 ~" W9 l. e
    ID                                       : 2% l9 f# C' a7 j6 H& g
    Format                                   : DTS2 F5 R1 r& q" D& ~' @& J: F
    Format/Info                              : Digital Theater Systems
    5 m2 `1 L3 J* ?( bFormat profile                           : MA / Core: @' f" n6 d! N. f( h) I
    Codec ID                                 : A_DTS
    " I! ^* V5 t/ K  B# SDuration                                 : 1 h 59 min1 o4 [5 F1 |% _8 Y# t+ J
    Bit rate mode                            : Variable / Constant
    7 m2 d+ ?: u5 }7 a$ ~+ @Bit rate                                 : 3 267 kb/s / 1 509 kb/s
    7 A% x4 r. u4 CChannel(s)                               : 6 channels
    2 a# I- E' @4 }  S, }. IChannel positions                        : Front: L C R, Side: L R, LFE/ Y8 p( B2 c' z! c0 |
    Sampling rate                            : 48.0 kHz
    * N% _3 ?3 i$ ~6 MFrame rate                               : 93.750 FPS (512 SPF)' c% K' x0 y! q3 f: ~7 `4 a" B" j0 @
    Bit depth                                : 24 bits3 p& F$ Q* L' d0 G
    Compression mode                         : Lossless / Lossy
    . t# ]& O6 w$ H6 c# t0 IStream size                              : 2.72GB (5%)' w: g  O8 M# a
    Title                                    : Logan.Lucky.2017.2160p.BluRaycd.REMUX.HEVC.DTS-HD.MA.5.1-FGT
    2 X% D$ s! c- V; ^Language                                 : English
    4 ?+ ^2 g5 [; F; q. q2 ^3 _9 C6 q7 _Default                                  : Yes+ e) v) T. r* o* L4 j9 T7 T& U& T7 a
    Forced                                   : No( O4 n5 ]- {, n/ t% p; C! L2 m4 g

    : P2 b' [* n! f4 i* @Audio #2" J6 a6 v/ ^# b
    ID                                       : 39 x; o. f' E. B" L2 T
    Format                                   : DTS. C7 U9 j- e% }: o  |, o8 I
    Format/Info                              : Digital Theater Systems1 q' O: W2 [! L# _. g' b1 m# w9 h
    Codec ID                                 : A_DTS( z  ~# c3 t7 r, Z6 s1 l
    Duration                                 : 1 h 59 min3 s! w9 p+ y8 X$ ]6 u
    Bit rate mode                            : Constant
    " g  X# R' a* YBit rate                                 : 447 kb/s$ ~- f4 ~1 T; K. ]5 E3 U
    Channel(s)                               : 2 channels
    5 b4 @: [* o8 G+ FChannel positions                        : Front: L R3 S3 G! q# e" p  g: P3 R
    Sampling rate                            : 48.0 kHz
    . g& D! n( Z9 K( J4 X( H6 TFrame rate                               : 93.750 FPS (512 SPF)
    1 _+ |7 Q  T+ t* fBit depth                                : 24 bits: t6 p* _6 R/ I6 l
    Compression mode                         : Lossy
    : a2 f8 w4 T" F+ d( g: GStream size                              : 381 MiB (1%)
      k+ |, ?8 E$ ]) [8 z0 W, g' K- YTitle                                    : Logan.Lucky.2017.2160p.BluRaycd.REMUX.HEVC.DTS-HD.MA.5.1-FGT
    ) i- f/ X7 k( _8 `3 B2 o+ vLanguage                                 : English- @! X- `" ^$ F2 e& b6 m
    Default                                  : No0 `. H+ r% A- }& n, f+ c
    Forced                                   : No7 f. j2 f- B  ^8 a& _' i" c

    1 V/ ^$ G6 F1 w: Z: v, ~" \Audio #3/ @  H+ `3 D7 ]5 x, w/ \. \
    ID                                       : 4, d( d7 x4 {; i( S6 z
    Format                                   : AC-3! k$ w" C* v1 \8 R5 I5 r
    Format/Info                              : Audio Coding 3& M+ a0 O$ p% }& Y4 b7 `+ o
    Codec ID                                 : A_AC3. M1 v% ?$ H9 U2 D9 f" w, S1 u# R
    Duration                                 : 1 h 59 min6 t( F: m/ F9 t7 n8 X
    Bit rate mode                            : Constant7 i: }% X0 `6 W( e0 Y" h, P4 j6 j( }
    Bit rate                                 : 192 kb/s9 K( b: C+ l$ H" L  P( Y
    Channel(s)                               : 2 channels; V6 D0 q2 \8 _" t, H
    Channel positions                        : Front: L R
    1 r8 x; N* X- S4 I* C+ @( ySampling rate                            : 48.0 kHz, N- b( C# o8 z3 X8 L' q
    Frame rate                               : 31.250 FPS (1536 SPF)
    8 c1 h: d: w7 EBit depth                                : 16 bits# I+ H' z$ n; R
    Compression mode                         : Lossy$ @  J$ f9 v- J% v: F3 o
    Stream size                              : 163 MiB (0%)  k# `& I2 l: L8 g
    Title                                    : Logan.Lucky.2017.2160p.BluRaycd.REMUX.HEVC.DTS-HD.MA.5.1-FGT1 y% R, s+ D8 h% O- e6 P
    Language                                 : English
    : c' r9 _! E! @7 S( @Service kind                             : Complete Main
    6 y, m0 P1 S* z/ ?. gDefault                                  : No
    3 {' A. E" |/ J; Q( z- |/ LForced                                   : No
    - Y* O8 w4 M7 _* O
    - @6 V* W  o- X4 r0 D" K/ A. nAudio #4
    5 q: Z& o: \6 ^5 E" oID                                       : 5
    7 W1 h3 N& y( Y0 s) Q5 T  b+ kFormat                                   : DTS8 @+ c1 g, D7 @! h
    Format/Info                              : Digital Theater Systems
    + K# A4 z+ v7 [! y: n6 fCodec ID                                 : A_DTS
    , H9 o& {$ Q. cDuration                                 : 1 h 59 min
    - i! c2 A3 T3 A* S3 g( b" k6 DBit rate mode                            : Constant0 F$ f  b; q' d/ [8 H3 d5 L  k
    Bit rate                                 : 768 kb/s' E6 ?6 G( ~8 I$ O4 z
    Channel(s)                               : 6 channels! f+ E: k6 D" c
    Channel positions                        : Front: L C R, Side: L R, LFE
    : N7 D7 {5 K5 L; i. SSampling rate                            : 48.0 kHz6 y, {/ g# t( l+ R
    Frame rate                               : 93.750 FPS (512 SPF)
    * n- I! T# X  ^) p' Z' `+ Y" NBit depth                                : 24 bits
    " I& m4 V  E" M$ ^7 nCompression mode                         : Lossy, |8 i! X* k, F- b* F
    Stream size                              : 654 MiB (1%)# H2 G, Y9 ^* Y
    Title                                    : Logan.Lucky.2017.2160p.BluRaycd.REMUX.HEVC.DTS-HD.MA.5.1-FGT
    / c; P: q, `/ T. ]. F' t* G: L- [Language                                 : French
    1 o/ I; B/ {9 ADefault                                  : No6 y1 c4 r- g) r+ X4 F, N
    Forced                                   : No
    2 N6 j, D( |& U& q) F4 F: M, Y$ y, b5 i' _: E. C: j7 W6 i( B
    Text #1( l! s; N. G. D' g( X3 ~
    ID                                       : 6
    & d6 U( e4 G7 W4 JFormat                                   : PGS
    & b' U: x4 u: S7 D" f9 {Muxing mode                              : zlib' h% K8 ^2 h% t  J/ l# l4 \" n
    Codec ID                                 : S_HDMV/PGS2 P1 W! o# }1 k- a( j7 ]" L5 m- u1 O
    Codec ID/Info                            : Picture based subtitle format used on BDs/HD-DVDs
    9 R0 v) Z) J; C' }5 n* k, ~0 mDuration                                 : 1 h 57 min! B4 g) F+ k1 E! }1 z) ~+ u7 b
    Bit rate                                 : 45.3 kb/s
    * q  r, l; J  |) @. V. I" Z. v2 KCount of elements                        : 3494
    2 X7 x% q2 K) R* I$ _0 c4 LStream size                              : 38.2 MiB (0%)+ n  D9 I( F- Y* @! s
    Title                                    : English-PGS
    ; @: ?$ |) D% |  tLanguage                                 : English  [5 f/ I5 M6 j- {
    Default                                  : Yes
    # A9 a1 s. a# R& q/ i% @- s0 k( IForced                                   : No
    7 g+ u6 x! B; M0 b8 E( E5 p$ F* j5 w* v! f, p# e/ _
    Text #2
    " z4 i$ H8 C& a4 m: E/ t- y. Z! u$ AID                                       : 7! E+ _' q4 P, p+ S. J
    Format                                   : PGS
      Z7 J* }9 ~' E6 LMuxing mode                              : zlib
    # H" F/ J8 ?5 lCodec ID                                 : S_HDMV/PGS- t% F) Q6 s- P  S2 l
    Codec ID/Info                            : Picture based subtitle format used on BDs/HD-DVDs
    ( b$ D% ]# Q# R0 ADuration                                 : 1 h 58 min
    8 H2 L# T% S* {) _Bit rate                                 : 35.6 kb/s5 x. u$ Z2 {) M2 \. P
    Count of elements                        : 26767 t( X  |: J1 o, f
    Stream size                              : 30.1 MiB (0%)1 O7 V) [. A! Z/ \2 _" X: c7 q
    Title                                    : Spanish-PGS
    ! Y# _4 A  v; r' ?  h1 i' y% @8 [Language                                 : Spanish1 h: s$ w7 C& i
    Default                                  : No5 }3 u' ^. t8 o
    Forced                                   : No
    , U: Z2 U/ t" u% t! R4 }! ~
    % _( }7 ^' i% S* T: |" p# [Text #3
    ' N( L1 s  H' \1 hID                                       : 8& p" E" z# L( R; Q$ Z# ], @
    Format                                   : PGS) W) [# B+ r+ ?8 k
    Muxing mode                              : zlib+ ~. ]0 S2 A7 U" o% ]7 `1 M
    Codec ID                                 : S_HDMV/PGS
    2 n; D. M! C9 Q* a0 Y7 L2 l# jCodec ID/Info                            : Picture based subtitle format used on BDs/HD-DVDs( y2 W' i- p" O1 M
    Duration                                 : 1 h 58 min
    0 p( o1 J& V" L+ l- M) x1 BBit rate                                 : 38.8 kb/s  B; m# I9 t3 t  e2 C  [
    Count of elements                        : 2958
    * }. R: v1 x1 _$ @2 l! [Stream size                              : 32.7 MiB (0%)- s$ i! T: G! X1 @0 U8 L
    Title                                    : French-PGS
    % w- e" w" \7 Z7 ^Language                                 : French# O, x) R0 \4 }3 G6 y6 C
    Default                                  : No  }+ I$ j5 m- f8 e* O
    Forced                                   : No* D+ s/ |3 Y) D2 }) P
      O; H+ B4 t. F# a1 j& Z
    Text #43 j$ J1 E6 ]: D6 [% K7 X" W) L
    ID                                       : 9. G4 D+ q' [4 ~! O
    Format                                   : PGS
    " Q" U  d1 t/ D8 C9 r/ HMuxing mode                              : zlib
    0 {& c6 Q5 v7 s3 j! K1 VCodec ID                                 : S_HDMV/PGS
    . n& \+ ^, V! h5 P& O/ O$ d& WCodec ID/Info                            : Picture based subtitle format used on BDs/HD-DVDs
    ) V9 p! G+ `8 v3 p% tDuration                                 : 1 h 57 min
    9 ?" z3 o1 a! V9 N/ C+ \7 J3 a* XBit rate                                 : 2 084 b/s1 N0 O7 }0 x8 E- f/ e
    Count of elements                        : 186
    # h7 p9 ]% P  @% r& iStream size                              : 1.75 MiB (0%)( R3 u( d8 B% z) c& |2 u3 T5 A! z$ {
    Title                                    : French-FORCED-PGS' d) n0 Z4 g3 y, j
    Language                                 : French7 F- G3 }0 \# c2 R$ ?, J
    Default                                  : No  G6 U- i/ K  P$ t; K0 D" y$ a
    Forced                                   : No$ w* D: m0 m" t) l
    + z2 Z9 r* o$ Z  s" F; P- y
    Menu3 w% e! g- c, [" p. S# v2 r
    00:00:00.000                             : en:Chapter 1" k4 o/ ~: k7 d
    00:05:41.758                             : en:Chapter 26 l! f- r' m0 ~. T9 M
    00:07:33.202                             : en:Chapter 37 K; f. h8 y: A; [- a9 }
    00:10:40.931                             : en:Chapter 4
    ' S0 ?) B7 [4 _3 U00:16:24.024                             : en:Chapter 5
    0 p1 s! ]/ m4 t( Y4 i. Z00:21:23.282                             : en:Chapter 63 U9 M# s6 s! @7 {7 M- j
    00:29:08.747                             : en:Chapter 7
    : I0 B4 q( K; C00:36:03.703                             : en:Chapter 8& f3 B! x4 S8 C$ ]
    00:41:49.423                             : en:Chapter 9" v: W/ s, l. f) |& E  D8 z, j
    00:47:11.078                             : en:Chapter 10+ R, d( F/ U- m4 `# ?8 E
    00:50:08.880                             : en:Chapter 11
    ) P- G2 b) |& q# [00:54:40.527                             : en:Chapter 12
    & u$ S# f$ B( v6 F- a00:57:27.152                             : en:Chapter 131 c1 i6 U: i2 e5 o9 W* f3 O
    00:59:16.469                             : en:Chapter 148 y. n' _" h" W9 i
    01:04:37.290                             : en:Chapter 15
    & j  U# V9 X; e, c01:07:27.877                             : en:Chapter 16: K" _, O8 c: s  y
    01:12:12.911                             : en:Chapter 17
    # l6 I1 ^8 b$ g: }, s7 o: K: u01:17:50.248                             : en:Chapter 18" R, p1 z1 v1 b
    01:19:20.422                             : en:Chapter 19# ?! I) k/ u  ?9 M! V
    01:24:02.912                             : en:Chapter 20
    . y& [' ?0 b' ]2 t4 p) X$ N01:28:33.099                             : en:Chapter 21  y# u  P3 I4 q$ u
    01:32:41.514                             : en:Chapter 22/ j# m- h% y( M' J9 ~, D- F: ~9 W
    01:42:27.432                             : en:Chapter 23
    ) ~- x0 Q1 l( _  P! @9 o. J01:46:07.652                             : en:Chapter 24/ }6 r) J+ t& R. e2 p
    01:50:50.935                             : en:Chapter 25+ V/ t8 F/ ?: r1 T; q
    01:54:55.263                             : en:Chapter 26
    9 O% i% s7 l+ C2 r. r1 M
    游客,查看本帖隐藏内容请回复 | 加入VIP贵宾组可免积分免回复下载 立即了解 | 还不是会员:点击获取邀请码 Invitation Code
  • TA的每日心情
    开心
    5 天前
  • 签到天数: 33 天

    [LV.5]暂住蓝盘

    35

    主题

    850

    帖子

    3252

    积分

    Sponsor

    金币
    364 枚
    体力
    1134 点
    lanpanshuma 发表于 2020-5-20 04:39:47 | 显示全部楼层
    楼主发贴辛苦了,I*老*虎*U!
    $ p/ s3 V9 _, Q: S: Y; Y/ l4 SBlu-ray Film Forum is now my home!/ i6 c! N0 P( w. G5 Z4 J1 P
    该会员没有 ...
  • TA的每日心情
    开心
    4 天前
  • 签到天数: 56 天

    [LV.5]暂住蓝盘

    2

    主题

    558

    帖子

    2339

    积分

    Sponsor

    金币
    537 枚
    体力
    756 点
    tto138 发表于 2020-5-20 22:31:55 | 显示全部楼层
    这么好的帖子不回对不起自己!
    ; K( H3 n2 Q7 c8 U1 n% _bluraycd forum, a lot of Blu-ray movies!
    2 U4 X0 E( x9 @. s( Z/ n

    该用户从未签到

    0

    主题

    77

    帖子

    482

    积分

    Sponsor

    金币
    4 枚
    体力
    318 点
    zuiqingfeng 发表于 2020-5-22 19:32:24 | 显示全部楼层
    感谢楼主分享好资源
  • TA的每日心情
    开心
    4 天前
  • 签到天数: 56 天

    [LV.5]暂住蓝盘

    2

    主题

    558

    帖子

    2339

    积分

    Sponsor

    金币
    537 枚
    体力
    756 点
    tto138 发表于 2020-5-23 20:38:30 | 显示全部楼层
    楼主发贴辛苦了,I*老*虎*U!
    / z" S+ I' E6 |/ Q2 e$ J祝愿蓝光社区越办越好!I wish Blu-ray communities better and better!
    ; H" j4 i' ~. _' M# b* f

    本版积分规则

    小黑屋|Archiver|蓝光电影资源网

    GMT+8, 2020-6-2 11:52

    快速回复 返回顶部 返回列表