BluRayCD Forum

 找回密码
 立即注册【分享大片】

QQ登录

只需一步,快速开始

查看: 108|回复: 3
收起左侧

[蓝光原盘] 黑暗正义联盟:天启星战争 [REMUX原盘] Justice League Dark Apokolips War 2020 1080p BluRaycd REMUX AVC DTS-HD MA 5.1-FGT 11.30GB

[复制链接]

7672

主题

7866

帖子

6万

积分

Forum Moderator

金币
10250 枚
体力
9331 点

卓越贡献勋章

24小时 发表于 2020-6-11 18:31:12 | 显示全部楼层 |阅读模式
02.jpg
5 t. R5 M, `' l/ ?$ E& d- E
( u6 N) U4 D3 Z: L# ~/ X◎译  名 黑暗正义联盟:天启星战争
$ P3 V4 D& `( Q9 \  b◎片  名 Justice League Dark: Apokolips War7 s8 y* \5 S0 u) B( U( o8 }
◎年  代 20209 u9 D3 Q- Y; c
◎产  地 美国
3 t  j# F# p, L$ x$ X  H" E" H◎类  别 动画/奇幻
# m) s4 x/ m" E◎语  言 英语
5 t  L0 f# g8 u* H1 k3 m: p4 i1 n; y◎上映日期 2020-05-05(美国)) {: g, ^* d9 H- d2 _! I
◎IMDb评分  7.8/10 from 9,861 users
( A7 M/ m3 Q9 t0 m+ J; L◎IMDb链接  https://www.imdb.com/title/tt11079148/8 M3 L; u9 w2 k& l; |# }
◎豆瓣评分 7.2/10 from 7,889 users* q- P* _1 \" e2 H
◎豆瓣链接 https://movie.douban.com/subject/30345227/7 t; G3 }& _( T; X5 Y8 s' i
◎文件格式 x264 + DTS   R6 h7 i* Y8 k% h9 }. d* h
◎视频尺寸 1920 x 1080
6 N: @# n" }& L9 U9 D& B0 x◎文件大小 1DVD 11.34 GiB% y; Y5 p9 c& T1 p% @
◎片  长 1 h 30 min) V8 d, {  ~: m2 t! X8 l5 C; c
◎导  演 马特·皮特斯 Matt Peters ; F- b) ^6 _) F4 B! @
       克里斯蒂娜·索塔 Christina Sotta
, [1 \$ a. _1 n4 ~◎编  剧 厄尼·阿特巴克 Ernie Altbacker 0 y- D0 d# w, c
       麦格里德·斯科特 Mairghread Scott
$ V1 n9 n& j: x, ?◎主  演 托尼·托德 Tony Todd7 r, W5 R6 y4 ?
       丽贝卡·罗梅恩 Rebecca Romijn1 x5 r+ F+ c7 ~# ?% P: K
       罗莎里奥·道森 Rosario Dawson4 x- P4 `: M) }' a
       雷恩·威尔森 Rainn Wilson: U' k3 [+ g4 H2 l& q
       卡米拉·卢丁顿 Camilla Luddington7 l& H; Y. v, a7 j# g8 W: g
       泰莎·法米加 Taissa Farmiga
. x0 x4 t: j: ?5 j       杰瑞·奥康奈尔 Jerry O'Connell2 g, l. J; l1 R2 ^
       谢默·摩尔 Shemar Moore
4 Y1 |/ }0 A: \" I8 E; z% N# z       克里斯托弗·戈勒姆 Christopher Gorham
+ e' x: i5 }# K( G( W* I       马特·瑞安 Matt Ryan
! O, i7 s+ `: _9 z& g. g9 i       杰森·奥玛拉 Jason O'Mara
0 U3 x; J6 m! J" k- D3 k- Y% ?8 {       连姆·麦肯泰尔 Liam McIntyre
, d8 d3 ]5 n9 {) ~4 l, J: I       约翰·迪·马吉欧 John Di Maggio
) Z4 Y1 p& a' A! E) @/ t+ f/ ^$ i/ V2 E       海登·瓦尔希 Hynden Walch# ~* J: C5 H. N, ^/ n& p# o' Y2 k" z
       罗杰·R.克劳斯 Roger R. Cross
1 {& Q4 {1 ~) ^       雷·蔡斯 Ray Chase0 h& G2 T  m) V) r
       斯图尔特·艾伦 Stuart Allan  \4 x! g5 M" l- u( n8 X$ l" m
       萨奇·阿莱西奥 Sachie Alessio* Z5 Q  G; h! w& a* m
7 w. |2 |' b- K5 c9 U" D
◎简  介  . }6 n6 I/ l/ h4 `: K- x7 d

; V$ A6 m0 e+ U  A Sequel to Justice League Dark (2017) involving Jack Kirby's New Gods.
5 g5 n& _: m" Y2 P1 j( S! w, W7 h/ w% `6 ^0 D' m0 h$ M  l6 h
  正义联盟集结地球上所有超级英雄一起对抗强大的反派达克赛德。5 r: h; n  f$ V7 I  U

& Z& m5 p( I; Y: E$ n& R- d7 ^  Following the decimation of Earth at the hands of Darkseid, the remaining superheroes are forced to regroup and take the war to Darkseid himself if they have any chance of saving the planet once and for all.
# M. B, O" H0 V0 I$ L( F
Video
8 O2 J2 `8 O" j+ iID                                       : 1: P# t  M, r/ y) p& [
ID in the original source medium         : 4113 (0x1011)& E/ {: R; t# a) Q) v
Format                                   : AVC
' x0 Z" @; U% i7 I) V& BFormat/Info                              : Advanced Video Codec, i0 y1 D( K  o5 E; X' d
Format profile                           : High@L4.18 K; \3 D2 a/ N5 T7 j
Format settings                          : CABAC / 4 Ref Frames
! n  t  n. ~. }8 E, ]Format settings, CABAC                   : Yes
3 B+ y+ z+ Y; h: {. c; S# _Format settings, Reference frames        : 4 frames5 ~' G2 h3 s, j; |. b) F
Codec ID                                 : V_MPEG4/ISO/AVC5 @4 F  k" `) ?2 S6 L3 G
Duration                                 : 1 h 30 min
4 p5 l5 J9 _) P9 T, {' Y+ WBit rate mode                            : Variable, s0 I7 i/ ]+ ~0 ?5 n
Bit rate                                 : 14.8 Mb/s3 `& \3 N- V, y" t% A, h  J
Maximum bit rate                         : 40.0 Mb/s3 U" Z4 r' ^$ _( m, P9 H
Width                                    : 1 920 pixels7 g) C2 a! H: a' `  r; X
Height                                   : 1 080 pixels
- u# _! f* f5 f' u  lDisplay aspect ratio                     : 16:9- I5 z, m. J4 j$ Y  U1 ^
Frame rate mode                          : Constant
7 X; c! S$ ]( K* U1 g: T) bFrame rate                               : 23.976 (24000/1001/37687) FPS# Z5 y. P, e  F4 s/ d: t3 n
Color space                              : YUV3 ?  C# h; U9 o$ |
Chroma subsampling                       : 4:2:0. E5 U  g3 R. N# l  f- b1 V! c
Bit depth                                : 8 bits
/ E1 G3 C, S6 Q- I2 T: y% bScan type                                : Progressive0 A! i; O) t/ l' K
Bits/(Pixel*Frame)                       : 0.297
" f/ L; {! B/ c- wStream size                              : 9.31 GiB (82%)
7 o( s3 F3 _5 k" x1 @6 X: \Title                                    : Justice.League.Dark.Apokolips.War.2020.1080p.BluRayCD.REMUX.AVC.DTS-HD.MA.5.1-FGT  L3 g$ G  ^7 G' Z$ a0 l- W) |
Language                                 : English1 e2 y+ W$ |: e% A9 x/ w6 Z$ B
Default                                  : No
% g- A- h) Y( T9 b0 i3 b4 }1 S4 l% PForced                                   : No
! D; S: v' k7 j* ^0 iOriginal source medium                   : Blu-ray
5 {& O, Q1 ?4 }" j$ @0 I( c% ~
( Y$ M5 c' O5 @4 MAudio #1
) L- Z0 u2 ^) gID                                       : 2. d1 g1 D% Q' x$ c) Y
ID in the original source medium         : 4352 (0x1100)! m: J$ n" }3 o8 I  N& K' C
Format                                   : DTS XLL
& k9 U. y) h: w: U$ CFormat/Info                              : Digital Theater Systems
. }- |8 a* o3 ]4 u( x/ R! {Commercial name                          : DTS-HD Master Audio
9 j* O0 L% S+ tCodec ID                                 : A_DTS
* M/ ~, v# e* \$ ^" j$ v$ SDuration                                 : 1 h 30 min
( N4 U2 d9 W9 Y. ~$ ]9 \% OBit rate mode                            : Variable# b$ P3 K9 |1 e2 }; X2 d
Bit rate                                 : 2 320 kb/s
/ m: N. y, r+ T) [5 l: RChannel(s)                               : 6 channels
- Y7 T2 L0 E, v7 L0 s) }4 _7 yChannel layout                           : C L R Ls Rs LFE
8 u( q9 t+ R+ f6 C: h! gSampling rate                            : 48.0 kHz
' ~% p9 i( X' B0 ?! dFrame rate                               : 93.750 FPS (512 SPF)- y4 U- `- P, {( ~* Y
Bit depth                                : 16 bits5 ^2 g6 d3 Z* U5 j1 o$ \
Compression mode                         : Lossless' r- o3 ]7 T8 q. V
Stream size                              : 1.46 GiB (13%)
; d7 d" Y: S* \9 j# a4 y) wTitle                                    : Justice.League.Dark.Apokolips.War.2020.1080p.BluRaycd.REMUX.AVC.DTS-HD.MA.5.1-FGT# F6 U" d: }6 N3 A: A
Language                                 : English
& z# B+ e' f) j7 z! uDefault                                  : Yes
& n  X: C& c1 i! I* z% H  [Forced                                   : No2 v1 `0 |# C7 p2 F- I
Original source medium                   : Blu-ray
4 W7 q8 k4 y8 F% O- {2 \' H9 r8 R+ X" D
Audio #2$ x$ f0 e! b) X# o
ID                                       : 3
* y/ m2 t/ I* X9 \& {$ L# ]+ Y  V  m6 cID in the original source medium         : 4353 (0x1101)
3 n) }( l! V$ i% [Format                                   : AC-3' O: M! `% J! s
Format/Info                              : Audio Coding 3
  M. e$ w* ~) R9 i0 WCommercial name                          : Dolby Digital9 w$ |) V9 ?3 {0 t2 }
Codec ID                                 : A_AC3( z4 p$ ^3 Z% C& t% Q, f* X" Q" d
Duration                                 : 1 h 30 min  v/ ^# D0 \9 U/ B
Bit rate mode                            : Constant
- F/ w. c' e' O, PBit rate                                 : 448 kb/s
4 Z& J/ @& o+ J( Z, B6 BChannel(s)                               : 6 channels% H# w  q0 _) H+ T6 R
Channel layout                           : L R C LFE Ls Rs
7 a6 |9 s9 X3 k5 B( t) r! M- D8 ySampling rate                            : 48.0 kHz$ k& i: J: w! v  @4 m! k3 U# \- N
Frame rate                               : 31.250 FPS (1536 SPF)) }  G; V3 }6 T5 `/ m9 V& D9 r  i5 ^
Bit depth                                : 16 bits- o( z  ~3 R5 |1 O  O1 f1 E" U$ {
Compression mode                         : Lossy
) T# \+ l) K, hStream size                              : 289 MiB (2%)
' E4 b1 J5 {' Q' _Title                                    : Justice.League.Dark.Apokolips.War.2020.1080p.BluRaycd.REMUX.AVC.DTS-HD.MA.5.1-FGT
6 O% o) t3 q: X1 C2 \1 wLanguage                                 : French
9 A3 h; I7 b' CService kind                             : Complete Main% f4 F* T5 z+ `, m# Q! q3 T- i
Default                                  : No
* _$ _/ e0 P7 Z, A6 `Forced                                   : No
% h/ D* d4 V( G4 j. d+ v* h, {$ [* r( TOriginal source medium                   : Blu-ray
- H8 K8 f# ~* ?0 \) _
& ]9 v. p) n3 y: I# ~" O7 EAudio #3
( Y/ u/ i4 U5 V  wID                                       : 4  G/ M1 ~$ A7 I& ]. ?
ID in the original source medium         : 4354 (0x1102)
% [' k% x) z. c& e( d' wFormat                                   : AC-3! D- o9 ?/ X9 \' L0 i* _- ~
Format/Info                              : Audio Coding 3  i9 K, r1 S) G# _. D5 A2 V8 ~$ [
Commercial name                          : Dolby Digital0 b2 V# a1 I0 g, i  s! y3 n
Codec ID                                 : A_AC3% j* h/ W9 X; }! L
Duration                                 : 1 h 30 min4 n/ E) X4 u9 m
Bit rate mode                            : Constant2 C- w5 W( [5 ^+ j& y( H" [0 `
Bit rate                                 : 192 kb/s
' k+ q: r2 T5 d% c7 SChannel(s)                               : 2 channels
4 k# x& R6 b0 ?2 x  bChannel layout                           : L R
6 Y- _, b9 L' x, r0 [Sampling rate                            : 48.0 kHz- V% s$ A/ ~& d/ p( B; m
Frame rate                               : 31.250 FPS (1536 SPF)
7 K6 ~' u* K" N& dBit depth                                : 16 bits, U- K( y) Z  i+ E0 ?, i
Compression mode                         : Lossy
/ Z1 U1 U' H6 S" S2 YStream size                              : 124 MiB (1%)
# U; F' C7 P- a/ E/ A  bTitle                                    : Justice.League.Dark.Apokolips.War.2020.1080p.BluRaycd.REMUX.AVC.DTS-HD.MA.5.1-FGT- M% w3 t4 _8 L
Language                                 : Spanish5 K# b% K  v, ~7 J
Service kind                             : Complete Main. e1 {2 @% s8 t* S: w0 r
Default                                  : No
. a2 R! M: y0 o; }8 ^0 g1 i1 sForced                                   : No
) ~, u/ u! A8 [3 b, [Original source medium                   : Blu-ray# n6 Y( N- }  J8 G# M

0 M+ |: ~% L( K9 K/ ^) D; WAudio #4
( W3 x6 I9 W" T0 c- KID                                       : 5  b& L. _. U: T5 b% E: I/ l
ID in the original source medium         : 4355 (0x1103)
8 G+ G1 i+ t+ `7 [Format                                   : AC-3. l5 A3 [4 v' I& [2 r
Format/Info                              : Audio Coding 3& B( m9 I3 u( {; f# S* P
Commercial name                          : Dolby Digital
5 y( K9 m* B, `0 m. S0 bCodec ID                                 : A_AC3
# C5 r: a5 h/ B7 N" ?Duration                                 : 1 h 30 min$ s9 t% d8 N6 M0 K2 w! a/ v9 L+ `
Bit rate mode                            : Constant
( O( W: D: l- u1 J- NBit rate                                 : 192 kb/s5 K3 t, K+ x/ T+ Y2 E* ~
Channel(s)                               : 2 channels
) y: J+ Z6 j% C. g, u4 sChannel layout                           : L R2 l7 M% d: [, ^8 z# ^  O1 U
Sampling rate                            : 48.0 kHz" P2 d1 U/ T9 [7 T9 W1 w) ?
Frame rate                               : 31.250 FPS (1536 SPF)
' E$ b4 u! i. Q$ J& x0 K0 kBit depth                                : 16 bits
$ g3 h0 e3 [9 C' }  k& ^/ h, k4 uCompression mode                         : Lossy
0 o# z  T6 x/ T4 v; ~& D* ZStream size                              : 124 MiB (1%)( Z% D0 `( O  i" q( {& _7 F
Title                                    : Justice.League.Dark.Apokolips.War.2020.1080p.BluRaycd.REMUX.AVC.DTS-HD.MA.5.1-FGT
7 b9 q; q7 n& w+ c; W, f8 ^2 [Language                                 : English& h! a- S* w0 e
Service kind                             : Complete Main
3 Q0 \+ P+ s( e( ^Default                                  : No2 z/ C& T" T9 d: k2 ~. p" ?: g% q6 V
Forced                                   : No. N3 O: N% `( h' }5 Q# \
Original source medium                   : Blu-ray; T+ Q9 s2 o) Q$ y

, G) ^: a' z' E! {8 @Text #1; W+ f/ ?. U# j# ~! Y/ ]
ID                                       : 64 x2 [, G1 Z3 K7 u6 t3 S
Format                                   : UTF-8
. K. a- G) J* S) b+ K. L' }- OCodec ID                                 : S_TEXT/UTF8
: M/ U% s6 ^! p" s4 t: t; TCodec ID/Info                            : UTF-8 Plain Text( h( D2 D/ ~: X; F; W
Duration                                 : 1 h 24 min
8 k9 ~) q5 m5 h& s) [" ]2 U8 t! WBit rate                                 : 45 b/s% |& O3 f( Z4 |5 q5 Z7 M/ {5 Q
Count of elements                        : 1004/ @* X' d4 z  B3 w9 Q. c1 ]% x
Stream size                              : 28.4 KiB (0%)
1 M" m* ~5 _7 K& V4 T4 z+ @8 ]Title                                    : English-SRT
+ N7 q# T- s: ]Language                                 : English; Z5 o3 g( ^6 L  }  j7 _
Default                                  : Yes  ], J/ p; F. B
Forced                                   : No
9 `( Z6 k" x' W, S, h
4 F0 ]0 \: B) \8 XText #2
* d* j! C1 R5 u5 TID                                       : 75 n7 v; r3 \* }7 j! a2 S+ T7 E# [
ID in the original source medium         : 4608 (0x1200)1 B6 m9 |6 P' u) G0 E5 S  v6 ~
Format                                   : PGS; L  a! H8 B3 l3 c* l9 _+ X& L
Muxing mode                              : zlib& P6 u" E/ }% _
Codec ID                                 : S_HDMV/PGS
! p; Q: g* ^3 b# @Codec ID/Info                            : Picture based subtitle format used on BDs/HD-DVDs4 p: a2 ^5 B, h" ]- b4 n
Duration                                 : 1 h 25 min9 j/ w  @' K0 {) ~# o
Bit rate                                 : 33.1 kb/s! w' U- n% h9 ]% [4 g! P: p
Count of elements                        : 2490
  @. }6 Q5 Q- a! g0 v7 {Stream size                              : 20.2 MiB (0%)
; H( }; [- V. [! _5 ?Title                                    : English-PGS4 E. E0 x% _/ U  Y
Language                                 : English
7 J8 m( {, Q% h/ m* L3 EDefault                                  : No4 t) v1 E( n! L  Z# G  K! U
Forced                                   : No
+ H& p. w7 v/ p( @5 U0 V  vOriginal source medium                   : Blu-ray
2 k% y0 e- f; n
$ M- D4 s# n' y4 @Text #3( T* ~' f  V8 h' T) [4 }
ID                                       : 87 k0 ~7 h1 X6 `
ID in the original source medium         : 4609 (0x1201)5 h  `* T( y: f/ `" |, w0 I/ ~
Format                                   : PGS
# z5 Q7 ]) q/ CMuxing mode                              : zlib4 c7 y# ]) I5 c2 B) c7 V
Codec ID                                 : S_HDMV/PGS" g! J. }3 R: m' ?: m* }
Codec ID/Info                            : Picture based subtitle format used on BDs/HD-DVDs
0 d- F  E+ M4 e  x1 SDuration                                 : 1 h 29 min
0 W, d3 J) j  DBit rate                                 : 28.5 kb/s
% \7 d! p/ ^" B$ }Count of elements                        : 1974! ^: L5 |5 b2 f& T) M& Y
Stream size                              : 18.2 MiB (0%)0 b- D/ P, q" v
Title                                    : French-PGS
2 d4 s; k3 C) ?. j" K0 b) zLanguage                                 : French
' c9 x% a2 Q3 q  b: x  P4 ZDefault                                  : No. t4 K: [9 _& m$ w+ a7 l7 G
Forced                                   : No
/ C  w! e4 P8 R. b. SOriginal source medium                   : Blu-ray$ u- M4 {: H* x, V. ?

# a6 ~/ h$ F# A- e8 P& J3 A# X7 yText #4# s( {( x3 y- t9 J- O' ]
ID                                       : 93 M: o* K+ m( z: T. m$ [4 V
ID in the original source medium         : 4610 (0x1202)
7 W& f3 |2 P9 s, AFormat                                   : PGS
; y" @  }5 ^) M% ^$ \Muxing mode                              : zlib6 m- A+ ^! Y! @
Codec ID                                 : S_HDMV/PGS/ @6 o# @* r' e5 h5 T( |0 S
Codec ID/Info                            : Picture based subtitle format used on BDs/HD-DVDs
9 D6 b# e8 B/ u( H$ E1 o# _! l" t' IDuration                                 : 1 h 29 min6 M* \; r' [$ x! J7 X) F. v& u3 g7 m
Bit rate                                 : 28.4 kb/s: q2 K4 n, j+ I7 a- y$ z8 X
Count of elements                        : 1978
4 v. P# q, p7 G; j% UStream size                              : 18.1 MiB (0%)
% }8 ?" f- t" M4 r- VTitle                                    : Spanish-PGS
! B( L9 G: Q9 I! I6 SLanguage                                 : Spanish) b- S; `2 L- n. F, P3 Y
Default                                  : No
) ~( r, O+ d' B& d2 s* b; P- FForced                                   : No
, z" ?" u" ^% `7 ZOriginal source medium                   : Blu-ray
% J. l! z' J/ u- K) p( {
( `' D( Z/ P; {3 r& h9 m" }Text #5/ Z* W8 @5 Z. H- q- j
ID                                       : 10
* ~, ~+ K0 T8 L2 C; }ID in the original source medium         : 4611 (0x1203)' |# n1 x% E8 [/ X/ i; s+ K1 i
Format                                   : PGS/ w  ?) ^" S! r8 Z
Muxing mode                              : zlib9 _2 g: g9 l6 i. Z/ h$ S& R
Codec ID                                 : S_HDMV/PGS
) p! y9 N0 w  rCodec ID/Info                            : Picture based subtitle format used on BDs/HD-DVDs# F1 p8 C/ b2 I9 M) m) u
Duration                                 : 1 h 24 min$ v! f: e! P  _1 d# v2 Z4 E
Bit rate                                 : 21.3 kb/s; U' j" @4 X$ }# X( |4 t0 Y
Count of elements                        : 1770# I/ n3 c( i0 W1 @
Stream size                              : 12.9 MiB (0%)
0 N0 Y4 `$ `4 ?Title                                    : Japanese-PGS
& `) ]& Z6 D3 F, TLanguage                                 : Japanese; Y  {0 ^) e7 k# i. p
Default                                  : No
8 }- n3 x* ~7 K, ^* e$ P" VForced                                   : No
3 o# H* S8 Y5 C' `  t! y: }# GOriginal source medium                   : Blu-ray
1 O% S& r" U8 t: H0 O7 n5 J' d
5 T% s" g3 @6 O! b7 L. M! b; XText #6: G8 i, [/ p! j! q7 P) c! r
ID                                       : 11
) Y% X1 X" n1 h9 i! I; f8 H2 G3 k7 p4 _ID in the original source medium         : 4612 (0x1204)$ N1 v$ d9 e- y" P6 G" }+ R
Format                                   : PGS
; X* s/ F9 _8 l- @5 ^/ |5 OMuxing mode                              : zlib
7 |, ]" c: v/ W0 s" S$ o  b8 _Codec ID                                 : S_HDMV/PGS9 w# @2 i/ z: Q/ m+ o
Codec ID/Info                            : Picture based subtitle format used on BDs/HD-DVDs$ W# x* R9 x4 }! F
Duration                                 : 1 h 29 min
: j' y! [1 b8 n; M7 jBit rate                                 : 49.2 kb/s
; x$ C3 R1 a6 E2 M$ H9 i9 uCount of elements                        : 2830
1 [, Z  o7 P2 b; ?Stream size                              : 31.6 MiB (0%)- W) ^# @# x. O  u
Title                                    : Japanese-FORCED-PGS
9 P" A8 o, o2 I9 }3 E* P5 gLanguage                                 : Japanese
6 w7 M* i: o; P( GDefault                                  : No
  T- ~8 l. c  S  e- hForced                                   : No* e, x( |, u7 I, h* V2 _
Original source medium                   : Blu-ray
9 g+ a+ A6 E( M4 n: g* s' x, F  X
9 ^% h1 l( G5 W: Y! c: U/ TText #7: F1 G  W- Z7 L" [1 o
ID                                       : 12% e7 X  V$ B; T
ID in the original source medium         : 4613 (0x1205)* Y! g  W( R6 ]" ^9 C2 C% B: k
Format                                   : PGS" R" ^. R8 {4 _. z  _
Muxing mode                              : zlib6 M" E8 P  N6 B* C2 Q  J
Codec ID                                 : S_HDMV/PGS
5 r) ~# D7 ^3 ACodec ID/Info                            : Picture based subtitle format used on BDs/HD-DVDs! x6 U+ N& P0 d4 S  S- S
Duration                                 : 28 min 15 s; d  Y3 \% N  F% U0 \; Z  Q8 `- E" M8 K
Bit rate                                 : 491 b/s/ y0 m' J0 a2 z3 L" j
Count of elements                        : 8
, F. j- o# H: e5 X* Q( vStream size                              : 102 KiB (0%)
4 H" [* h8 o  U7 k3 rTitle                                    : Frecnh-FORCED-PGS6 `# Q* S5 }; U6 a$ ]% w9 a
Language                                 : French
* S* V% b6 h- R. Z2 q9 M" oDefault                                  : No' n2 y, h5 I; t2 R8 T
Forced                                   : No
; d5 _) R& {2 q4 V1 q3 ^" ]Original source medium                   : Blu-ray6 P$ y, h4 \2 s$ D: c* k) W: K

' M! ~% Q8 G5 }# |. ~8 \7 u( EMenu
5 {3 `. d7 W2 W" q00:00:00.000                             : en:Chapter 01
4 k) i& J1 V; q- `- |: p00:08:30.885                             : en:Chapter 02
6 Q, ^. Y" c' P; F* i6 F- R6 \00:17:35.095                             : en:Chapter 03
& D# h5 C" F" T00:27:06.625                             : en:Chapter 04
% S2 ?* u. T$ F- k0 X00:35:31.170                             : en:Chapter 05" {) X+ r) ?) R+ t2 L: B
00:44:35.673                             : en:Chapter 066 @) L  L5 M; W  V& i
00:53:16.109                             : en:Chapter 07
: e! r& z. d5 ~8 L, a6 y01:01:53.626                             : en:Chapter 08# V/ U% u3 [3 X3 N
01:08:14.340                             : en:Chapter 09
  K2 p) U  E8 @- |9 L; [- d01:17:38.195                             : en:Chapter 10
0 d7 t, b$ V+ b5 g" ?; J. T) F01:26:55.043                             : en:Chapter 11
7 s4 Z% @( D1 v8 A1 K- P) O5 \
游客,查看本帖隐藏内容请回复 | 加入VIP贵宾组可免积分免回复下载 立即了解 | 还不是会员:点击获取邀请码 Invitation Code

相关帖子

4

主题

118

帖子

922

积分

Sponsor

金币
209 枚
体力
482 点
QQ
nbcrc 发表于 2020-6-12 13:56:51 | 显示全部楼层
每天都来蓝光论坛看看,我爱蓝光电影。& k; v4 Q) A3 _- p" U% i% |2 {( H3 Q
Thank you for sharing such a good resource polite reply, very sorry for myself!# u$ A: ?" \( }" C
蓝光论坛里 ...

35

主题

999

帖子

3807

积分

Sponsor

金币
434 枚
体力
1334 点
lanpanshuma 发表于 2020-6-13 06:42:48 | 显示全部楼层
这么好的帖子不回对不起自己!0 B6 V' Y0 V4 A" @
I love your Blu-ray movies Forum!
. u9 V+ w5 a) i) `) G
该会员没有 ...

0

主题

321

帖子

1703

积分

Sponsor

金币
581 枚
体力
424 点
huayoujing 发表于 7 天前 | 显示全部楼层
啥也不说了,楼主就是给力!, ~9 w7 {% I) p! {% W; ?
要想蓝光电影论坛发展好,资源多,就靠你我他!To the development of Blu-ray movies forum, resources and more depend on you and me!
+ |8 i$ l- P7 T& S  x; }% e

本版积分规则

小黑屋|Archiver|蓝光电影资源网

GMT+8, 2020-7-5 14:16

快速回复 返回顶部 返回列表