BluRayCD Forum

 找回密码
 立即注册【分享大片】

QQ登录

只需一步,快速开始

查看: 159|回复: 2
收起左侧

[4K极清电影] 黑暗正义联盟:天启星战争 [4K REMUX无损版] Justice League Dark Apokolips War 2020 2160p BluRaycd REMUX HEVC DTS-HD MA 5.1-FGT 33.24GB

[复制链接]

5374

主题

5728

帖子

6万

积分

Forum Moderator

金币
3707 枚
体力
25335 点

卓越贡献勋章VIP蓝光勋章

迅雷电影 发表于 2020-6-24 19:02:56 | 显示全部楼层 |阅读模式
A Sequel to Justice League Dark (2017) involving Jack Kirby's New Gods.5 D' v  ^6 o: B) p# n4 J

% i9 `% ~$ C& Y7 @$ b# h 01.jpg
5 N* z; v, w' U/ j: N! S$ n
7 l: w3 F# }, Y; \8 g7 m◎译  名 黑暗正义联盟:天启星战争6 H' Q& ^5 H+ U2 b
◎片  名 Justice League Dark: Apokolips War4 Z3 S7 y0 D$ j5 G+ ~- e/ r/ J1 }
◎年  代 2020
! j6 e% W4 f+ T1 Y6 |8 Y◎产  地 美国6 K* Y7 h7 \# y; p/ S
◎类  别 动画/科幻1 A1 v' D5 Z9 p
◎语  言 英语
4 T2 X( e. w2 N4 X◎上映日期 2020-05-05(美国)0 n& r, ^) S" s6 w4 K# t( W
◎IMDb评分  7.8/10 from 10,548 users
+ |- T! U  b& V. P◎IMDb链接  https://www.imdb.com/title/tt11079148/5 B3 |7 L7 }8 p: h  y0 {% h
◎豆瓣评分 7.1/10 from 8,348 users& B& a0 F; L- n- k
◎豆瓣链接 https://movie.douban.com/subject/34777818/
/ E: k7 r* F8 Q" `, v◎文件格式 x265 + DTS $ }" K/ u4 q* _2 m4 H9 z. w  ^
◎视频尺寸 3840 x 2160$ j8 _5 u( }* t, M
◎文件大小 1DVD 33.24 GiB: c3 }% ~' Z' u& K$ [
◎片  长 1 h 30 min
9 K! _. g5 F/ _8 N) W3 _◎导  演 马特·皮特斯 Matt Peters 7 h7 k1 _+ H5 g) M+ ]1 z
       克里斯蒂娜·索塔 Christina Sotta
9 Q+ b; ^# p( g◎编  剧 厄尼·阿特巴克 Ernie Altbacker
- c+ ?! H% n% q       麦格里德·斯科特 Mairghread Scott: X. j8 Z* J( v, v" p0 `: t$ c
◎主  演 托尼·托德 Tony Todd
6 Z/ ~9 U7 K& t       丽贝卡·罗梅恩 Rebecca Romijn
8 e# e/ H# F7 I4 i7 x       罗莎里奥·道森 Rosario Dawson; M: x" c( Z" B
       雷恩·威尔森 Rainn Wilson" b8 e# E4 L, N7 C/ [
       卡米拉·卢丁顿 Camilla Luddington
( ^! H& h* }8 w       泰莎·法米加 Taissa Farmiga7 d, I. H/ S2 u/ Q4 f/ ~
       杰瑞·奥康奈尔 Jerry O'Connell+ j0 d' \; Y3 k+ }( |: M0 U7 T
       谢默·摩尔 Shemar Moore
! m) |* G  {- y8 Q) G9 ~       克里斯托弗·戈勒姆 Christopher Gorham, u0 k. z  {* m" l# Y
       马特·瑞安 Matt Ryan' p) j$ a4 Q8 X% y
       杰森·奥玛拉 Jason O'Mara
9 J5 _; I" g9 H  y: n       连姆·麦肯泰尔 Liam McIntyre
5 A2 P3 z5 s$ U6 h/ T$ L       约翰·迪·马吉欧 John Di Maggio
- Q9 Z4 U# z  L3 k3 Y, b       海登·瓦尔希 Hynden Walch& O2 B5 o6 D* n( E, V; H+ h6 d
       罗杰·R.克劳斯 Roger R. Cross4 W; l! ~5 s9 M( u4 }
       雷·蔡斯 Ray Chase- Z2 `7 h  u1 v
       斯图尔特·艾伦 Stuart Allan9 G( W- B/ z1 J0 o
       萨奇·阿莱西奥 Sachie Alessio
/ s: y$ b2 B. v) Q4 |
1 l9 \  g4 q# V6 L* j◎标  签 DC | 动画 | 正义联盟 | 超级英雄 | 美国 | DC动漫 | 漫画改编 | 科幻* y6 [& y* Q7 ~5 M% R* o  N( l' L

7 U; |- }6 T  z; h: m) S. E◎简  介  
7 _; e3 U4 g  D: {5 a. i6 d- h1 z
1 R+ ]( r+ H5 W, U$ u  正义联盟集结地球上所有超级英雄一起对抗强大的反派达克赛德。
$ m4 m) ]( B! I4 ^) T; M# Z) H3 U' R
  Following the decimation of Earth at the hands of Darkseid, the remaining superheroes are forced to regroup and take the war to Darkseid himself if they have any chance of saving the planet once and for all.9 {; p+ l  z4 I! A9 N
Video
" k5 m  G$ J- w- W* N+ y* M7 }) TID                                       : 1
- h- q( F* {! U1 T: OID in the original source medium         : 4113 (0x1011)1 t  W" ]7 _  Q- e8 s+ |
Format                                   : HEVC- H) O8 y0 v3 G- h3 y1 _9 V
Format/Info                              : High Efficiency Video Coding$ F% o' D( i( {( K6 l7 W! d0 v+ h" [
Format profile                           : Main 10@L5.1@High
" W% e+ g9 d0 u4 J) x, dHDR format                               : SMPTE ST 2086, HDR10 compatible
! k( W. F# M4 o3 R  Y! ~Codec ID                                 : V_MPEGH/ISO/HEVC. x# `, Q# K3 O* N5 w% h
Duration                                 : 1 h 30 min) ^# c) b( E5 G
Bit rate                                 : 49.8 Mb/s( G5 A; P' V# o- z
Width                                    : 3 840 pixels
( J) `! H8 i+ b/ l# f% i; gHeight                                   : 2 160 pixels" i! C1 N' k! x& X2 n: ]
Display aspect ratio                     : 16:9
7 S( D9 [: u. [6 K( X, qFrame rate mode                          : Constant0 @& |0 w7 `& t1 T' l
Frame rate                               : 23.976 (24000/1001/37687) FPS1 ~2 C, D) M! u, ~* ~% M
Color space                              : YUV8 G) ~1 }3 W# \. t5 g0 J8 k! M
Chroma subsampling                       : 4:2:0 (Type 2)
/ g" ]' d% _# vBit depth                                : 10 bits3 T7 j/ a/ g+ U2 @
Bits/(Pixel*Frame)                       : 0.2508 L1 R$ Q, \$ q# F+ u6 H) q- t
Stream size                              : 31.4 GiB (94%)  v, f7 @, v* E) s/ d  V  Z
Title                                    : Justice.League.Dark.Apokolips.War.2020.2160p.BluRayCD.REMUX.HEVC.DTS-HD.MA.5.1-FGT
! y7 \9 g& {( W/ A1 o( MWriting library                          : ATEME Titan File 3.9.0 (4.9.0.0)        # W/ G: I! z) U0 r
Language                                 : English
# s6 r! i) A# _Default                                  : No, A! R4 t# c* i5 E, g4 \" d4 Q8 q
Forced                                   : No; f; w$ W* g) a1 m/ _
Color range                              : Limited; ?/ _. K3 `1 O, L: d. m
Color primaries                          : BT.2020+ T# f$ J/ z- q! u5 u$ I
Transfer characteristics                 : PQ# v5 X; v3 N% _8 r
Matrix coefficients                      : BT.2020 non-constant
& ~& {6 j' b) LMastering display color primaries        : Display P3( I& y, s1 o& l; }, ^& _4 j; a
Mastering display luminance              : min: 0.0050 cd/m2, max: 4000 cd/m2
' r" t$ b9 L1 ~. Y0 [2 a1 K" \6 yMaximum Content Light Level              : 343 cd/m26 @0 K% g4 w3 Q$ T" ~
Maximum Frame-Average Light Level        : 106 cd/m2. h! S% @  I, b4 R
Original source medium                   : Blu-ray0 z. f, K8 Y& Z7 [7 l! ?
/ f, r6 c: f8 x
Audio #1
& [& K, Y) ^+ XID                                       : 2
3 K4 C* A, H- ?+ c: U" BID in the original source medium         : 4352 (0x1100)
, Z) {+ l& Q/ U( k, Y: rFormat                                   : DTS XLL2 I: j7 G7 ^6 m1 m; {( @- L! Q
Format/Info                              : Digital Theater Systems
5 l' n, u4 [2 k: w% n) A/ ZCommercial name                          : DTS-HD Master Audio
+ x6 ?" q" Y7 c% ?4 u3 ZCodec ID                                 : A_DTS
1 ~" \1 t) o6 C& L9 A# Q6 S; l% n1 IDuration                                 : 1 h 30 min( L& T+ w8 [3 T. J8 k6 @
Bit rate mode                            : Variable- {: S3 R. j/ y1 t
Bit rate                                 : 2 320 kb/s
/ S& [1 I: s, s* Q5 {$ k; RChannel(s)                               : 6 channels/ W# i& ]' u, s7 z
Channel layout                           : C L R Ls Rs LFE
: |- N; o) E8 l, o4 B1 q) \Sampling rate                            : 48.0 kHz9 g( G# d; `, @- y" A" ]
Frame rate                               : 93.750 FPS (512 SPF)
4 I- A1 \% W  M" X: s" ZBit depth                                : 16 bits; q0 @4 w7 x4 Z
Compression mode                         : Lossless
! q- F4 V1 p. ], g+ TStream size                              : 1.46 GiB (4%)1 V6 v$ o6 W9 C! C' m# i& f
Title                                    : Justice.League.Dark.Apokolips.War.2020.2160p.BluRaycd.REMUX.HEVC.DTS-HD.MA.5.1-FGT
. E! k8 W9 I* j7 RLanguage                                 : English5 i6 c) B& }) K
Default                                  : Yes
" L: g6 g2 J1 x9 ]% TForced                                   : No
0 h3 B5 ^: W6 s* ~, AOriginal source medium                   : Blu-ray
6 E3 F) z/ k8 C( m6 S  @
+ g( k7 i* g- P7 U( aAudio #2# T' z& h- Q  W1 D. g$ W: B
ID                                       : 3
2 N+ \0 G# T& m; c0 @ID in the original source medium         : 4353 (0x1101)7 z4 k8 \' m( `4 c. N
Format                                   : AC-3
0 E" r# z" e1 x3 m  J9 s+ \Format/Info                              : Audio Coding 3  T1 Y  k5 @/ e; X( I, P# a, R
Commercial name                          : Dolby Digital, G1 c1 F; W. @" l( N" L& O
Codec ID                                 : A_AC3
+ l, `% d4 z! ^" m; x8 y4 i2 [Duration                                 : 1 h 30 min- e3 M: [5 o# P/ Q0 v  F7 w
Bit rate mode                            : Constant/ q7 @+ O" Y: D( u9 ~
Bit rate                                 : 448 kb/s3 G- C( Y7 f, M5 v4 Q$ `
Channel(s)                               : 6 channels
$ O/ m, B* j6 b0 u: |7 ~% yChannel layout                           : L R C LFE Ls Rs
0 M1 s' @( h! H, t, xSampling rate                            : 48.0 kHz9 z+ D; ]8 j! K) O2 ^
Frame rate                               : 31.250 FPS (1536 SPF)/ r! I6 d- b  ~
Bit depth                                : 16 bits
3 o4 P# ]4 O; P( hCompression mode                         : Lossy7 w4 G6 r8 F. [5 l. f/ _6 J& E
Stream size                              : 289 MiB (1%)
! P0 e0 j  [. h8 J* rTitle                                    : Justice.League.Dark.Apokolips.War.2020.2160p.BluRaycd.REMUX.HEVC.DTS-HD.MA.5.1-FGT0 i8 G# i" M8 f5 X
Language                                 : French/ T5 [3 d* f5 C7 Y
Service kind                             : Complete Main
7 h( r- {/ J, R% [Default                                  : No; J/ z" j( F: z. a- b* i/ V
Forced                                   : No; R) U- k+ H  r3 o. n4 i
Original source medium                   : Blu-ray4 K8 C$ ^* i6 S" O8 f' P3 T

# [  ?- t( s' m; M% m8 aAudio #32 U, r' p  P3 v9 s' _
ID                                       : 4) F! G9 j7 C' f0 Q3 d; q. f9 @
ID in the original source medium         : 4354 (0x1102)
! f$ i* U/ o. `# F) M$ |4 O9 ZFormat                                   : AC-3
# r. Z2 @3 D* T+ S5 n% ]& u' c' ZFormat/Info                              : Audio Coding 3
9 Q8 p; w6 b; U+ r+ Y: s( N# ~3 CCommercial name                          : Dolby Digital# N8 ?/ P5 _! C& i/ e( c% W+ C
Codec ID                                 : A_AC3
$ v; t# Z1 I# QDuration                                 : 1 h 30 min; \4 c  @4 I- `. h& z- K! w
Bit rate mode                            : Constant4 }# N$ B  q* ^0 w+ k8 T; L- o
Bit rate                                 : 192 kb/s) \/ K( B/ k4 v- T( Z1 I( a. v8 N
Channel(s)                               : 2 channels
" \( I$ f% J9 s( i2 j( ZChannel layout                           : L R+ L0 ~7 m& G6 |1 Y
Sampling rate                            : 48.0 kHz
% t6 P4 e3 Z- X% HFrame rate                               : 31.250 FPS (1536 SPF): c5 Y3 [6 T/ a* K
Bit depth                                : 16 bits) A& w7 i5 r4 ~$ T$ \. n! _
Compression mode                         : Lossy  V+ n( S& O& R) N7 C: g
Stream size                              : 124 MiB (0%)
* a9 }% g) D# U# _Title                                    : Justice.League.Dark.Apokolips.War.2020.2160p.BluRaycd.REMUX.HEVC.DTS-HD.MA.5.1-FGT8 @0 M( \* R1 N8 `4 o0 r# _
Language                                 : Spanish
  t" G2 E1 k& T8 |Service kind                             : Complete Main% O3 p; f& V" L' A5 ^
Default                                  : No
, b$ D( X$ N8 R3 W! kForced                                   : No
  O4 o) R' k" Y# O. @* R$ z1 K+ fOriginal source medium                   : Blu-ray3 u! ^' c* ^- c* V* z+ u. _
% [- Q  Z% q4 H4 b3 b- w
Text #1. J, U& Q3 Y* {7 [! P. y
ID                                       : 5& h' w* R9 X: g3 m% d9 b7 ~6 e
Format                                   : UTF-8
, E1 ^7 ?$ H+ s5 h1 Z$ FCodec ID                                 : S_TEXT/UTF8
5 S" m4 P+ D* ^# x; \Codec ID/Info                            : UTF-8 Plain Text
* o% h% C. w7 ODuration                                 : 1 h 24 min
6 V! [% e. C0 {& `Bit rate                                 : 45 b/s
& g# ]. V) s6 sCount of elements                        : 10042 R% l8 V: p2 K, t% g  t2 T9 T! q
Stream size                              : 28.4 KiB (0%)
/ ?- j0 L0 b7 ~' `4 C1 {Title                                    : English-SRT
+ w5 }) n; a; w& ^  k- _0 r. p$ ELanguage                                 : English) j, Q# [) a% ?# l( ~9 {
Default                                  : Yes
& B: k) \  E! G( ~; SForced                                   : No7 Z: z: q* J- A) }
4 j. `) {/ q9 P& {4 @% A- l
Text #2
! O. ~" v% L/ l8 V2 P4 {" y, @ID                                       : 6! i, e8 I( _$ r/ t
ID in the original source medium         : 4768 (0x12A0)0 w4 k3 t9 j: X7 @' d
Format                                   : PGS
5 ^9 m7 O# b& \" z0 E) Z0 c6 xMuxing mode                              : zlib! A. O) _7 }3 q( X5 D2 @
Codec ID                                 : S_HDMV/PGS
# d- ^6 V" v/ m% fCodec ID/Info                            : Picture based subtitle format used on BDs/HD-DVDs
, p3 y( T7 x0 R0 `Duration                                 : 1 h 25 min6 }8 ^7 G+ o* R! m. K/ x# K
Bit rate                                 : 32.6 kb/s1 C! H1 r/ ?* r
Count of elements                        : 2490
* H1 p/ B& l# m' _Stream size                              : 19.9 MiB (0%)
' w; n( j# r% U- F0 E. C, _Title                                    : English-PGS
9 L. Q& `- t$ g. G1 l, Y5 d& HLanguage                                 : English
+ t: }5 W  m, y/ b1 u; e' kDefault                                  : No
/ P+ m% @5 i; i/ Y$ v. q; t) iForced                                   : No
8 G; h3 {  ]% ?2 [4 T* R  JOriginal source medium                   : Blu-ray+ \' [* I4 F5 ?: W7 [2 h
- E; _* `# l1 ]9 p
Text #3
. e# k/ `& l( fID                                       : 7
; ~* Q7 i( G. D/ a2 uID in the original source medium         : 4769 (0x12A1)( s9 J+ L& [+ r
Format                                   : PGS) Q; j3 v$ G% C. H) V
Muxing mode                              : zlib
7 c0 I/ G8 ~4 ]4 [; q. [( m4 {Codec ID                                 : S_HDMV/PGS
0 O5 j; K' J- qCodec ID/Info                            : Picture based subtitle format used on BDs/HD-DVDs
! Q5 y- ]1 u: \4 eDuration                                 : 1 h 29 min
% A, |& k' H1 f$ p$ L1 w! [( XBit rate                                 : 27.9 kb/s& j: @! r" L& p
Count of elements                        : 1974
+ X! F% [2 L8 y& B( M* i5 T, gStream size                              : 17.8 MiB (0%), ^' ^/ H% |9 o4 ?
Title                                    : French-PGS
/ O- y, V# O8 w& {) ^; {6 }Language                                 : French
: W+ b; n' c/ v' cDefault                                  : No8 c) s/ ]1 D$ X* }' z5 K) r
Forced                                   : No
) G6 c( w/ W; _. ROriginal source medium                   : Blu-ray
& l" K' X" r) O: X# @% F
! }* a- D3 I* ~. u3 GText #4
: N4 S6 {) S, R5 \3 GID                                       : 8
  q6 [; ~  I8 l$ wID in the original source medium         : 4770 (0x12A2)% T" G" g- o; P+ `; e- b3 A3 x% E8 Z
Format                                   : PGS
7 O9 k# W. @5 mMuxing mode                              : zlib6 {6 H) N, H# T
Codec ID                                 : S_HDMV/PGS
' [0 T( }; o. T3 \- L- zCodec ID/Info                            : Picture based subtitle format used on BDs/HD-DVDs2 {# X) s2 p% L
Duration                                 : 1 h 29 min
# H3 n# f# O) s, FBit rate                                 : 27.9 kb/s  `4 v' i4 Z+ @7 E  h7 v, J
Count of elements                        : 1978) D/ T4 ~* \/ D; y2 B6 }
Stream size                              : 17.8 MiB (0%)* V) j& @- k7 |" h7 U- |2 \
Title                                    : Spanish-PGS# g* T6 d2 I) ?4 n# u; F3 a
Language                                 : Spanish
1 p( b- T) E2 Z* YDefault                                  : No* T/ u' j3 w2 _
Forced                                   : No
2 \3 F) y. V: f0 [Original source medium                   : Blu-ray
5 ~& i' t6 z( ?/ F- k% ?' e
) w* w) |, w4 P) ZText #5
6 Q9 s& R* u6 Z$ }9 h1 J% w' _% XID                                       : 9+ A# `! Y5 K+ @: @
ID in the original source medium         : 4771 (0x12A3)
$ j$ ~8 h  L% C; W; ~% a% aFormat                                   : PGS$ k: P- j% X9 U" i" j
Muxing mode                              : zlib
5 U' ~/ B8 \' h0 T8 q* {1 CCodec ID                                 : S_HDMV/PGS- T: K1 |% P' F
Codec ID/Info                            : Picture based subtitle format used on BDs/HD-DVDs& M8 N% E6 M7 L/ K3 f
Duration                                 : 28 min 15 s
, z: h# l4 m. }4 `; T+ SBit rate                                 : 469 b/s4 D/ U5 ]! N: M$ \5 g7 g8 s
Count of elements                        : 8: t4 X  G' f( D* S# c3 \5 J; z; c7 E
Stream size                              : 97.1 KiB (0%)
+ v+ p8 N  x) v0 {8 D8 }0 {Title                                    : French-FORCED-PGS
" ^6 |% e7 z! y% G2 D  k( U+ gLanguage                                 : French6 y; x& _2 E# R+ a
Default                                  : No) t% X. F) ~$ X
Forced                                   : No
! @3 }+ M1 J- k& |! ^& VOriginal source medium                   : Blu-ray
; D4 S0 `4 W' X9 m! Y
' R1 z' v5 ^# H4 ~- f) J( I/ ]Menu3 X0 ^- Q5 r  T7 i& r6 J8 H
00:00:00.000                             : en:Chapter 01: Q) A0 W6 z8 c. P$ I
00:08:30.593                             : en:Chapter 02, ~) i. a6 x3 X; R+ R
00:17:35.095                             : en:Chapter 03% M! R, H' G5 N  z. ?6 G$ Q! b$ @/ R
00:27:06.625                             : en:Chapter 04$ V# C5 d& Y, @! j8 U  K: y
00:35:31.170                             : en:Chapter 056 |" a/ B9 o# Q5 e; w
00:44:35.673                             : en:Chapter 065 m, L( X0 P) B0 q: w
00:53:16.067                             : en:Chapter 07) L( z2 W2 E) J5 d, }3 l7 M
01:01:53.543                             : en:Chapter 08
, X0 h! B$ w3 v; i01:08:14.340                             : en:Chapter 09' @1 o9 P$ m" z/ g! |& y! c
01:17:38.195                             : en:Chapter 10
* R8 x3 l' V$ U6 e3 F- P01:26:54.667                             : en:Chapter 11

7 [% M% K0 }' e3 i3 _
游客,查看本帖隐藏内容请回复 | 加入VIP贵宾组可免积分免回复下载 立即了解 | 还不是会员:点击获取邀请码 Invitation Code

35

主题

1204

帖子

4264

积分

Sponsor

金币
219 枚
体力
1610 点
lanpanshuma 发表于 2020-7-1 06:58:24 | 显示全部楼层
啥也不说了,楼主就是给力!
6 w# N2 l9 ?5 B8 v1 R要想蓝光电影论坛发展好,资源多,就靠你我他!To the development of Blu-ray movies forum, resources and more depend on you and me!4 y. ^! M! G0 n3 b
该会员没有 ...

560

主题

1816

帖子

1万

积分

VIP advanced

金币
1467 枚
体力
4112 点

公主勋章卓越贡献勋章

21cn 发表于 2020-7-21 21:35:24 | 显示全部楼层
每天都来蓝光论坛看看,我爱蓝光电影。
& O8 X' {9 {6 G/ e4 uThank you for sharing such a good resource polite reply, very sorry for myself!
1 ^: E0 F# }. @1 U2 v: s& \

本版积分规则

小黑屋|Archiver|蓝光电影资源网

GMT+8, 2020-8-7 11:31

快速回复 返回顶部 返回列表