BluRayCD Forum

 找回密码
 立即注册【分享大片】

QQ登录

只需一步,快速开始

查看: 87|回复: 4
收起左侧

[4K极清电影] 生人回避2 [4K REMUX无损版 自带中字] Zombie 1979 2160p BluRaycd REMUX HEVC DTS-HD MA TrueHD 7.1 Atmos-FGT 65.74GB

[复制链接]

4310

主题

4468

帖子

5万

积分

Post Share

金币
7979 枚
体力
16161 点

卓越贡献勋章

黄金嫖客 发表于 2020-6-14 00:20:35 | 显示全部楼层 |阅读模式
Strangers looking for a woman's father arrive at a tropical island where a doctor desperately searches for the cause and cure of a recent epidemic of the undead.
8 o9 }! h6 V2 ^
; c% |) _2 z- u+ }# W 01.jpg
8 |' {7 g& q- O6 M) e+ Q1 `
( F/ t) l# L8 d# ]◎译  名 生人回避2
3 M. x3 c4 ]+ K3 Q. _) {◎片  名 Zombi 2 / Zombie Flesh Eaters0 A/ I2 }$ s0 ?$ `( G/ i
◎年  代 1979
8 @& S  K; t' t8 ^2 i◎产  地 意大利
; a1 \  h5 |; |2 j$ d◎类  别 恐怖
: d- @/ T  z1 c8 @◎语  言 意大利语/英语/西班牙语
, o( o( X- Z( V5 V* [) V! g7 M◎上映日期 1979-08-252 Q; R8 M9 C( y+ P' [
◎IMDb评分  6.9/10 from 24,664 users
) M8 @$ n6 k! c" d  q◎IMDb链接  https://www.imdb.com/title/tt0080057/8 {( ^/ o& q- C
◎豆瓣评分 7.0/10 from 978 users! [- r, w  ~# b0 z  H, c  @; Q/ }
◎豆瓣链接 https://movie.douban.com/subject/1302410/
9 ]5 O0 Y8 Y* s# I; \! L◎文件格式 x265 + DTS + TrueHD
, }: R$ J8 j$ ~( `◎视频尺寸 3840 x 2160
6 I- t* k, \& Y' u◎文件大小 1DVD 65.74 GiB
9 Y3 W! ~5 f& h3 I$ V) n* t◎片  长 1 h 31 min
: t$ _1 r# B% l) w/ X) V◎导  演 卢西奥·弗尔兹 Lucio Fulci+ _( V/ [3 u* R  O! F, O3 n! F
◎编  剧 达尔达诺·萨凯蒂 Dardano Sacchetti
% }' a4 l' l2 u: W/ f3 P       Elisa Briganti( g9 k( y# S9 q2 J3 x
◎主  演 蒂莎·法罗 Tisa Farrow
0 w2 }; J( x8 K       艾伦·迈克库洛奇 Ian McCulloch
# A/ g% U7 `+ u; x' ?3 G% B       理查德·约翰逊 Richard Johnson
$ Z% \9 W6 ~$ T# s9 P) E       阿尔·克里弗 Al Cliver+ _8 f9 I# x* Q; ], f
       Auretta Gay& Z2 ^8 u9 A6 J$ F
       斯特凡妮娅·达·玛丽约 Stefania D'Amario* A2 |4 M7 `' R% I( f$ L
       奥丽娃·维拉索布罗斯 Olga Karlatos
1 g  z- k7 D- s8 J0 K" g; ?1 V5 P
+ r5 Z6 g. t$ x7 g7 z◎标  签 恐怖 | 意大利 | 丧尸 | 僵尸 | Cult | 生人回避 | 惊悚 | 意大利电影- i# [2 b2 \  a' q
' ?3 ~2 w; Z: M2 c0 D" I
◎简  介  
& x6 V# @" V9 Z- _9 `' J, t2 @8 V/ U" v- {7 h
  安妮·布外兹(Tisa Farrow 饰)的父亲驾船前往某小岛,但此后三个月音讯全无。某日,父亲的小船漂回纽约,船上空无一人。当警卫员检查船舱时,却遭到一个丧尸的袭击。记者彼得·怀斯特(Ian McCulloch 饰)对此事颇为好奇,他和安妮相约前往那座神秘小岛。
4 \6 C  m  D5 v2 f& T
* ~! w4 t+ W5 I0 @3 C/ \# |  当他们到达目的地时,却惊奇地发现,当地伏都教的诅咒令人们染上一种怪病,且可使死人复活。但复活后的人只是嗜血如命的恐怖丧尸。他们在岛上遇见了莫纳德医生(Richard Johnson 饰),为了活命,三个人必须通力合作,找到治疗这种怪病的方法……
1 p+ X1 v' f, O3 j
1 m- s2 q1 E% V. J9 a1 [2 U  Strangers searching for a young woman's missing father arrive at a tropical island where a doctor desperately seeks the cause and cure of a recent epidemic of the undead.8 }9 I. \& l6 Y
. |' m8 o1 a# j/ q: R9 a/ C; ~
Video #1
; _/ {* P1 ~9 ?; m8 C7 f* ?; TID                                       : 1
. D  q) f- v2 x3 X# N6 E) RID in the original source medium         : 4113 (0x1011)
- s8 i, X( `8 nFormat                                   : HEVC/ N* I; s5 B5 n$ E8 @+ @# O9 W
Format/Info                              : High Efficiency Video Coding
4 T# {# i0 `. R" J3 F5 eFormat profile                           : Main 10@L5.1@High
% Y, s& l% i( a" ^: I) Z8 _. q, O, RHDR format                               : SMPTE ST 2086, HDR10 compatible2 ~% L9 p/ I, z
Codec ID                                 : V_MPEGH/ISO/HEVC8 l, n0 H# ^# m( H0 c, P
Duration                                 : 1 h 31 min
6 J' G- G9 @: r: k* JBit rate                                 : 83.3 Mb/s7 s( m& X) q* {% J5 @
Width                                    : 3 840 pixels% g" d0 I# K& i
Height                                   : 2 160 pixels" a5 d; S# I1 K' [' v9 A* |' n
Display aspect ratio                     : 16:9
; |4 J1 k- ~5 oFrame rate mode                          : Constant
: q2 L6 C8 g( p+ g  P$ uFrame rate                               : 24.000 FPS
  p0 c0 Z5 c9 k; jColor space                              : YUV
& u. X% N/ d0 n1 `6 q2 ~+ OChroma subsampling                       : 4:2:0 (Type 2)9 R. G3 h9 H( N
Bit depth                                : 10 bits
" u% s# M* L# `1 Q% {6 Q, _8 y5 qBits/(Pixel*Frame)                       : 0.418
* T/ V2 _1 h; Y+ nStream size                              : 53.2 GiB (81%)( X  l6 O7 W9 i  M& [" a
Title                                    : Zombie.1979.2160p.BluRayCD.REMUX.HEVC.DTS-HD.MA.TrueHD.7.1.Atmos-FGT
7 k! U; j, k' t9 i1 CLanguage                                 : English2 p4 r: Q$ o! n
Default                                  : Yes9 G# N1 }' e8 y8 F
Forced                                   : No- ^+ K8 e0 f; `, K' @, \" h  A8 |/ n5 U
Color range                              : Limited
" a; j: G- ?, C+ G9 kColor primaries                          : BT.20203 ?: j) p. [$ q7 d% [
Transfer characteristics                 : PQ
/ A8 T7 X0 J. RMatrix coefficients                      : BT.2020 non-constant
6 y% l2 K4 ~: d0 KMastering display color primaries        : Display P3  D* t; [( r( R" d+ z$ m
Mastering display luminance              : min: 0.0001 cd/m2, max: 1000 cd/m2" v; {% H9 K& ?8 }5 G) D
Original source medium                   : Blu-ray
3 R* U& q+ y, v  `5 f3 V" q7 J9 V' E. g: t% ~$ y2 O, Q6 h
Video #2
6 c$ A0 y4 U5 K9 j) mID                                       : 2" {" ~% j' e, V( o1 ~
ID in the original source medium         : 4117 (0x1015)1 H/ g! \, _0 g$ ~% n! s! T7 r
Format                                   : HEVC/ j' u" U" a( K: E+ N* {* h
Format/Info                              : High Efficiency Video Coding
" ?6 E4 L) Z4 e; z! pFormat profile                           : Main 10@L5.1@High
0 ~' r  p2 x# P" c/ f0 C2 mHDR format                               : SMPTE ST 2086, HDR10 compatible
( B9 @2 q: r! U4 }4 ?% JCodec ID                                 : V_MPEGH/ISO/HEVC
& k; |- `* \$ ^% iDuration                                 : 1 h 31 min
, F! g/ m. s' y4 S4 f' L& O* D; n9 TBit rate                                 : 6 755 kb/s
5 ?3 i; t" Q; M( @. KWidth                                    : 1 920 pixels* H" @, v! F' l0 _( V
Height                                   : 1 080 pixels) }6 J, O, T6 S8 N0 }
Display aspect ratio                     : 16:94 z6 L# L" f- k; ]3 u
Frame rate mode                          : Constant
( r7 f( J$ e3 U" @$ S1 U0 T/ {Frame rate                               : 24.000 FPS3 _( H+ p4 g4 Y9 |
Color space                              : YUV
* J$ R2 Z6 T8 [& v1 w; YChroma subsampling                       : 4:2:0 (Type 2)
9 ^- z$ d6 g$ F; m# @+ t9 }5 rBit depth                                : 10 bits- @2 x6 d6 d% U0 j/ D
Bits/(Pixel*Frame)                       : 0.136
, E0 Q" \( H! B0 j) W6 ?Stream size                              : 4.31 GiB (7%)
3 g/ y, s( B8 A4 D$ e8 s: cTitle                                    : Zombie.1979.2160p.BluRaycd.REMUX.HEVC.DTS-HD.MA.TrueHD.7.1.Atmos-FGT
9 {1 @* Y' R5 P# K4 GLanguage                                 : English* v* w$ L% W. i4 B
Default                                  : No! m+ z% g# N! g9 r" B
Forced                                   : No% l& @2 u& R  _# `4 |
Color range                              : Limited
: |3 o/ J  f6 k  D0 aColor primaries                          : BT.2020
* S0 W, @7 h' MTransfer characteristics                 : PQ! o' k+ k+ {. D0 T
Matrix coefficients                      : BT.2020 non-constant
! i- N, \; Y0 G- O# D( \( n, Q! H4 ~Mastering display color primaries        : Display P3" z/ a5 T7 T* U- f! ?
Mastering display luminance              : min: 0.0001 cd/m2, max: 1000 cd/m2, \; M! I/ j# {$ r' z! P% d
Original source medium                   : Blu-ray
) ?2 F# d, e' O' x. K- ^" U$ e3 y4 A0 E3 L
Audio #1, G0 g' E* x6 o$ Q! H
ID                                       : 3! V5 Q+ Y& `1 L( z
ID in the original source medium         : 4352 (0x1100)
. U0 n# D: n1 K, s; `' [Format                                   : MLP FBA 16-ch  L4 ^8 b& g! y6 G* t# t
Format/Info                              : Meridian Lossless Packing FBA with 16-channel presentation
9 G. _& r- e# G% J4 KCommercial name                          : Dolby TrueHD with Dolby Atmos
: j- K0 z7 p( h; X0 {! F, zCodec ID                                 : A_TRUEHD
  y! J/ y; I$ |5 b' H5 k! i4 pDuration                                 : 1 h 31 min
3 S7 Q* A) l( P9 H9 U8 s: `0 gBit rate mode                            : Variable0 Y6 z4 i! j" ]) @& M) r7 S4 a
Bit rate                                 : 3 714 kb/s
( z8 F# a7 l' {/ K  fMaximum bit rate                         : 4 833 kb/s
9 |5 J) Y3 I; c& |Channel(s)                               : 8 channels: r: i. m7 A0 G/ E; l, T( h
Channel layout                           : L R C LFE Ls Rs Lb Rb, X' e  @' {4 H- r4 V  q
Sampling rate                            : 48.0 kHz
- b+ ?" V! `0 n7 {2 |8 A' D4 kFrame rate                               : 1 200.000 FPS (40 SPF)
; f3 H1 S2 q1 W& Q9 `Compression mode                         : Lossless' V. I2 D; C, H5 n* h
Stream size                              : 2.37 GiB (4%)9 j' h  e; H5 W/ D
Title                                    : Zombie.1979.2160p.BluRaycd.REMUX.HEVC.DTS-HD.MA.TrueHD.7.1.Atmos-FGT
2 ?9 k4 t% v4 d% u6 `& CLanguage                                 : English
+ r# ]  Y) s! P) {2 k+ ?: o3 O/ MDefault                                  : Yes1 G8 C* a4 u  p- R7 b2 u
Forced                                   : No
& v: Y+ ~. c/ ]1 s5 rOriginal source medium                   : Blu-ray  h% B+ @0 Z1 S% s9 W
Number of dynamic objects                : 116 [4 e. x7 P* k8 w4 h% `5 b' B( _
Bed channel count                        : 1 channel
, q/ w1 {, ^$ T/ T# N+ A2 gBed channel configuration                : LFE
! E" y' Z. J8 a0 h) A
9 U; X+ H" l$ N9 \1 S( BAudio #2
4 ]% i: t) ~2 G) n5 C4 F- f1 AID                                       : 4# d) W1 |  S) H1 T4 A0 y
Format                                   : DTS XLL
4 f9 w/ X$ d" x8 _0 ~! rFormat/Info                              : Digital Theater Systems
0 K9 Z1 |8 P. L" M) `9 c! WCommercial name                          : DTS-HD Master Audio
  n" N9 s, C* e: {8 @Codec ID                                 : A_DTS0 K  Y9 `& J6 g: w" G% L" R! X5 Z
Duration                                 : 1 h 31 min# ~) Z3 |- K* g0 ^2 R8 a. _
Bit rate mode                            : Variable$ R! N8 A: g4 R4 p8 Z
Bit rate                                 : 3 909 kb/s9 e8 k. ~* U5 J4 q
Channel(s)                               : 8 channels( k) T- V7 ^- W
Channel layout                           : C L R LFE Lb Rb Lss Rss
7 B" r& \2 N# d$ a( dSampling rate                            : 48.0 kHz* }' B8 _2 @5 e/ }8 j
Frame rate                               : 93.750 FPS (512 SPF)
9 A9 G  I% n5 YBit depth                                : 24 bits
7 F& C. i* V! |+ D0 |' E& f7 gCompression mode                         : Lossless
; ~* a- j. J; l: \) }Stream size                              : 2.50 GiB (4%)& M5 ]7 Z- c2 {9 m6 A
Title                                    : Zombie.1979.2160p.BluRaycd.REMUX.HEVC.DTS-HD.MA.TrueHD.7.1.Atmos-FGT
9 O+ f; H4 ^6 N: Y4 s! X, w& t. PLanguage                                 : English2 g5 @& ?( \5 |( p) R
Default                                  : No$ J  _& c' G" p: D! C" ^6 h  A
Forced                                   : No6 N5 y9 ~  W  N3 X7 d- K* x
$ t+ }5 i2 i+ G  A
Audio #30 G' v0 [0 h) N% C
ID                                       : 5& L, e# |4 ?' K0 I8 n! ]
ID in the original source medium         : 4352 (0x1100)
2 [3 I- h4 _! p. pFormat                                   : AC-3
' B6 F0 D- Q. aFormat/Info                              : Audio Coding 3
! @2 N" J0 Y4 k0 WCommercial name                          : Dolby Digital" r- f, z, N( n6 k) Z, o
Codec ID                                 : A_AC3
2 d- ^- l0 e5 yDuration                                 : 1 h 31 min
! M4 b8 @: J* y) c! H9 E+ VBit rate mode                            : Constant
2 j% o1 x9 f( v3 rBit rate                                 : 640 kb/s
6 @: O6 X8 j% `% B% nChannel(s)                               : 6 channels2 a% m6 h4 @2 e: c% p1 L
Channel layout                           : L R C LFE Ls Rs
: E! _. }$ k) d' ~Sampling rate                            : 48.0 kHz8 J; W$ b. G6 p1 v
Frame rate                               : 31.250 FPS (1536 SPF)7 B1 u, q% b5 }1 o) Q1 e- v
Bit depth                                : 16 bits9 y1 e3 M. D) a
Compression mode                         : Lossy
: g+ [  S$ _- K& y4 _Stream size                              : 418 MiB (1%)$ N0 R4 r7 Q4 v, j- v  u
Title                                    : Zombie.1979.2160p.BluRaycd.REMUX.HEVC.DTS-HD.MA.TrueHD.7.1.Atmos-FGT7 c1 o% K- N- d
Language                                 : English
8 \: d3 |) B1 K4 }/ fService kind                             : Complete Main  c1 z" T; \# e4 c9 e# k' b
Default                                  : No( [/ m! Y7 e- l9 e8 ~: Q. v7 y
Forced                                   : No
$ A! w1 T# o. q2 M2 POriginal source medium                   : Blu-ray
- {! Z: [: Z/ h1 [0 _0 m1 o0 D4 \( W* Z
Audio #4
: H$ @3 Q8 r2 M  QID                                       : 6* n, ~; [( H1 Q/ p  |
ID in the original source medium         : 4354 (0x1102); O0 N+ R2 X7 Z
Format                                   : DTS XLL
9 w: Q7 O+ m% o( X0 s0 S% K" OFormat/Info                              : Digital Theater Systems8 |1 Q+ E, F* Y
Commercial name                          : DTS-HD Master Audio# g' M% u& b$ s- z
Codec ID                                 : A_DTS- g* I- g. y$ G5 ?4 d
Duration                                 : 1 h 31 min/ W/ p' n" i5 I! C1 k( q; n1 a
Bit rate mode                            : Variable
! {, o4 ]1 e0 S: b8 v) LBit rate                                 : 831 kb/s
1 O4 J( x7 t/ t. E  CChannel(s)                               : 1 channel
8 i( {# o( u+ p/ k, UChannel layout                           : C
9 X8 ~9 Q+ e" W/ zSampling rate                            : 48.0 kHz' x$ O3 u8 S" Z0 @
Frame rate                               : 93.750 FPS (512 SPF)
: T3 J9 F2 B# X. m  v% ]Bit depth                                : 16 bits! N3 ]5 v0 U% ^7 u4 C4 C
Compression mode                         : Lossless
! [' Y6 d9 }! H& rStream size                              : 543 MiB (1%)
7 N3 n6 I* M% z$ Y- K& g# t3 }. yTitle                                    : Zombie.1979.2160p.BluRaycd.REMUX.HEVC.DTS-HD.MA.TrueHD.7.1.Atmos-FGT
4 O3 [9 l" j& _* X1 l0 eLanguage                                 : English( x, d. ~# B# |) z) b- Y
Default                                  : No
9 z. b4 Q, ^( E! j9 p8 r3 B% A2 TForced                                   : No* w/ n- r8 K, w# j
Original source medium                   : Blu-ray
& c% N2 s+ _$ P+ x5 a3 l2 N  G6 r1 B; F( i/ z3 c* H# @
Audio #53 M* K% Y4 O" `3 \. M
ID                                       : 7
3 L/ J% w) C0 A0 `" MID in the original source medium         : 4355 (0x1103)& }, ]- h3 K( U8 g9 ?5 C; a1 |
Format                                   : DTS ES XLL. q  w: b+ G* z/ M8 V  e# J
Format/Info                              : Digital Theater Systems! k; i& v6 I4 F' F- d' K
Commercial name                          : DTS-HD Master Audio
1 s* h) b& W& @5 x3 m3 SCodec ID                                 : A_DTS
8 p3 T* P8 a. C& W$ }! Z+ iDuration                                 : 1 h 31 min
, w7 Z0 N# ]0 H' C8 QBit rate mode                            : Variable7 _- K- l: S% D/ {
Bit rate                                 : 2 158 kb/s% Y7 U3 `. X* l3 M2 n$ Y$ Z, S
Channel(s)                               : 8 channels
$ N: U3 E6 f/ S- ?# m( X" l; s6 x$ oChannel layout                           : C L R Ls Rs LFE Lb Rb5 y0 ?, `7 f8 L; o
Sampling rate                            : 48.0 kHz
9 g) _8 s/ A( T# m' @) fFrame rate                               : 93.750 FPS (512 SPF)) o) ~. b( A2 t6 G; W8 J# b# R% |
Bit depth                                : 16 bits- n' H8 J! P" d9 y
Compression mode                         : Lossless
$ l( M! N4 d- S; GStream size                              : 1.38 GiB (2%)
/ t# y0 ]" H, eTitle                                    : Zombie.1979.2160p.BluRaycd.REMUX.HEVC.DTS-HD.MA.TrueHD.7.1.Atmos-FGT7 L4 M. B  e" d
Language                                 : Italian7 O( r, c7 w; n; }1 O  I) c
Default                                  : No8 f9 `* _. ^6 P1 N6 y- [9 }4 C7 E' f
Forced                                   : No& h0 F( \3 z( A( |
Original source medium                   : Blu-ray
- d6 @4 z- J+ _' t( a6 c. w4 `6 C# K. ~8 H+ D7 ^, R1 y
Audio #6
; P* A$ }# k, ^" v6 Z. p  U; YID                                       : 8& ]5 s' T- J) W5 B2 ~6 b9 Z
ID in the original source medium         : 4356 (0x1104)/ y1 R8 C$ j% p0 l7 h
Format                                   : DTS XLL# O# u4 W& N# w% _! v* R/ K
Format/Info                              : Digital Theater Systems
. @9 X& j, n, T1 T- j& mCommercial name                          : DTS-HD Master Audio
6 Y4 ]& i' e5 G9 L2 s2 KCodec ID                                 : A_DTS
6 q6 N4 q1 a3 V" o. uDuration                                 : 1 h 31 min
1 Q" a, ]* `" Y& |1 iBit rate mode                            : Variable
2 f5 o# e# K) N5 V* G* ~5 |% w, s* fBit rate                                 : 827 kb/s: x6 e* N! T  t5 L4 b
Channel(s)                               : 1 channel2 u; |/ r% {3 c* i+ m
Channel layout                           : C. Z8 ?( t0 `# f7 ]" b" q5 T* O
Sampling rate                            : 48.0 kHz
8 L6 b$ {& C4 k9 nFrame rate                               : 93.750 FPS (512 SPF)! g7 A) |( n7 E9 c3 G7 B8 |
Bit depth                                : 16 bits3 w, M) p, I1 k
Compression mode                         : Lossless( j# M3 H+ L8 ^: L& F8 _8 i
Stream size                              : 541 MiB (1%)% D) Z( _- T  u: `% w8 [8 ~" ?0 V
Title                                    : Zombie.1979.2160p.BluRaycd.REMUX.HEVC.DTS-HD.MA.TrueHD.7.1.Atmos-FGT2 [2 @/ S1 z" D4 _. Y" Z4 N
Language                                 : Italian4 W0 `# p1 w( [4 T  X
Default                                  : No
& u, W4 i! k! J8 ^; _+ K; Z$ d1 DForced                                   : No
4 m# r) D: j4 d) g* g6 JOriginal source medium                   : Blu-ray; p; V5 p. M$ H% a$ {- X1 P$ O; d

2 M3 j7 r* l. b. r! sAudio #7
1 b' U' A: E/ t& cID                                       : 9
( ?2 X  f( A& M: }" oID in the original source medium         : 4357 (0x1105)7 Z' I4 F; h  `& w; x8 B8 n: A
Format                                   : AC-3# u% |7 X$ f* j6 m7 u9 N  ^; v( @
Format/Info                              : Audio Coding 3
# P1 B: g% g" I1 vCommercial name                          : Dolby Digital5 U5 s5 s2 w( [) y6 n8 C
Codec ID                                 : A_AC3$ q2 t% a9 b& C
Duration                                 : 1 h 31 min
# x. v8 z) T! [8 s) z7 H( TBit rate mode                            : Constant" J8 p6 o/ u3 n
Bit rate                                 : 192 kb/s+ I6 @" b* T$ U6 h+ _# m2 T$ j
Channel(s)                               : 1 channel8 G' }# I& q$ n, ^. A: u, }
Channel layout                           : C
/ ]8 E+ i! l2 p* dSampling rate                            : 48.0 kHz' \8 v* E# y2 O+ t  f6 F
Frame rate                               : 31.250 FPS (1536 SPF)
: T: r2 r9 n, C: bBit depth                                : 16 bits3 u' j# J2 _. {9 r% V
Compression mode                         : Lossy' I" p0 r  H4 h( Y
Stream size                              : 126 MiB (0%)2 X2 X4 B% a) [+ y- M
Title                                    : Zombie.1979.2160p.BluRaycd.REMUX.HEVC.DTS-HD.MA.TrueHD.7.1.Atmos-FGT
6 O& h1 \+ t: E/ `: NLanguage                                 : French' t% p( q* f2 k
Service kind                             : Complete Main( O7 Q6 j1 e3 r* p4 i
Default                                  : No+ _4 d: Q  u2 y6 w  Z
Forced                                   : No
! M2 H! H$ w. U) |Original source medium                   : Blu-ray
4 R, m$ Q+ h# Q' M. v% _
0 m$ G5 E0 Z5 AAudio #8$ k& u; D" @  M9 f
ID                                       : 10
% C8 W* F, X. Z" k  ?ID in the original source medium         : 4358 (0x1106)
8 I/ Z- z' D5 J7 E/ IFormat                                   : AC-3
8 Q8 E! @" y$ W* N; RFormat/Info                              : Audio Coding 33 G- ]9 V8 U6 V  S) m) V& t
Commercial name                          : Dolby Digital6 O; V% P3 p+ R7 K4 l9 \. h9 |+ d
Codec ID                                 : A_AC3
$ j1 p- u: I" X# R# M! jDuration                                 : 1 h 31 min
5 F9 g) `$ z- W# e/ DBit rate mode                            : Constant$ D* `% d5 [9 h3 @
Bit rate                                 : 192 kb/s
2 e+ a/ s) _2 pChannel(s)                               : 1 channel3 r& j* C; P4 C& H( _0 [
Channel layout                           : C! G: A# M3 w6 e* R9 i4 F
Sampling rate                            : 48.0 kHz1 s( n9 S' H( B. v/ I% ]8 p6 t
Frame rate                               : 31.250 FPS (1536 SPF)
, N% |' S9 m8 q, o  UBit depth                                : 16 bits
2 E* b$ T# t" _% B* E# }3 NCompression mode                         : Lossy
- f& g" T9 P& d+ IStream size                              : 126 MiB (0%)+ ]3 l$ v4 b9 V) d" c$ M& N3 O; r
Title                                    : Zombie.1979.2160p.BluRaycd.REMUX.HEVC.DTS-HD.MA.TrueHD.7.1.Atmos-FGT
6 B2 [6 F/ B- _% h9 {& P/ iLanguage                                 : English
" S( A: ~  @" x$ X# QService kind                             : Complete Main
, A; C" @9 \/ C$ }/ z: |* o* z3 ?Default                                  : No
0 o/ r9 \1 k3 x, S$ G' P- TForced                                   : No5 y2 z3 _5 ^2 a/ n& o$ s
Original source medium                   : Blu-ray
4 m& p/ L/ z3 ^& [- j: {, `- l" A: Z
Audio #9
" x- n8 h( g6 u4 }4 Z8 p8 FID                                       : 11
8 N5 v. p& ]: O) n! ]. q- z0 b& H! N1 mID in the original source medium         : 4359 (0x1107)
) u. ~5 d/ K. u( E, V, bFormat                                   : AC-3
) S" ~! T+ T; O: s% A& `Format/Info                              : Audio Coding 3, x* O( a/ b: _3 X
Commercial name                          : Dolby Digital0 ^1 a" C7 E, h" m/ F- x& Y
Codec ID                                 : A_AC3# E0 t' f1 @7 [$ v' L
Duration                                 : 1 h 31 min
$ a4 J6 Y2 }2 @' @5 x# CBit rate mode                            : Constant3 j' N6 ?( j5 \/ A6 {# }9 {" E
Bit rate                                 : 192 kb/s( a, s% ^5 \2 i3 Y: Y' z
Channel(s)                               : 1 channel& n9 I' e$ ~# d) H
Channel layout                           : C+ ^: c* t- B. L( Q
Sampling rate                            : 48.0 kHz
" n* v+ {) L% V) `, z/ @# @# hFrame rate                               : 31.250 FPS (1536 SPF)3 u4 B" @, W8 }; g
Bit depth                                : 16 bits. f; M/ r' F( w
Compression mode                         : Lossy; u- w7 N: T1 U  p" `0 Q# V
Stream size                              : 126 MiB (0%)
) O4 A" ~9 q# i+ A. XTitle                                    : Zombie.1979.2160p.BluRaycd.REMUX.HEVC.DTS-HD.MA.TrueHD.7.1.Atmos-FGT& [, I, h! z7 d' I. ?1 c' ]3 e
Language                                 : English
0 j' h% x% _- Y# x. q) {, h; {/ AService kind                             : Complete Main
7 |- m7 Z: {; |) RDefault                                  : No
7 f( k9 X, C9 W0 v4 `& FForced                                   : No
, A$ k' h% v8 v% S- z6 X; U% NOriginal source medium                   : Blu-ray  g- r+ W4 t) C; h4 Y3 ?& ]- j
9 e. A. B3 i$ c$ l( h$ \4 C% |0 c
Text #1
9 Q5 M$ ]; h" W7 l1 |! g; YID                                       : 12
1 T1 {* n, N, A+ k% pFormat                                   : UTF-8
' m' Z' ?3 y5 b$ O3 s( T' Z, hCodec ID                                 : S_TEXT/UTF8/ C& @& q1 x$ B' k* T2 l! c. _  d
Codec ID/Info                            : UTF-8 Plain Text
* T6 @: ]1 F* i& r5 gDuration                                 : 1 h 29 min
0 |, G$ p3 O0 X1 s( k- F- k( }Bit rate                                 : 30 b/s7 t; ^$ N1 z, s& o4 K
Count of elements                        : 561) u" O6 G! M: _& w0 K
Stream size                              : 20.1 KiB (0%). k- m  M9 E, v+ ?
Title                                    : English-SRT
3 c- M8 M3 P- f. D( t9 b- mLanguage                                 : English
8 T8 z' k8 I8 X8 F2 @! @% lDefault                                  : Yes* B9 T8 g! P) D) B2 {8 T, B0 u
Forced                                   : No* M! }* M/ [9 ~5 ~
, t9 M/ H: J2 L' N
Text #2! P) [( L8 t7 I' q$ d
ID                                       : 13
2 I6 j/ k6 c$ W3 B0 ]" }ID in the original source medium         : 4768 (0x12A0)) X$ T7 T& j4 P& [4 n( I( u  @
Format                                   : PGS0 d: v' U9 i/ {
Muxing mode                              : zlib
/ _7 P2 {9 t; lCodec ID                                 : S_HDMV/PGS' K9 I& }* m3 {$ `
Codec ID/Info                            : Picture based subtitle format used on BDs/HD-DVDs
' i6 x5 j/ \% ~1 k. r# Z- P, bDuration                                 : 1 h 30 min5 `* P' G$ X' M' L7 S* r; N/ C  E
Bit rate                                 : 42.2 kb/s/ h! K. |- J. M
Count of elements                        : 1734
- ?. I7 ]- Z+ N" `8 A" J5 h! m" `Stream size                              : 27.2 MiB (0%)
  @' K3 {. `7 Z1 W5 |; |& k5 V- aTitle                                    : English-PGS
% T  |5 m4 n) j5 G! A  b, S: rLanguage                                 : English
) d1 V6 Q2 n2 R9 h2 S+ BDefault                                  : No
5 Y- M' F' x# s% P& Q" F9 h2 SForced                                   : No
; q8 X% }% L" d" P  tOriginal source medium                   : Blu-ray
8 F% d* b% w: `8 s; e' J6 H+ N1 p! W& C7 K% P
Text #3+ ]: F5 `: _6 ~
ID                                       : 14( r! B8 l( I/ u$ ~
ID in the original source medium         : 4769 (0x12A1)! T0 p1 Q& N- @$ U
Format                                   : PGS% R( \/ P/ p( `, X
Muxing mode                              : zlib( Y' E" M4 B7 B& v
Codec ID                                 : S_HDMV/PGS" z1 R7 }! g0 G0 X
Codec ID/Info                            : Picture based subtitle format used on BDs/HD-DVDs
: d) N8 y! l, I# [  yDuration                                 : 1 h 29 min
: v% @4 ?- a4 Y+ F2 c% Z: n! [Bit rate                                 : 27.9 kb/s
5 A% F! U! L( D* vCount of elements                        : 1262
& p' T& d  I: x$ s. I2 r; f8 d# vStream size                              : 17.9 MiB (0%)
$ C; ]1 o/ L0 r4 [Title                                    : French-PGS1 C3 q4 f3 @; @- U& v: u& e
Language                                 : French
& F( @- y+ {, ZDefault                                  : No
% b4 F( Y8 O* \$ ]0 Y' E  nForced                                   : No
! F' K) c+ J! [& lOriginal source medium                   : Blu-ray
8 A4 s* e+ X. p9 d& c+ z1 J4 Q# a0 V# m' x
Text #4% E2 N1 Q$ T: J, p- I+ v& S
ID                                       : 15
% g/ u2 z4 u9 {  O2 u# rID in the original source medium         : 4770 (0x12A2)
! q! x. I! b) M# c) Z$ WFormat                                   : PGS. `; O5 c  e- [7 H4 k0 O& E
Muxing mode                              : zlib
7 a3 C! R& D6 {9 Z" o( Z/ }Codec ID                                 : S_HDMV/PGS8 j  T1 r. H7 U( x7 `; F
Codec ID/Info                            : Picture based subtitle format used on BDs/HD-DVDs
+ L' L' y1 d6 x6 @  BDuration                                 : 1 h 29 min; e$ ]& B1 u* k5 Q
Bit rate                                 : 29.1 kb/s+ P( a/ |% _9 D* `
Count of elements                        : 12629 m8 n! b1 v0 O3 N  B. I: S3 s% F
Stream size                              : 18.7 MiB (0%)
, f! W- d3 g) G8 h$ E1 A9 S  sTitle                                    : Spanish-PGS' C( `' p* F$ p+ R/ j3 c# q
Language                                 : Spanish
7 I+ m" I) ?9 |Default                                  : No, N" W. ~3 D+ ^7 i) s
Forced                                   : No
9 ~! N+ ?- e1 G) ]Original source medium                   : Blu-ray
9 Q7 u- L( M1 H, u! t4 M6 E: {, ~
Text #5
, J" C, {% }5 E- j' ~7 z4 RID                                       : 16( x6 _" x9 l+ k0 K8 t( ?: N
ID in the original source medium         : 4771 (0x12A3)4 a9 T* o7 X. m
Format                                   : PGS
* b6 N4 u9 D8 ?! u5 RMuxing mode                              : zlib3 F* |' m! @  D4 [, {$ l& u: P6 o
Codec ID                                 : S_HDMV/PGS2 Q- v) ?2 z' q% {
Codec ID/Info                            : Picture based subtitle format used on BDs/HD-DVDs
% P  o3 a$ q0 U& j& k; lDuration                                 : 1 h 29 min  `% @. X- J1 d, c' _6 ]
Bit rate                                 : 26.8 kb/s2 S3 Q/ w% I. m8 a+ W+ v
Count of elements                        : 12629 Y- [* W5 K0 q) L  R$ d6 X
Stream size                              : 17.2 MiB (0%)
" @- V: ], n- k  _0 h3 _* W8 ?# rTitle                                    : Portuguese-PGS" ^: ^% e& h' k0 \1 X
Language                                 : Portuguese' S: N9 L# r$ l' T* l; e  l; O! i
Default                                  : No
8 m3 [4 R! R, [  ^, QForced                                   : No$ s) @. ]9 ?4 b2 e6 y: S
Original source medium                   : Blu-ray! H5 b3 v8 m: f3 K, O/ }

$ }4 p0 ]7 T& B' ^Text #6- f5 V7 Q* z( k3 I2 F5 ~
ID                                       : 17" V& ~. k7 e' @& g2 f
ID in the original source medium         : 4772 (0x12A4), v# @9 ^  Q& F6 Z# m" b
Format                                   : PGS4 r  A. Q, c9 \# n. ?; `4 V
Muxing mode                              : zlib
/ `* L* V3 N5 u% }, MCodec ID                                 : S_HDMV/PGS
2 T; |& Q& X1 q/ ?Codec ID/Info                            : Picture based subtitle format used on BDs/HD-DVDs
$ _6 h3 G  }: ^8 JDuration                                 : 1 h 29 min6 [/ s/ z3 y9 L3 L- P* ]( X
Bit rate                                 : 32.7 kb/s
4 o/ x. X& @0 @! j/ oCount of elements                        : 1246
2 a  ]& x! Y0 z: t! JStream size                              : 21.0 MiB (0%)
1 M# j$ b9 M& O' MTitle                                    : German-PGS
( c& u/ m- R- h/ W# nLanguage                                 : German  W/ ^- A  G- S9 p
Default                                  : No3 n2 _  A% b! V7 P  C
Forced                                   : No
. ?  E& K5 t0 p, _/ jOriginal source medium                   : Blu-ray+ E3 v1 L1 j( V3 u4 U! R- g
$ z! b5 M5 a5 K  Y" I2 S1 j. y
Text #7. V4 S- W  d! \) b/ w) }
ID                                       : 18
% a" H( {$ g6 a  `  f% BID in the original source medium         : 4773 (0x12A5)9 k  ]: R( o2 P5 O- B4 p
Format                                   : PGS
! _/ ~: ]% O- W8 G; U3 DMuxing mode                              : zlib6 H$ W& z0 u5 U* s, E8 |/ n: L
Codec ID                                 : S_HDMV/PGS7 y: _  }( @! v: p& T3 Q' k, _
Codec ID/Info                            : Picture based subtitle format used on BDs/HD-DVDs: e& ^8 _3 _: t; g- \9 R7 H3 }
Duration                                 : 1 h 29 min. a" Z9 r4 h$ v/ }" ^1 ~
Bit rate                                 : 28.5 kb/s) m# Q6 h6 u& q6 B
Count of elements                        : 1262
! o/ Z; p- F& C7 l  L- ]Stream size                              : 18.3 MiB (0%)- _% O  ^+ K7 `' A
Title                                    : Italian-PGS
, F7 M, n/ D; g1 S- GLanguage                                 : Italian
* T2 w) a) Q- o, Q- i( vDefault                                  : No9 H( z1 x" l! D  W& J7 f. D
Forced                                   : No0 W$ i8 m/ r+ Y( a+ A* H6 c. s+ u
Original source medium                   : Blu-ray
( e3 b$ L3 h8 B0 J
3 p7 m' _1 T1 Q, ?1 x) ]# s8 EText #8
+ {' v" r! k4 M3 NID                                       : 19# D0 z, z. A7 V/ ]
ID in the original source medium         : 4774 (0x12A6); z8 o9 {- f5 s$ g2 h0 `% }
Format                                   : PGS
9 m) ?( O9 V: a; ^* V4 G4 PMuxing mode                              : zlib5 a4 r8 J6 g( M: l8 g/ k
Codec ID                                 : S_HDMV/PGS+ o- r. c" l9 p% ]
Codec ID/Info                            : Picture based subtitle format used on BDs/HD-DVDs6 s3 [- P+ p3 g& ~
Duration                                 : 1 h 29 min
! `2 ?/ m# ~( e4 o) l/ L& QBit rate                                 : 29.0 kb/s8 Z4 ^+ P3 |2 B* R
Count of elements                        : 1294
/ A- r2 K( C: ?% b2 F7 h+ OStream size                              : 18.6 MiB (0%)$ z9 w' `# a" h$ z, x
Title                                    : Danish-PGS8 c1 z4 J/ t8 \: L1 [
Language                                 : Danish
/ \6 ^& L; z: z( @1 v' iDefault                                  : No2 f4 K8 D7 I, _
Forced                                   : No
4 ~+ @$ E/ J! C; F/ B% Q$ p5 X+ `Original source medium                   : Blu-ray4 w; Q3 @4 \# r0 G
9 f6 I+ @  Z- A
Text #96 h3 R% H' }& s  g7 V' L, O/ |( E
ID                                       : 20, U# z; l; s; Q& c( f' E. S
ID in the original source medium         : 4775 (0x12A7)/ H( @" i1 j" ?  J
Format                                   : PGS2 T. Y% ^6 M# w0 g" {8 a
Muxing mode                              : zlib- }9 F7 V5 f- f6 k; I( V5 S
Codec ID                                 : S_HDMV/PGS
8 s' }# C0 G) M& t' r# H, LCodec ID/Info                            : Picture based subtitle format used on BDs/HD-DVDs3 N( u, b' p: D6 L
Duration                                 : 1 h 29 min9 z9 a0 m8 A$ y/ X4 e3 a
Bit rate                                 : 28.7 kb/s* W$ k# s) Q2 ^4 v
Count of elements                        : 12688 A! A3 n( v8 I# i. Y: e
Stream size                              : 18.4 MiB (0%)% B2 |" q1 Y7 I/ a
Title                                    : Finnish-PGS6 ~. m" o8 u) P! q+ Y
Language                                 : Finnish
6 ]& _; Y( J& {& d* ~8 oDefault                                  : No
- H5 ~: d" j' F* e/ O" w4 fForced                                   : No
( `  N# \. \- i7 B. {* `- S: ~! j5 k; E/ EOriginal source medium                   : Blu-ray
; d" E* j+ H$ {- j
) Z- [& ~* L8 _  P* u+ PText #10
  v$ i: H4 Z  JID                                       : 21
) j. ]5 j3 M/ H$ }  T! k5 a6 t4 OID in the original source medium         : 4776 (0x12A8)
4 e. N, V$ |7 H6 T' M, cFormat                                   : PGS0 K( i" t+ [" y+ b  I3 q
Muxing mode                              : zlib
! p, G# R3 }& Q# T/ v7 a6 w3 `4 WCodec ID                                 : S_HDMV/PGS
! B% Y5 ^# e% L! Q# n5 l5 b! yCodec ID/Info                            : Picture based subtitle format used on BDs/HD-DVDs8 b7 u5 a' i" `- P
Duration                                 : 1 h 29 min
4 x" C. a; o8 B  N4 u3 DBit rate                                 : 29.1 kb/s; Z+ \; C$ ~) s% [- r
Count of elements                        : 1294
3 Z7 P1 x% v1 U# l" z; kStream size                              : 18.7 MiB (0%)8 H; c6 z0 t3 `6 v: L5 D4 e
Title                                    : Dutch-PGS
, M, Z( O3 \8 }! X6 ]" ~5 bLanguage                                 : Dutch. R" d" \3 W( X, F
Default                                  : No+ o; H+ U* E, Q: \
Forced                                   : No
& ?9 ?7 ?  t1 o; N: s/ fOriginal source medium                   : Blu-ray# B7 |) b- h3 D

3 p" R  i+ T8 c& F8 NText #11
/ f3 L3 ^. S- ]" k4 R5 o$ Q# |ID                                       : 22  w% D, q# U* o1 P: }
ID in the original source medium         : 4777 (0x12A9)
: z3 q0 ?/ D: G3 f" ^' K9 d- K8 hFormat                                   : PGS8 Y5 }; d) F. A1 z
Muxing mode                              : zlib
  a2 @5 S0 v( G9 u( dCodec ID                                 : S_HDMV/PGS
9 D8 }$ G9 i% ^  M+ O& P4 ACodec ID/Info                            : Picture based subtitle format used on BDs/HD-DVDs
# d/ n5 {* M1 J/ E, T$ r3 MDuration                                 : 1 h 29 min$ I* g5 ^% @9 m) }- D$ h& I4 P
Bit rate                                 : 28.5 kb/s$ H0 N, z8 |4 b) e. u
Count of elements                        : 1292* c) p- E6 S5 a# b
Stream size                              : 18.3 MiB (0%)- n8 N, K/ Q3 D* ?
Title                                    : Swedish-PGS
( u4 Q8 K- D- b* WLanguage                                 : Swedish2 }' [) Q  D; H$ s6 q/ W
Default                                  : No
$ o/ L; c8 A: \, Y$ b' |: DForced                                   : No
2 m+ S# S. K7 `9 n- l& v( _Original source medium                   : Blu-ray/ J3 q: T4 ~  _5 z# |! v. b8 I  t

2 K* M8 \- ]+ u9 JText #12
/ |# @: y4 d* k5 N* ]1 a: [ID                                       : 23. |7 R. J. a3 L8 g3 T4 j: Q7 b9 y$ w
ID in the original source medium         : 4778 (0x12AA)
0 H8 X. l7 i0 i# bFormat                                   : PGS
5 C; z# `' O* A+ v0 n3 ]Muxing mode                              : zlib
) I& |2 d( ]; D2 I) h" `Codec ID                                 : S_HDMV/PGS
: J# y6 U0 Q( R# \Codec ID/Info                            : Picture based subtitle format used on BDs/HD-DVDs/ N$ w; ?6 o! L7 _! J* X5 l
Duration                                 : 1 h 29 min( f  P/ j- `: K  h
Bit rate                                 : 30.1 kb/s. M0 Y5 G/ s9 q
Count of elements                        : 1300
7 ~+ m* s/ b0 tStream size                              : 19.3 MiB (0%)
" I) g; z9 _- iTitle                                    : Russian-PGS$ _9 k) Y/ ]% y" C& F8 g6 o
Language                                 : Russian
6 A( j7 M+ h9 r) |: C/ K( WDefault                                  : No
* z! v# v+ J7 }7 e# |6 P  W2 eForced                                   : No
3 O! S5 I! G% A; l+ R# P9 |# ]8 _+ GOriginal source medium                   : Blu-ray. |: Q! n8 O$ _$ Q3 [- `4 g
1 ^" e, Y7 n8 _! V" n9 d
Text #133 a/ }! `5 }' ]; f
ID                                       : 244 ~* X4 }& @$ e& [
ID in the original source medium         : 4779 (0x12AB)+ n  ?3 Y- O. m7 P
Format                                   : PGS
& {; ?/ b5 Z- @Muxing mode                              : zlib( a, r$ P, M$ @
Codec ID                                 : S_HDMV/PGS
% k/ y# U5 \3 d" @: ?1 zCodec ID/Info                            : Picture based subtitle format used on BDs/HD-DVDs! L9 Y7 B% U7 D$ s
Duration                                 : 1 h 29 min
# L, D, k' T' I. j9 FBit rate                                 : 20.1 kb/s9 k& V" e9 a# C% W* |
Count of elements                        : 1350
, a, S: Q1 {9 O0 ~5 R9 G' nStream size                              : 12.9 MiB (0%)
# d  X# K7 w/ r! ]2 \; jTitle                                    : Korean-PGS, G* ?5 C1 j: Z9 |$ t
Language                                 : Korean
0 @8 Q# e6 U/ G+ a& f6 N  ^Default                                  : No
' z6 b6 R4 p; P% `Forced                                   : No" g, |+ [" Z  X/ D) q) z1 ~$ w: x
Original source medium                   : Blu-ray
" }1 z( ?" F/ o3 J) p0 o* P& Y# O9 `3 m3 B! e# \2 p  A+ L% v
Text #14
7 y# D0 v% d. h1 u2 S; ~ID                                       : 25
+ L0 S  d& r  ]; M( E6 y, FID in the original source medium         : 4780 (0x12AC)0 q* v7 |! k3 ]3 J% A1 k( B( F% u& F
Format                                   : PGS) v6 N6 b; G. ?2 H9 p: @
Muxing mode                              : zlib
- i5 @/ J) P! l$ |7 |: i; a: o) N0 [( hCodec ID                                 : S_HDMV/PGS# s$ g6 |' H! Q( R. X* c: X: R
Codec ID/Info                            : Picture based subtitle format used on BDs/HD-DVDs
8 t8 ]8 H3 A' w* R$ X  pDuration                                 : 1 h 29 min
8 }# @) V2 H2 `' W6 k5 k9 IBit rate                                 : 21.9 kb/s/ [  w8 E! L7 ^& P7 _3 s2 u
Count of elements                        : 1352, L! m/ t3 ^' b! d1 v7 X) C  X
Stream size                              : 14.0 MiB (0%)
: Y4 A# Y) S9 k8 Z$ `6 d2 eTitle                                    : Japanese-PGS& v& L. f8 x! Y4 I
Language                                 : Japanese
7 w0 S) t4 a5 l% [& }Default                                  : No. ^6 K+ O: p& `+ b. C$ Z
Forced                                   : No
! Z: V  C' K1 r; N( {$ K3 A3 ROriginal source medium                   : Blu-ray& _- j$ s# q, S2 Q) N6 ~2 d
7 s# W, d+ i* _
Text #15
; u  M1 z- ~8 t7 U2 u2 O- AID                                       : 26
+ P1 r- ^( Q  z+ Y3 g- i) H9 qID in the original source medium         : 4781 (0x12AD)) y5 V$ a6 v% o7 S" g$ l  Q
Format                                   : PGS$ \9 J" d  o: W6 ]
Muxing mode                              : zlib
" s6 o0 N) u) n; M4 [6 V3 d1 yCodec ID                                 : S_HDMV/PGS
3 I% j$ D- T# Q3 W# RCodec ID/Info                            : Picture based subtitle format used on BDs/HD-DVDs
, v% Z1 w, L, d7 L8 ~) gDuration                                 : 1 h 29 min
+ t1 g" a: k8 W  n" I6 y$ uBit rate                                 : 32.8 kb/s
6 K  @- }8 U' F" s5 xCount of elements                        : 1334. J- v1 r0 j( ]( u0 M* ~
Stream size                              : 21.0 MiB (0%)
$ f* q5 x- P3 o* b2 I6 K0 ]) u- uTitle                                    : Chinese-PGS" C2 ~+ L, J3 g8 K0 q& ?; b$ l
Language                                 : Chinese5 X3 `7 \9 ~4 w" q* I' F6 X5 S
Default                                  : No% a! Y  c% A$ }9 x4 |$ `
Forced                                   : No1 o1 E" Y1 `' f! m0 P
Original source medium                   : Blu-ray' h# L1 _8 }4 c! n5 R$ O
+ @7 w8 n" X' z* y
Text #16
' }/ b/ M$ Z4 ]1 GID                                       : 27, C1 d3 n+ \! ]
ID in the original source medium         : 4782 (0x12AE)) d" j/ r/ S" J2 n/ f8 f
Format                                   : PGS) U, f" e  O: G8 P% O
Muxing mode                              : zlib
" q1 O0 i; G- L- e6 Q; fCodec ID                                 : S_HDMV/PGS! O0 F/ H  W0 i- a" E
Codec ID/Info                            : Picture based subtitle format used on BDs/HD-DVDs3 K5 o: b8 q0 r7 i1 u8 A1 `
Duration                                 : 1 h 29 min' Q5 Y$ g& u4 k  y3 q
Bit rate                                 : 31.5 kb/s
' c! N3 X& v  Y) [Count of elements                        : 1334' c/ g1 R$ x& p0 ]; d. S9 r
Stream size                              : 20.2 MiB (0%)
& k9 ~6 d2 p: S' q. ?( h$ \9 n3 u: V. qTitle                                    : Chinese-PGS0 `6 v7 |# L( F: H+ s6 d9 `3 c8 z
Language                                 : Chinese- B' L# A& y) p: O: Z; w% B% e( o7 _& A
Default                                  : No
" y- l6 `) L7 I: P' W' _Forced                                   : No
' V$ [* m" `3 s  u  ROriginal source medium                   : Blu-ray
) P2 ?7 k/ A! L% N
& U7 |! O% {( [5 }Text #17
# ^5 q6 c; n6 F! n7 M; WID                                       : 28$ L; z7 U0 P1 |6 z+ W# d0 w
ID in the original source medium         : 4783 (0x12AF)6 K9 S6 I1 h, T" P+ Y6 T
Format                                   : PGS
5 z# i) Q7 G/ ], m+ E8 FMuxing mode                              : zlib
  [6 L9 F/ q/ U, \Codec ID                                 : S_HDMV/PGS
. a* m0 L# H& \  }5 m" H- R0 @Codec ID/Info                            : Picture based subtitle format used on BDs/HD-DVDs7 @# ^, g" _5 ?& ]1 }
Duration                                 : 1 h 29 min
& M+ [  V: E7 n% Z4 n- j% _Bit rate                                 : 31.7 kb/s
, w4 ?: Z- j1 X7 P6 {Count of elements                        : 1334
8 W5 ~; w. v) D; _. P! h# v/ G, `Stream size                              : 20.3 MiB (0%)# T- l. R9 M' b/ Z4 E# l
Title                                    : Chinese-PGS
' Z& }- r  e6 zLanguage                                 : Chinese
" \8 I$ p+ s3 G3 T6 RDefault                                  : No; P# b% q) u4 w; Z; C
Forced                                   : No
; u/ z4 J  C0 p& j1 OOriginal source medium                   : Blu-ray
  ]3 ~, ^/ R( e1 ?: W+ T, P# w3 U
  W$ E2 K  D9 [% QText #18
) T2 h+ m( K  IID                                       : 29
5 J- L1 I) O' b1 p3 m! XID in the original source medium         : 4784 (0x12B0)+ P( {/ M6 r: S! A
Format                                   : PGS
7 B5 }7 E6 c$ |/ Q$ r0 {Muxing mode                              : zlib
# ^- ~2 a/ g7 n! a) Q; E: QCodec ID                                 : S_HDMV/PGS( B9 ^9 {5 h% |+ C7 I, g
Codec ID/Info                            : Picture based subtitle format used on BDs/HD-DVDs
- s  b* o, l% z6 r" k& j- tDuration                                 : 1 h 29 min
' U& n4 x# X' l' GBit rate                                 : 28.3 kb/s
; X! t' t$ G! X* ?2 p( p% @$ JCount of elements                        : 1350" P0 {) x; e0 S
Stream size                              : 18.1 MiB (0%)  Q' E) a9 s# {2 i; f
Title                                    : Thai-PGS8 [& {* j# b5 `
Language                                 : Thai/ W' Y$ H1 n, V' m
Default                                  : No
0 ^$ l! R. F' H/ aForced                                   : No
9 _. j; ~3 ]" r. k4 E" y1 MOriginal source medium                   : Blu-ray
/ ^& t. |) {4 B; z$ G" }8 z5 f7 \3 t  T! M$ p5 P
Text #19
( G$ F" l/ a/ |9 G1 M/ i- [7 hID                                       : 30
* P6 {3 C; K1 X+ Y6 n* H) U3 GID in the original source medium         : 4785 (0x12B1)
! e+ ]* L+ A, w8 eFormat                                   : PGS
( x9 ?" _6 z9 o& jMuxing mode                              : zlib4 L9 y$ T& v/ V2 H% [3 f* ]& N2 c- y: J
Codec ID                                 : S_HDMV/PGS1 M" Z& M8 D) f$ `# P/ d# D6 O, `- z
Codec ID/Info                            : Picture based subtitle format used on BDs/HD-DVDs
) h0 V% E4 Q  L+ d4 ?7 _/ |. iDuration                                 : 1 h 29 min
- Y# ^# E4 \. m. A& s3 UBit rate                                 : 28.2 kb/s
% ?6 n- k! E4 uCount of elements                        : 1254. F' F( o0 v' ~. w. [
Stream size                              : 18.1 MiB (0%)1 Q) k  y- q. Q0 p$ r
Title                                    : English-PGS- F0 z0 G4 |3 |) X+ p* y
Language                                 : English
( X) o  D+ K. w9 i6 Z+ g: x7 l7 dDefault                                  : No4 ~8 ^* I* L& s( q9 `5 v6 {9 j
Forced                                   : No
5 B! S3 q- s7 G4 V: e3 ]Original source medium                   : Blu-ray
! o# z! z9 I5 d
1 ^' K' _. r, M1 q' |: mMenu% ^9 z" R/ e* ~$ Q% v- x1 @/ K
00:00:00.000                             : en:Chapter 01* b6 B. T2 ^8 ]/ m/ b' n' k
00:01:53.000                             : en:Chapter 028 a1 f+ l. b* S% u
00:08:08.000                             : en:Chapter 03+ `8 u" w- g! g2 e/ a( R( W
00:12:50.916                             : en:Chapter 046 P# m" [( G6 s; B& T) ~
00:19:06.000                             : en:Chapter 05% c  y1 o2 _4 M+ q/ ~2 Q
00:23:21.416                             : en:Chapter 06
7 J. Y8 n" M( B: G. \3 |2 U00:30:35.500                             : en:Chapter 07. s7 G, c- C& b. ~+ t
00:37:46.458                             : en:Chapter 088 V( h' l8 o& Q- R# Q
00:41:12.416                             : en:Chapter 090 S8 M( _1 I* a. G) C3 ~2 `3 V
00:46:19.000                             : en:Chapter 10
! |( G, u% j: R9 J4 Z00:52:06.875                             : en:Chapter 110 `9 ]9 h7 S* X3 d
00:59:42.708                             : en:Chapter 12
# ^& b4 K- t/ t. |# z01:04:45.708                             : en:Chapter 139 N. l7 K/ O9 m; |3 f' h+ M
01:08:11.000                             : en:Chapter 14, }) o, K5 Z( ^5 i( D  B2 i
01:15:25.000                             : en:Chapter 15
) n4 N" `$ j) n2 u7 q9 l01:22:35.916                             : en:Chapter 16* _1 b5 h4 Y" {5 y1 v. I
01:26:57.833                             : en:Chapter 17! s" m6 P- Y: D5 s$ Q1 E( y- e
01:30:25.000                             : en:Chapter 18

! M6 G- l" K: a) g9 B
游客,查看本帖隐藏内容请回复 | 加入VIP贵宾组可免积分免回复下载 立即了解 | 还不是会员:点击获取邀请码 Invitation Code

2

主题

627

帖子

2673

积分

Sponsor

金币
586 枚
体力
907 点
tto138 发表于 2020-6-14 22:52:33 | 显示全部楼层
沙发是抢的而不是占的!- s0 v! G/ b' o$ m
祝愿蓝光社区越办越好!I wish Blu-ray communities better and better!
  [5 k3 j0 \, g/ t  Q4 k5 Z5 d

35

主题

999

帖子

3807

积分

Sponsor

金币
434 枚
体力
1334 点
lanpanshuma 发表于 2020-6-15 05:36:01 | 显示全部楼层
啥也不说了,楼主就是给力!
* {& ]2 b& |( vYour resources, well, I am very satisfied!
  d1 B# S0 W5 x; {/ P
该会员没有 ...

0

主题

84

帖子

522

积分

Sponsor

金币
2 枚
体力
346 点
zuiqingfeng 发表于 2020-6-17 18:34:32 | 显示全部楼层
每天都来蓝光论坛看看,我爱蓝光电影。3 |  n1 ^) o4 o6 j
The decisive Replies sink is I get the sinking feeling great sense of accomplishment!2 G+ \1 Y% [& b+ M; _, g

0

主题

114

帖子

484

积分

Sponsor

金币
47 枚
体力
226 点
90years 发表于 2020-6-19 06:37:41 | 显示全部楼层
这个片子不错啊

本版积分规则

小黑屋|Archiver|蓝光电影资源网

GMT+8, 2020-7-5 15:43

快速回复 返回顶部 返回列表