BluRayCD Forum

 找回密码
 立即注册【分享大片】

QQ登录

只需一步,快速开始

查看: 103|回复: 3
收起左侧

[2160P极清] 天气之子 [4K SDR高码版 自带中字] Weathering with You 2019 JAPANESE 2160p BluRaycd x265 10bit & 8bit SDR DTS-HD MA 5.1-SWTYBLZ 23.34GB & 21.75GB

[复制链接]

4310

主题

4468

帖子

5万

积分

Post Share

金币
7979 枚
体力
16161 点

卓越贡献勋章

黄金嫖客 发表于 2020-6-17 16:51:16 | 显示全部楼层 |阅读模式

  M$ P- f, e$ |" \0 O' x. @) {$ |% C6 _8 i. r+ M  ~
◎片  名 天気の子 / Child of Weather / Weather Child / Weather's Child / Weathering With You
5 F8 H  H' B* M◎译  名 天气之子
0 f) u. V8 @3 b: `◎年  代 2019
, M6 m8 X0 r' Y( F* Q◎产  地 日本
5 E) l3 O. ~( ^6 N' q( z. \◎类  别 爱情/动画/奇幻
, A: I4 [, U* J. T◎语  言 日语
6 U4 v7 s- C$ V◎上映日期 2019-07-19(日本)/2019-11-01(中国大陆)
' o7 t6 z$ Q8 B1 w: T; F◎IMDb评分  7.6/10 from 12,867 users
$ g. r5 F3 w+ y* f) ?◎IMDb链接  https://www.imdb.com/title/tt9426210) |( O  Z' R1 h& f, E3 n3 ~
◎豆瓣评分 7.1/10 from 193,706 users8 g; r8 E/ m4 v2 a5 Y) v0 o: P
◎豆瓣链接 https://movie.douban.com/subject/30402296/7 F- u  u6 @# X, |+ u% o
◎片  长 1 h 52 min8 F! G) k( \2 p$ q, E
◎导  演 新海诚 Makoto Shinkai
2 f! k' I0 G- d- ]◎编  剧 新海诚 Makoto Shinkai
  t: i) [# ~3 L◎主  演 醍醐虎汰朗 Kotaro Daigo
3 H3 r; }% `$ _7 y       森七菜 Nana Mori
6 ]0 f; s5 n. f) u       小栗旬 Shun Oguri2 c8 [2 X0 F% D! V- c
       本田翼 Tsubasa Honda) @1 k6 ^. c7 f3 H- K- F$ K( v
       倍赏千惠子 Chieko Baishô4 Y. c+ F+ Y/ r5 M
       吉柳咲良 Sakura Kiryu
* @# h# l) @/ B) n$ {5 V9 g       平泉成 Sei Hiraizumi
7 D1 Y! @; d: ~9 R4 @       梶裕贵 Yûki Kaji
( @0 V0 P4 v) Z$ C& s: L" w5 ^# w& H' a, ]       木村良平 Ryohei Kimura( Q+ {) W& c& p3 l* Z- w
       柴田秀胜 Hidekatsu Shibata
. R1 a, d- p0 P( u( A6 A! Q       野泽雅子 Masako Nozawa9 O5 i- S! O) f: Z. d/ v4 [
       花泽香菜 Kana Hanazawa) `. I& M6 C9 y" n  C. Z
       佐仓绫音 Ayane Sakura
, ^5 t1 Z3 H9 j3 C8 f1 P- H2 S
◎标  签 日本 | 爱情 | 青春 | 动画 | 治愈 | 2019 | 奇幻 | 神作
+ N! |2 J3 L) ^& c' y6 E  n
; E9 F( j0 D2 e◎简  介  
: x! E% J6 N. J" c1 N
" V0 \2 b. ?8 G" ]/ K  a  高一那年夏天,帆高(醍醐虎汰朗配音)离开位在离岛的家乡,独自一人来到东京,拮据的生活迫使他不得不找份工作,最后来到一间专门出版奇怪超自然刊物的出版社担任写手。不久,东京开始下起连日大雨,仿佛暗示着帆高不顺遂的未来,在这座繁忙城市里到处取材的帆高邂逅了与弟弟相依为命,不可思议的美少女阳菜(森七菜配音)。「等等就会放晴了喔。」阳菜这样告诉着帆高,不久,头顶的乌云逐渐散去,耀眼的阳光洒落街道……原来,阳菜拥有「改变天气」的奇妙能力……9 [5 J" z- S9 ~8 y

; W' Y$ Z8 a/ F7 N, x& g  High school freshman Hodaka Morishima leaves his home on an isolated island and moves to Tokyo, but he quickly finds himself in financial trouble. Living his days in isolation, he eventually lands a job as a writer for a shady occult magazine. Then one day in an alley, Hodaka meets a young girl named Hina Amano, bright and strong-­willed, who possesses a strange and wonderful ability: the power to stop the rain and clear the sky.
/ B; w/ D* K+ J+ m' m5 A9 L7 n- C
" S3 P# W0 ]# s# ]5 Y% Q4 B◎获奖情况  & ?, {% X$ ]# ~0 O* p6 y; `: T
4 g! q; w( p; g" Q4 D/ @5 h
  第43届日本电影学院奖(2020)) k! ^: G& V$ s
  最佳动画片
( E" B5 p3 v2 F0 t* }1 [/ R& b: f  最佳配乐2 E5 H3 c/ c# X4 x8 w7 a
3 d6 p4 Z! c* T$ d8 `" E+ b# }
  第47届动画安妮奖(2020); c7 T% {6 R, X9 z  i; s; e% |; J! i' J
  最佳独立动画长片(提名)
  `/ M& G. P4 A- P$ g  最佳导演(提名) 新海诚# X% h! T5 D8 ~) Q5 D
  最佳编剧(提名) 新海诚8 R/ ~9 s% y) w5 h1 B- |* C
  最佳动画效果(提名)" G; V8 U2 A0 o
0 {. n4 e4 [2 K- p; g7 H4 E7 R' K
  第24届金卫星奖(2020)
8 r7 G& @1 l6 T% B  i1 W  电影部门 最佳动画片(提名)
4 R2 g- u- b. T; W8 B$ C% t
' M# y; C$ o6 C/ b! R4 U. s  第44届报知映画赏(2019): E% D3 g3 B3 k6 R% A1 @
  最佳动画! Q0 c: g+ }1 m+ A4 J9 ]3 Z0 m& t
3 U1 i5 L! K( d& Y- E; ~( w
SWEATY BALLZ presents
0 }  }4 ?- @# E6 n; W% K2 J' U+ u! X7 N4 H) E
Weathering.with.You.2019.2160p.BluRayCD.x265.10bit.SDR.DTS-HD.MA.5.1-SWTYBLZ
1 L1 N- n" |7 P: E# d$ q: N& z& g# iConverted from 10 bit HDR to 10 bit SDR using tripple mixed Hable-Reinhard-JJ per scene+frame analysis algorithm
! y4 g4 ?+ Q" WScreenshots are 8bit SDR0 {( K  J7 S' T% L8 D+ k

+ G' R( d1 R4 g& x" F" bVideo
# F( D, u; c8 e9 ~0 l0 @6 s* ZID                                       : 1
6 g5 K) W* N3 Z0 B0 fFormat                                   : HEVC
/ H* r( `' `+ xFormat/Info                              : High Efficiency Video Coding' `" d- `$ X* i
Format profile                           : Main 10@L5.1@High
2 q; e5 U: R' n; @' T5 z, ^Codec ID                                 : V_MPEGH/ISO/HEVC! z' U! M3 p! e/ |. n5 N, `5 n
Duration                                 : 1 h 52 min
' N2 }. O2 `) XBit rate                                 : 25.3 Mb/s0 y& E. B* y- j2 ^$ [: b# m
Width                                    : 3 840 pixels$ u0 N- d' c3 P4 G
Height                                   : 2 160 pixels
  ^0 _: d0 @, B0 W9 F9 aDisplay aspect ratio                     : 16:9$ M1 Z! ]& Z2 T5 q
Frame rate mode                          : Constant2 v9 X/ m9 R! k5 C
Frame rate                               : 23.976 (24000/1001/37687) FPS
: ?( @# \1 ~; }, Y7 R- K. UColor space                              : YUV
1 @8 m: x% E$ y) L4 KChroma subsampling                       : 4:2:05 O0 ~  P- E2 r+ K8 Z
Bit depth                                : 10 bits6 v+ e1 E& p* T" I/ C" }
Bits/(Pixel*Frame)                       : 0.127
$ r9 [! M5 y8 KStream size                              : 19.9 GiB (86%)
* w% l  [9 B! I8 mTitle                                    : Weathering.with.You.2019.JAPANESE.2160p.BluRaycd.x265.10bit.SDR.DTS-HD.MA.5.1-SWTYBLZ# ?* Z8 B$ h5 N- s3 h5 q+ m
Writing library                          : x265 3.0+1-ed72af837053:[Windows][GCC 8.2.0][64 bit] 10bit
! ?. N8 i1 S+ a: B" }Encoding settings                        : cpuid=1111039 / frame-threads=6 / numa-pools=40 / wpp / no-pmode / no-pme / no-psnr / no-ssim / log-level=2 / input-csp=1 / input-res=3840x2160 / interlace=0 / total-frames=161448 / level-idc=51 / high-tier=1 / uhd-bd=0 / ref=3 / no-allow-non-conformance / repeat-headers / annexb / aud / hrd / info / hash=0 / no-temporal-layers / no-open-gop / min-keyint=1 / keyint=24 / gop-lookahead=0 / bframes=6 / b-adapt=2 / b-pyramid / bframe-bias=0 / rc-lookahead=25 / lookahead-slices=4 / scenecut=40 / radl=0 / no-splice / no-intra-refresh / ctu=64 / min-cu-size=8 / no-rect / no-amp / max-tu-size=32 / tu-inter-depth=1 / tu-intra-depth=1 / limit-tu=0 / rdoq-level=0 / dynamic-rd=0.00 / no-ssim-rd / signhide / no-tskip / nr-intra=0 / nr-inter=0 / no-constrained-intra / strong-intra-smoothing / max-merge=2 / limit-refs=3 / no-limit-modes / me=1 / subme=2 / merange=57 / temporal-mvp / weightp / no-weightb / no-analyze-src-pics / deblock=1:1 / no-sao / no-sao-non-deblock / rd=3 / no-early-skip / rskip / no-fast-intra / no-tskip-fast / no-cu-lossless / no-b-intra / no-splitrd-skip / rdpenalty=0 / psy-rd=0.40 / psy-rdoq=0.00 / no-rd-refine / no-lossless / cbqpoffs=0 / crqpoffs=0 / rc=crf / crf=14.0 / qcomp=0.60 / qpstep=4 / stats-write=0 / stats-read=0 / vbv-maxrate=160000 / vbv-bufsize=160000 / vbv-init=0.9 / crf-max=0.0 / crf-min=0.0 / ipratio=1.40 / pbratio=1.30 / aq-mode=1 / aq-strength=0.40 / cutree / zone-count=0 / no-strict-cbr / qg-size=32 / no-rc-grain / qpmax=69 / qpmin=0 / no-const-vbv / sar=1 / overscan=0 / videoformat=5 / range=0 / colorprim=2 / transfer=2 / colormatrix=2 / chromaloc=0 / display-window=0 / max-cll=0,0 / min-luma=0 / max-luma=1023 / log2-max-poc-lsb=8 / vui-timing-info / vui-hrd-info / slices=1 / opt-qp-pps / opt-ref-list-length-pps / no-multi-pass-opt-rps / scenecut-bias=0.05 / no-opt-cu-delta-qp / no-aq-motion / no-hdr / no-hdr-opt / no-dhdr10-opt / no-idr-recovery-sei / analysis-reuse-level=5 / scale-factor=0 / refine-intra=0 / refine-inter=0 / refine-mv=0 / refine-ctu-distortion=0 / no-limit-sao / ctu-info=0 / no-lowpass-dct / refine-analysis-type=0 / copy-pic=1 / max-ausize-factor=1.0 / no-dynamic-refine / no-single-sei / no-hevc-aq / qp-adaptation-range=1.00
: j( G5 [* d; Y% O# }Default                                  : Yes+ q' E+ _' d( d$ L
Forced                                   : No
0 E0 W' O) S) T. @" A8 yAudio #1
: Y5 p) Y# f" a9 p8 W& [2 I0 mID                                       : 24 [2 y% R) @8 v0 }" S: y9 {$ M
ID in the original source medium         : 4352 (0x1100)$ ]  a. y- O7 J* E
Format                                   : DTS XLL8 C. Z; F0 g% Q0 G
Format/Info                              : Digital Theater Systems+ a* W, ^1 j3 z5 o- v
Commercial name                          : DTS-HD Master Audio7 n+ t7 K/ {& q: x* I9 d6 I8 q+ ^
Codec ID                                 : A_DTS
. H; N+ G( k9 q7 [3 @7 j5 P& ^Duration                                 : 1 h 52 min1 A4 t8 H) `( O- \. v6 i( X
Bit rate mode                            : Variable
4 o, Z& H8 _) g2 }. }$ ZBit rate                                 : 3 557 kb/s
% c1 r+ b  q  V, r  ?Channel(s)                               : 6 channels! V/ O' b. t" n# i1 `  Y
Channel layout                           : C L R Ls Rs LFE; \+ `1 Y5 C9 W% W+ ?) g
Sampling rate                            : 48.0 kHz) ~3 a& L" k, y+ X* P
Frame rate                               : 93.750 FPS (512 SPF)
) t8 b. }% p! ?. j4 _' u9 H* [$ pBit depth                                : 24 bits( \1 ~, m2 w- P0 o' e, X7 _
Compression mode                         : Lossless
5 A9 V+ d4 ?: `$ lStream size                              : 2.79 GiB (12%)
& p" j, s' y. I, z3 R# KTitle                                    : Weathering.with.You.2019.JAPANESE.2160p.BluRaycd.x265.10bit.SDR.DTS-HD.MA.5.1-SWTYBLZ
: Y8 E# W4 K, v/ e& |3 x+ k4 {Language                                 : Japanese) I- Y* ?/ n$ [
Default                                  : Yes
/ f" u6 J9 L+ z/ t3 EForced                                   : No
" t: D( G; _8 tOriginal source medium                   : Blu-ray
' ]0 k$ |7 C) M4 i" bAudio #2& B  |1 z9 y/ B1 {  f$ i( A! |
ID                                       : 32 t6 H" J- T; {0 W, W
Format                                   : AC-3$ v4 j/ u6 P6 Z5 X( W; a
Format/Info                              : Audio Coding 33 b& j* I" d! S9 O6 ~9 E
Commercial name                          : Dolby Digital* z" c& U1 s" g. L' m- V
Codec ID                                 : A_AC3; L, L0 m- I- `: Z
Duration                                 : 1 h 52 min
. {1 e' |, i" uBit rate mode                            : Constant2 [: o0 _5 U2 u* ]
Bit rate                                 : 640 kb/s
/ l5 W; J- `3 H( K" sChannel(s)                               : 6 channels
9 o+ Y+ ]5 ^5 Y5 w& Q! zChannel layout                           : L R C LFE Ls Rs
1 H, K9 \  Z' D+ @, i6 q& W: ESampling rate                            : 48.0 kHz
7 y/ \. U# J- q3 [* h& d5 p) fFrame rate                               : 31.250 FPS (1536 SPF)6 v% n* ?" y/ R& A
Compression mode                         : Lossy
/ M  K& B3 ^9 T6 x/ L& _# t; JStream size                              : 514 MiB (2%)
3 X, R0 u& O& ~/ i* Y" W! q9 vTitle                                    : Weathering.with.You.2019.JAPANESE.2160p.BluRaycd.x265.10bit.SDR.DTS-HD.MA.5.1-SWTYBLZ% i/ T1 c% ^' h+ p+ V# K  ?( w
Language                                 : Japanese
- [" q: @4 {9 VService kind                             : Complete Main
5 u* f9 f6 h! I( \- {Default                                  : No
0 g* m8 a  H1 S/ k1 c6 b/ g7 [Forced                                   : No& P( N2 {: c" M: L
Text #17 o; @7 k8 z+ ?# r
ID                                       : 4
/ {$ L0 `* w! @+ hFormat                                   : UTF-8  `3 r8 }7 i" L! l6 U0 e
Codec ID                                 : S_TEXT/UTF82 r2 R# I+ Q( O
Codec ID/Info                            : UTF-8 Plain Text
7 m8 V! I3 W# N( JDuration                                 : 1 h 51 min- o* b6 L; T9 X$ v
Bit rate                                 : 65 b/s
2 I2 A& t4 T1 v# @9 BCount of elements                        : 1703) `( v; N* N2 Z+ _, L
Stream size                              : 53.6 KiB (0%)
- v( _- N- S6 t' N& S' f5 xTitle                                    : English-SRT8 I" H7 k: P+ H8 _) k- u+ @
Language                                 : English
4 M8 z. N- _7 V2 P' l8 o5 z4 GDefault                                  : Yes1 F5 w' Q" L5 j' i8 H/ @* @. ^1 z
Forced                                   : No
1 o% C  s# D7 W' X. LText #2
5 Y- l. J6 T3 r3 Z; U2 `ID                                       : 5, p1 _6 e3 b4 B9 Y' }
ID in the original source medium         : 4768 (0x12A0)
- s+ R( o$ q# C( [Format                                   : PGS8 a) S0 U4 s: t6 g# {
Muxing mode                              : zlib
, U! `! A+ q4 o, c# T1 S# Z) ]Codec ID                                 : S_HDMV/PGS& D" G. b2 Q7 i1 B
Codec ID/Info                            : Picture based subtitle format used on BDs/HD-DVDs
- P3 w  G2 Y9 j( P5 _$ BDuration                                 : 1 h 51 min
8 J7 q  W  w% R$ qBit rate                                 : 42.8 kb/s! |/ T5 ^4 C: N* X: u
Count of elements                        : 3506. [9 ?& L/ `% S6 P9 O8 `
Stream size                              : 34.1 MiB (0%)6 h+ D  q* N- ]* Q0 o9 B) T
Title                                    : Japanese-PGS% T3 k1 s  e4 M9 e1 K. d
Language                                 : Japanese
: q* k" X2 ?8 l; ^# C* N& N9 @Default                                  : No
0 C7 S5 ?6 G) E) Y) A5 P* J$ w) t) G" M( iForced                                   : No
9 N/ \$ r( ~2 H* O6 IOriginal source medium                   : Blu-ray/ c0 m9 z* I. T( O  v; H  K
Text #3
& S- ^, l: D) x- P- Q- T2 |, a1 ZID                                       : 6
1 q) S6 l9 z# o( q7 B7 |ID in the original source medium         : 4769 (0x12A1)4 E2 O% K1 d/ }- y" O& H3 {" d
Format                                   : PGS
! C3 N( ^/ ]5 s0 I6 TMuxing mode                              : zlib/ u/ b5 }0 _9 Q0 A% {
Codec ID                                 : S_HDMV/PGS
3 U7 Q$ O; d+ XCodec ID/Info                            : Picture based subtitle format used on BDs/HD-DVDs
* @. l4 o, L. Q& c& t' P6 Q: lDuration                                 : 1 h 51 min
$ O8 H7 X4 A, D8 B  m) h$ ?5 g; sBit rate                                 : 33.4 kb/s
% Y6 e, Z* {* K; aCount of elements                        : 3134
5 z' e" J3 `* {1 rStream size                              : 26.5 MiB (0%)
, O6 v$ t3 Y. @  N8 @% h- t8 uTitle                                    : English-PGS
) g& f0 D+ o6 n0 ^9 t9 M, YLanguage                                 : English' _! n6 X2 q' L6 V% n" ^4 k
Default                                  : No, ?) J# M: D6 y9 v; }
Forced                                   : No5 D! n9 g9 I0 y. A' p2 C! Q" z+ c/ ^
Original source medium                   : Blu-ray0 ?" n3 L% |4 ?& b7 P
Text #4' N8 m& {: x  x* A  D
ID                                       : 7
2 p2 a# P" |5 w* V+ DID in the original source medium         : 4770 (0x12A2)
5 Y5 }& b$ E1 ~Format                                   : PGS: H9 K: K5 X$ V) M* Q: @0 A8 t6 z
Muxing mode                              : zlib5 v, |$ Q. f4 Y1 r  y
Codec ID                                 : S_HDMV/PGS: X# C( R$ \1 B8 t! L/ s' `# O
Codec ID/Info                            : Picture based subtitle format used on BDs/HD-DVDs
9 C, R% s9 p- e1 P1 CDuration                                 : 1 h 50 min4 s- \2 m! `- H
Bit rate                                 : 30.6 kb/s" O0 t& W3 F1 G' S5 ^% c
Count of elements                        : 3462
+ `: u) p" g9 g9 B% P) rStream size                              : 24.3 MiB (0%)
: u* l4 E/ X$ V0 eTitle                                    : Chinese-PGS
5 v8 V% v6 I$ ALanguage                                 : Chinese
  a  \! _( a8 {% |6 a; \Default                                  : No
* Z( e0 D( x# p9 rForced                                   : No) n* l( [! M& K% h+ l
Original source medium                   : Blu-ray8 e. |% Q& p9 b
Menu1 r5 r( u2 O+ n5 [0 H( ~5 @
00:00:00.000                             : en:Chapter 01
2 ^) l% w( R; o% ~6 {9 Y00:03:52.232                             : en:Chapter 02  m/ L# f; M% }, S
00:07:13.057                             : en:Chapter 032 V  T8 \* \1 q" E. _6 ]  e! t7 m( k
00:11:51.293                             : en:Chapter 04
+ ?% {  D' b  N1 [$ I00:17:26.795                             : en:Chapter 05
9 f* n1 V9 y3 t* ^: [% G00:19:46.351                             : en:Chapter 06
/ H4 Q; F' D: u! {00:22:25.260                             : en:Chapter 07
' L% o4 }) R9 k  l4 L/ u. R- _00:26:07.691                             : en:Chapter 08  o' F; S+ f  r- ~; F* ^; [
00:30:07.972                             : en:Chapter 09
9 N) `0 O9 D4 K0 i9 N) S00:34:27.982                             : en:Chapter 10
8 C; _! O* B: t% l00:38:29.682                             : en:Chapter 113 S& _4 H' o7 X2 I
00:41:36.243                             : en:Chapter 127 Z( k% ]& m; A' p( I. \  I  G
00:44:05.893                             : en:Chapter 13/ k1 v: |2 |1 A6 l/ l8 y+ [4 y
00:47:59.126                             : en:Chapter 14% L* y3 e! j- E1 X, m
00:52:11.253                             : en:Chapter 15
1 S4 C: \0 L: \: c  l9 F00:55:55.852                             : en:Chapter 16
/ R& H2 N/ g' ~# {. j3 V8 `) f( [9 J00:58:46.773                             : en:Chapter 17
( @0 v4 Y" T5 y01:01:42.532                             : en:Chapter 18
$ C9 W2 o; ^/ b, h01:05:18.247                             : en:Chapter 19" r$ u" d+ N) [) o1 f
01:08:55.923                             : en:Chapter 203 R7 _. S$ ~$ V" D& E2 \+ C+ m
01:13:53.178                             : en:Chapter 212 n2 }  V: p/ a& q0 i. o% u  t
01:16:58.322                             : en:Chapter 22
$ {; |- |8 M4 y  m01:19:57.584                             : en:Chapter 23
% j9 N; t% Z" U- P' P! I01:23:15.573                             : en:Chapter 249 k( E  c6 o) m4 R2 T: v
01:25:48.226                             : en:Chapter 25& U& [& v( {9 e- Q/ ]6 b
01:28:51.117                             : en:Chapter 26( a) P% f4 ~7 |1 S
01:33:02.868                             : en:Chapter 27! ?$ S: ~, |" i+ F# K
01:38:32.907                             : en:Chapter 28, Y+ @7 J. ?: @5 F0 O
01:43:29.244                             : en:Chapter 29
- q" p) I6 {; B6 r( H: l3 i* K$ ~& x01:47:40.579                             : en:Chapter 305 q% I8 `2 ~( c3 W" T3 B' D  R
01:52:12.600                             : en:Chapter 31
SWEATY BALLZ presents
7 |+ P$ u6 x) g5 t$ G) l3 x, F& v- @
Weathering.with.You.2019.2160p.BluRaycd.x264.8bit.SDR.DTS-HD.MA.5.1-SWTYBLZ
, O2 C! f, Z$ p- B. sConverted from 10 bit HDR to 8 bit SDR using tripple mixed Hable-Reinhard-JJ per scene+frame analysis algorithm
4 o2 b4 e* e% q( H& \+ m; A4 P  I, A7 C4 ?7 M: X& Q8 X, U3 ~
Video' ?* t5 G! K; ^8 c: R3 q' M
ID                                       : 17 W& x  r! u0 l5 @
Format                                   : AVC
- B6 t- J9 r3 |, T7 S) S: FFormat/Info                              : Advanced Video Codec
, D% H( t& t2 Q# a6 AFormat profile                           : High@L5.16 O. ^" z1 q) f/ q) Q1 N* u: K! P
Format settings                          : CABAC / 5 Ref Frames
- y# ]% W; m5 ]6 n4 d  B  J& @9 _+ EFormat settings, CABAC                   : Yes  ]8 }+ S4 e6 T
Format settings, Reference frames        : 5 frames& v+ D# X, ]  w0 \+ e2 N$ X7 r
Codec ID                                 : V_MPEG4/ISO/AVC7 c/ }+ o1 j! e+ |  P( T. V
Duration                                 : 1 h 52 min
/ B# i7 B' d" G- L: CBit rate                                 : 23.3 Mb/s% H( s/ H/ P% A
Width                                    : 3 840 pixels3 K* h! E1 K; C: G
Height                                   : 2 160 pixels& @4 W! d4 o" y8 f+ t0 [! z- b. p2 W
Display aspect ratio                     : 16:97 c% d) ^4 H" n' r; K& w% H
Frame rate mode                          : Constant
7 w* w& V5 h# o. h' `; rFrame rate                               : 23.976 (24000/1001/37687) FPS
& |7 t4 C5 {& d$ A: uColor space                              : YUV
6 r* W4 }! A+ i0 D' B; n+ ]( [Chroma subsampling                       : 4:2:0; s% W$ H0 ^9 Z
Bit depth                                : 8 bits4 M0 W5 {& X$ U; w
Scan type                                : Progressive
/ U) \! y! Z- \' t+ F! `; a# j  `Bits/(Pixel*Frame)                       : 0.1173 \" d+ x" W9 J
Stream size                              : 18.3 GiB (85%)$ W. y: R+ [: U2 Z. l# T
Title                                    : Weathering.with.You.2019.JAPANESE.2160p.BluRaycd.x264.8bit.SDR.DTS-HD.MA.5.1-SWTYBLZ9 {, o$ F; j2 B( H7 d6 U
Writing library                          : x264 core 157 r2935 545de2f% n0 B. ]% V2 g& B2 u" X
Encoding settings                        : cabac=1 / ref=5 / deblock=1:1:1 / analyse=0x3:0x113 / me=umh / subme=10 / psy=1 / psy_rd=0.40:0.00 / mixed_ref=1 / me_range=48 / chroma_me=1 / trellis=2 / 8x8dct=1 / cqm=0 / deadzone=21,11 / fast_pskip=1 / chroma_qp_offset=-2 / threads=36 / lookahead_threads=4 / sliced_threads=0 / nr=0 / decimate=0 / interlaced=0 / bluray_compat=0 / constrained_intra=0 / bframes=5 / b_pyramid=2 / b_adapt=2 / b_bias=0 / direct=3 / weightb=1 / open_gop=0 / weightp=2 / keyint=250 / keyint_min=23 / scenecut=40 / intra_refresh=0 / rc_lookahead=50 / rc=crf / mbtree=1 / crf=16.0 / qcomp=0.60 / qpmin=0 / qpmax=69 / qpstep=4 / ip_ratio=1.40 / aq=1:0.60
0 m# o5 x( b8 ?Default                                  : Yes
2 ?: v+ w1 f& k, d$ ]Forced                                   : No
' z' Y+ |. |2 Y" V+ q2 AAudio #1
& Y% H# M2 U3 c$ t: c( d0 c3 {; qID                                       : 2
  I+ V6 t, D' m, N' ?9 a  s$ e, ^9 QID in the original source medium         : 4352 (0x1100)- x. H2 ?# C" b
Format                                   : DTS XLL& d4 s( H5 z, f  F. d1 v+ b; l
Format/Info                              : Digital Theater Systems
9 o$ A" O7 y. a2 E/ b- {1 eCommercial name                          : DTS-HD Master Audio
4 Q! }: ]2 ~: WCodec ID                                 : A_DTS, [! A5 |0 V; i' @
Duration                                 : 1 h 52 min
" j$ q2 N; w0 P3 [' Y/ A/ Q  \Bit rate mode                            : Variable/ L' V8 s, M$ i& p0 b
Bit rate                                 : 3 557 kb/s
( Q1 O* S& B, K2 zChannel(s)                               : 6 channels
, V( V* z) V5 K$ F3 oChannel layout                           : C L R Ls Rs LFE
7 B$ \, |. H! {, n! N2 N  ]Sampling rate                            : 48.0 kHz8 }5 q6 W5 m3 D
Frame rate                               : 93.750 FPS (512 SPF)
3 J" P: R; ~7 }  e$ Q) IBit depth                                : 24 bits! ^) u' Y2 A9 w4 d8 J
Compression mode                         : Lossless
+ A! @3 k9 v1 C. nStream size                              : 2.79 GiB (13%): q! G2 {5 D0 l& i# W
Title                                    : Weathering.with.You.2019.JAPANESE.2160p.BluRaycd.x264.8bit.SDR.DTS-HD.MA.5.1-SWTYBLZ
+ t6 X- {; {) n7 uLanguage                                 : Japanese
: L& z+ s: G' u: Q, D! E0 rDefault                                  : Yes
) p& r, H, y( H: n/ R  DForced                                   : No
6 P; J6 n  p4 W  J' ]Original source medium                   : Blu-ray
0 _* `4 L- ]  C9 c! G% BAudio #2
/ Q& H& p; o% Z, OID                                       : 3* M" E# X! I: j
Format                                   : AC-3
9 Q9 K; y$ l1 T4 FFormat/Info                              : Audio Coding 3
, b* i* I. Y4 y4 PCommercial name                          : Dolby Digital0 p0 A# y- M/ l, V1 Z
Codec ID                                 : A_AC3# l8 ?" x  i0 a4 s
Duration                                 : 1 h 52 min
7 x0 _9 `$ s+ sBit rate mode                            : Constant
0 L: H7 j6 M3 Q4 B( [Bit rate                                 : 640 kb/s* H& O( a) b5 Y8 \
Channel(s)                               : 6 channels5 V' a/ T) L* D
Channel layout                           : L R C LFE Ls Rs
+ W  m8 F4 i) x* c, H# X0 E% ]4 u* qSampling rate                            : 48.0 kHz, K' I! q3 _* M( l5 f
Frame rate                               : 31.250 FPS (1536 SPF)
& Z; ^  x1 @( kCompression mode                         : Lossy2 w( B8 E1 p4 o4 }
Stream size                              : 514 MiB (2%)/ ~5 j3 R6 S* S' o+ ?4 l
Title                                    : Weathering.with.You.2019.JAPANESE.2160p.BluRaycd.x264.8bit.SDR.DTS-HD.MA.5.1-SWTYBLZ
9 ^6 U- Q: D$ B2 f0 }Language                                 : Japanese4 Y6 ]. r% Y5 K# V1 x- T
Service kind                             : Complete Main
, h% s% ?  @9 m* \2 r6 {5 ODefault                                  : No0 o% L9 d7 A- R+ r+ S# z) T) h
Forced                                   : No
) S# e( X, L* |Text #1, \0 c& ^' H, |# H* T" K$ u
ID                                       : 4* w( M( L  Q  {/ \: W( z
Format                                   : UTF-8
: l1 a- z' l  y! j" @Codec ID                                 : S_TEXT/UTF8. Q" j* d1 r9 E4 s
Codec ID/Info                            : UTF-8 Plain Text
" r2 ^% L! e% f5 ~9 LDuration                                 : 1 h 51 min9 s1 J$ i1 A2 J9 l. P# C  E
Bit rate                                 : 65 b/s% ?+ V# p: Z2 g* b; E( t" y* U. H
Count of elements                        : 1703
" J! T* i/ T+ O) UStream size                              : 53.6 KiB (0%)5 ~7 {# D' _7 H7 y' u; T5 V5 x) Z
Title                                    : English-SRT# D+ t" m4 {: A
Language                                 : English
" B9 i0 n  ?0 Q( W2 y2 }Default                                  : Yes  d! Z; {- i5 W! O* l3 k2 p
Forced                                   : No0 q7 r8 F4 B7 u8 h+ c
Text #2
# M+ }, `) w! o" |* U0 [ID                                       : 57 {/ g0 [" `. ]4 Z7 T) ~
ID in the original source medium         : 4768 (0x12A0)0 Q8 C4 O) y, C8 x, s
Format                                   : PGS# B1 H3 b( M+ M& [
Muxing mode                              : zlib5 Q4 W$ g: U% N; T% a
Codec ID                                 : S_HDMV/PGS
/ s/ Z/ s# u( V6 B+ ], h% S  zCodec ID/Info                            : Picture based subtitle format used on BDs/HD-DVDs" ~6 C. Y* j' |* C
Duration                                 : 1 h 51 min4 z6 ]( E6 N, m! v, z
Bit rate                                 : 42.8 kb/s
* S, h' ]4 C. M$ y6 L* U2 j& ~7 H6 ?Count of elements                        : 3506
# D  f' Y5 c8 RStream size                              : 34.1 MiB (0%)1 o! a( q9 z/ t; v" l
Title                                    : Japanese-PGS
: t/ T' {. |# }2 @9 P" E/ B) z. I. [Language                                 : Japanese
( g4 U; {" `7 v2 TDefault                                  : No
; P  l8 u+ z9 L; n9 O' o4 f$ N9 NForced                                   : No# ]6 [% E. W1 V; I
Original source medium                   : Blu-ray
: ^3 t6 N6 t5 j. G7 \7 rText #3
. ^0 p0 h! }% v3 Y& VID                                       : 6# Q1 L: w3 V* w& {
ID in the original source medium         : 4769 (0x12A1)
* n: `, o$ a: G  W! w0 [Format                                   : PGS5 J. Q5 F9 @/ W  }( I% J
Muxing mode                              : zlib
# [# T( {# n7 ~' N8 jCodec ID                                 : S_HDMV/PGS
& H* j4 q& _, b3 P* `2 G, R! tCodec ID/Info                            : Picture based subtitle format used on BDs/HD-DVDs
; p5 F+ l0 O" B9 Y( o/ mDuration                                 : 1 h 51 min
; u+ F" w, D3 j; V$ g4 A' WBit rate                                 : 33.4 kb/s1 R6 `; t5 A$ [- R3 l
Count of elements                        : 3134
; H; Y3 q( \, L: }4 VStream size                              : 26.5 MiB (0%). r' N% d, V8 h7 q3 r& \
Title                                    : English-PGS* l+ u- u/ G. u: f# f. b5 u
Language                                 : English
$ w% [  r# V7 Y0 L0 ~2 tDefault                                  : No# q6 w) b  w  r# e0 M8 h/ ^
Forced                                   : No1 P) l; O# f; i3 B& m  A% ?( M! p: t
Original source medium                   : Blu-ray* o" ~% o- r& h& P
Text #4% G& u* K# d/ P! [8 ~1 ?
ID                                       : 7; l" w4 l6 Q8 H, A
ID in the original source medium         : 4770 (0x12A2)
4 V; ]5 x' t( X& k/ R. bFormat                                   : PGS5 \* R1 B5 Y4 u3 y% e
Muxing mode                              : zlib
) N, D" F* l$ h# v: o$ `3 ZCodec ID                                 : S_HDMV/PGS7 R- V3 ~/ Y1 ]7 z" v
Codec ID/Info                            : Picture based subtitle format used on BDs/HD-DVDs4 O' y9 N; `% m% Z+ l" @! }% M
Duration                                 : 1 h 50 min. m' S9 h* D. o0 P% Z
Bit rate                                 : 30.6 kb/s- E; B# s5 |  y& l9 ?
Count of elements                        : 3462
. c  Q7 t& u4 r" g2 h2 MStream size                              : 24.3 MiB (0%). N# f8 G! ~/ P, r
Title                                    : Chinese-PGS$ g" H9 \0 s/ w- p( {
Language                                 : Chinese5 M$ ^% y4 h  R
Default                                  : No
0 d3 |+ U% c0 v( q5 O& [& ZForced                                   : No! _/ w, }4 C3 A9 |
Original source medium                   : Blu-ray" u& V- Y, A+ a, S7 N- ^7 ]" a% X
Menu& S3 j+ ?# G; l) S: ?0 v" s
00:00:00.000                             : en:Chapter 017 k  j' v: X. F( X4 S* G9 a# {
00:03:52.232                             : en:Chapter 02/ U# p' u* U* B% r; u
00:07:13.057                             : en:Chapter 03
4 z9 {: V7 C0 I: S# p00:11:51.293                             : en:Chapter 04  f3 ~# X9 f, b7 Y9 O2 o
00:17:26.795                             : en:Chapter 05
7 b& K6 m: M: `: Q- u( z00:19:46.351                             : en:Chapter 06
6 W$ d3 `4 h5 A/ q00:22:25.260                             : en:Chapter 07
9 p4 w5 p1 ~5 t' I- x9 |' p00:26:07.691                             : en:Chapter 08
$ k# M7 P1 \5 W" ?00:30:07.972                             : en:Chapter 09
- f+ X3 [/ Z# `, K1 S5 R2 h6 D4 E00:34:27.982                             : en:Chapter 10
  e6 K7 E3 T! B00:38:29.682                             : en:Chapter 11  B. [- k7 O+ f( ^& G. M
00:41:36.243                             : en:Chapter 12  ~1 P  J- u% @; n. f
00:44:05.893                             : en:Chapter 13
, y! J+ t/ l8 Q( y: |: j" D! Z- G+ h' f00:47:59.126                             : en:Chapter 14
* O: V. F& G! L3 o3 ?# F; e00:52:11.253                             : en:Chapter 15
( t) F7 D9 W9 u) k# t! U4 X2 w00:55:55.852                             : en:Chapter 16
$ J) t" S5 f, e. W# r. G6 n  l7 _00:58:46.773                             : en:Chapter 17
# x. z, w6 t5 M3 f8 F8 w( z1 Q1 k01:01:42.532                             : en:Chapter 18
( E. g0 k; e8 \8 s0 B. f1 E; h! W01:05:18.247                             : en:Chapter 19
+ {; T& e# V: b( s5 P% n7 k01:08:55.923                             : en:Chapter 20
( G4 F0 i4 Y/ \( k: B0 m& R4 f01:13:53.178                             : en:Chapter 21
, Y% G! {' k' X5 U2 H01:16:58.322                             : en:Chapter 22+ B, o1 K' i- i% i) h
01:19:57.584                             : en:Chapter 23
& T/ G/ M" {1 {7 o01:23:15.573                             : en:Chapter 24. b6 D7 J) O) @/ k
01:25:48.226                             : en:Chapter 25! X. U! T# ?8 B) s+ s
01:28:51.117                             : en:Chapter 26
* q. i, n0 F0 j* m2 b' E& `, X7 N; Y01:33:02.868                             : en:Chapter 27
9 }" m, O" B# Z' c- _  ]9 \01:38:32.907                             : en:Chapter 28- `1 ^7 N- R* Z2 |" P2 Z6 g* l) l
01:43:29.244                             : en:Chapter 295 @6 c& k# b# l3 x, }
01:47:40.579                             : en:Chapter 30+ `) Q2 d. y+ R
01:52:12.600                             : en:Chapter 31

# R9 S( ^/ [2 U% L; c% u
游客,查看本帖隐藏内容请回复 | 加入VIP贵宾组可免积分免回复下载 立即了解 | 还不是会员:点击获取邀请码 Invitation Code

2

主题

627

帖子

2673

积分

Sponsor

金币
586 枚
体力
907 点
tto138 发表于 2020-6-17 18:56:28 | 显示全部楼层
沙发是抢的而不是占的!3 M7 [- n+ A7 c+ {& {
Not see, I am a novice, the inadequacies of the first Please bear with me!
# T3 k" Z6 z% H9 Y& O" L' Y

0

主题

14

帖子

205

积分

Sponsor

金币
119 枚
体力
51 点
dolgenlee 发表于 2020-6-19 12:56:46 | 显示全部楼层
感谢楼主分享

10

主题

1190

帖子

6379

积分

Sponsor

金币
821 枚
体力
3180 点
QQ
shiji1973 发表于 2020-6-24 09:27:30 | 显示全部楼层
感谢分享精彩电影

本版积分规则

小黑屋|Archiver|蓝光电影资源网

GMT+8, 2020-7-5 15:11

快速回复 返回顶部 返回列表