BluRayCD Forum

 找回密码
 立即注册【分享大片】
查看: 184|回复: 3
收起左侧

[2160P极清] 天气之子 [4K SDR高码版 自带中字] Weathering with You 2019 JAPANESE 2160p BluRaycd x265 10bit & 8bit SDR DTS-HD MA 5.1-SWTYBLZ 23.34GB & 21.75GB

[复制链接]

5779

主题

5953

帖子

7万

积分

Post Share

金币
13284 枚
体力
19677 点

卓越贡献勋章

黄金嫖客 发表于 2020-6-17 16:51:16 | 显示全部楼层 |阅读模式

( ~6 @+ u; d& ?8 H" A3 v3 g/ k' n6 _- e
◎片  名 天気の子 / Child of Weather / Weather Child / Weather's Child / Weathering With You1 q+ V2 v! W) K. U
◎译  名 天气之子
" M( P* `9 W7 a$ z' o◎年  代 20197 Z  D7 F- v1 Q" |, r
◎产  地 日本' b; n8 C; q8 x3 d  j( f- {" a
◎类  别 爱情/动画/奇幻) P/ a6 n7 f; _2 r- ~/ l9 h
◎语  言 日语
9 b# Q  W' l& [* r◎上映日期 2019-07-19(日本)/2019-11-01(中国大陆)6 D6 }- \: `% D
◎IMDb评分  7.6/10 from 12,867 users
9 D% H( O  t$ Q. k◎IMDb链接  https://www.imdb.com/title/tt9426210
* B' d* n$ Z$ ^◎豆瓣评分 7.1/10 from 193,706 users
4 t+ _8 u; k9 L2 d( X◎豆瓣链接 https://movie.douban.com/subject/30402296/1 I5 g0 @: g3 M; [. e' U
◎片  长 1 h 52 min5 q! C/ N( Q# P' l
◎导  演 新海诚 Makoto Shinkai- ?7 ]9 i8 {* C' ~3 b+ N
◎编  剧 新海诚 Makoto Shinkai/ v* q5 ^  a) z" K2 }1 V3 [
◎主  演 醍醐虎汰朗 Kotaro Daigo4 c0 p) ]  A2 [8 a4 c& \0 |  }
       森七菜 Nana Mori
& Z/ t% \4 e8 F7 V7 I% e) i) ]5 F       小栗旬 Shun Oguri. {/ m% u/ D0 l. X+ S5 @
       本田翼 Tsubasa Honda0 q3 T7 Z/ M" K3 z+ C- u+ t5 [; t
       倍赏千惠子 Chieko Baishô/ H, X5 M8 U. F) s
       吉柳咲良 Sakura Kiryu
% M* q" I# b* `" i       平泉成 Sei Hiraizumi( T1 s/ o) r# h0 R' R
       梶裕贵 Yûki Kaji3 y/ f) l8 t; Z# m" D' s
       木村良平 Ryohei Kimura0 _  D2 D/ v3 k1 w: S
       柴田秀胜 Hidekatsu Shibata
, _% [. {, _5 E       野泽雅子 Masako Nozawa: d* G4 S: ]2 B1 k" l
       花泽香菜 Kana Hanazawa1 Y6 a* z/ D6 X1 Q4 G
       佐仓绫音 Ayane Sakura
6 h' p9 }$ i! |4 Z) Y0 x8 u1 C( f
  ~& v6 t' F) a; L1 J4 N  x◎标  签 日本 | 爱情 | 青春 | 动画 | 治愈 | 2019 | 奇幻 | 神作0 `( v: G; d3 ]2 I, e" e

  {$ V4 B) ]! {, \# N! W◎简  介  6 ^( O+ z" N: N/ c
6 p2 Y1 X" j# s( k: d- E8 c
  高一那年夏天,帆高(醍醐虎汰朗配音)离开位在离岛的家乡,独自一人来到东京,拮据的生活迫使他不得不找份工作,最后来到一间专门出版奇怪超自然刊物的出版社担任写手。不久,东京开始下起连日大雨,仿佛暗示着帆高不顺遂的未来,在这座繁忙城市里到处取材的帆高邂逅了与弟弟相依为命,不可思议的美少女阳菜(森七菜配音)。「等等就会放晴了喔。」阳菜这样告诉着帆高,不久,头顶的乌云逐渐散去,耀眼的阳光洒落街道……原来,阳菜拥有「改变天气」的奇妙能力……
. G& h6 {" y' A; p/ M
: q$ T! L3 R1 W; U2 {& l- ^$ ^/ J  High school freshman Hodaka Morishima leaves his home on an isolated island and moves to Tokyo, but he quickly finds himself in financial trouble. Living his days in isolation, he eventually lands a job as a writer for a shady occult magazine. Then one day in an alley, Hodaka meets a young girl named Hina Amano, bright and strong-­willed, who possesses a strange and wonderful ability: the power to stop the rain and clear the sky.) P7 P3 G% Y  o7 {# q7 u; R
) \/ q8 {: H8 ^3 n
◎获奖情况  
+ C. @+ }, j4 _% D0 D! q
: E" u. ^+ {% F% M8 S  第43届日本电影学院奖(2020)" G9 x- W* M! P5 g! ~; P
  最佳动画片7 _2 w- F' A* N& S2 W: M3 b0 Q
  最佳配乐
) |2 Z) h: F+ M% D) m8 j
; n) n7 a0 s8 a0 i. P  第47届动画安妮奖(2020)
; ~9 Y) O& W2 f! |- M' ]. K  最佳独立动画长片(提名)2 |0 @$ G% o: q3 L" A* t& @. v
  最佳导演(提名) 新海诚
/ {" @- q7 Y" d  最佳编剧(提名) 新海诚( P, Q& q. s7 j, u/ {/ l( i
  最佳动画效果(提名)' B7 p: a6 l* }* H* W* @! I

3 g3 w8 i, p- f) L6 A7 r, u  第24届金卫星奖(2020)  |2 I& U1 ]. v/ j4 O7 s
  电影部门 最佳动画片(提名)3 C0 Y- ]3 Q3 y6 L: e9 E9 ~2 x
9 d# D% T9 E6 r9 ?' V: Y
  第44届报知映画赏(2019)" L. a8 D6 `+ ?! F8 ^2 v- V
  最佳动画% k( d* B8 X6 P& T% y& W, {" m8 i
( r3 ?4 ~  k% e+ o
SWEATY BALLZ presents2 B1 M4 i/ m1 }) k7 b; V
2 @4 h, t) G5 ]
Weathering.with.You.2019.2160p.BluRayCD.x265.10bit.SDR.DTS-HD.MA.5.1-SWTYBLZ" Z, n9 V- S. ~7 S% i
Converted from 10 bit HDR to 10 bit SDR using tripple mixed Hable-Reinhard-JJ per scene+frame analysis algorithm3 P5 {9 B3 \, J; v, j* w2 ]
Screenshots are 8bit SDR6 M9 @) D% x  Z/ X" I' N# y

. q' |( ]) o- [% h8 D3 S) ~. n. f) s$ IVideo
$ b. D3 X/ T# O) G& o, P0 |4 pID                                       : 19 `7 q6 V& \* a8 P
Format                                   : HEVC
2 _) o1 @( L7 Y4 F6 q& H& JFormat/Info                              : High Efficiency Video Coding+ L7 Y8 _8 G, G6 |4 _, f6 @
Format profile                           : Main 10@L5.1@High( X4 y% n, b: Q: }6 _
Codec ID                                 : V_MPEGH/ISO/HEVC
% G( X; Q8 m) r0 z" n% x! |Duration                                 : 1 h 52 min) T9 g0 k: {7 W3 _/ \
Bit rate                                 : 25.3 Mb/s
# a% G  B7 b7 Y" D/ MWidth                                    : 3 840 pixels7 A. L1 K# \, @1 s+ G$ k2 H
Height                                   : 2 160 pixels9 L) D& Z1 B7 x& L3 G+ I6 M
Display aspect ratio                     : 16:9, j6 ?  A' U2 l
Frame rate mode                          : Constant2 }3 s" y9 |2 D/ p& [- p
Frame rate                               : 23.976 (24000/1001/37687) FPS
7 e2 t* m% ^9 v3 e6 O: K4 |Color space                              : YUV6 j# m/ f- F4 }$ k
Chroma subsampling                       : 4:2:0
! N% ~, H& g- V0 l5 vBit depth                                : 10 bits% V/ n; ?' U+ t8 l' m- t) ]0 w
Bits/(Pixel*Frame)                       : 0.127
7 s, Q$ d, v8 L2 S( J( mStream size                              : 19.9 GiB (86%)2 i! c! Y: w0 J0 i3 w
Title                                    : Weathering.with.You.2019.JAPANESE.2160p.BluRaycd.x265.10bit.SDR.DTS-HD.MA.5.1-SWTYBLZ% c) @9 _2 c, m* H3 x. K- x
Writing library                          : x265 3.0+1-ed72af837053:[Windows][GCC 8.2.0][64 bit] 10bit
; G8 I$ H2 }6 u4 ~; o! fEncoding settings                        : cpuid=1111039 / frame-threads=6 / numa-pools=40 / wpp / no-pmode / no-pme / no-psnr / no-ssim / log-level=2 / input-csp=1 / input-res=3840x2160 / interlace=0 / total-frames=161448 / level-idc=51 / high-tier=1 / uhd-bd=0 / ref=3 / no-allow-non-conformance / repeat-headers / annexb / aud / hrd / info / hash=0 / no-temporal-layers / no-open-gop / min-keyint=1 / keyint=24 / gop-lookahead=0 / bframes=6 / b-adapt=2 / b-pyramid / bframe-bias=0 / rc-lookahead=25 / lookahead-slices=4 / scenecut=40 / radl=0 / no-splice / no-intra-refresh / ctu=64 / min-cu-size=8 / no-rect / no-amp / max-tu-size=32 / tu-inter-depth=1 / tu-intra-depth=1 / limit-tu=0 / rdoq-level=0 / dynamic-rd=0.00 / no-ssim-rd / signhide / no-tskip / nr-intra=0 / nr-inter=0 / no-constrained-intra / strong-intra-smoothing / max-merge=2 / limit-refs=3 / no-limit-modes / me=1 / subme=2 / merange=57 / temporal-mvp / weightp / no-weightb / no-analyze-src-pics / deblock=1:1 / no-sao / no-sao-non-deblock / rd=3 / no-early-skip / rskip / no-fast-intra / no-tskip-fast / no-cu-lossless / no-b-intra / no-splitrd-skip / rdpenalty=0 / psy-rd=0.40 / psy-rdoq=0.00 / no-rd-refine / no-lossless / cbqpoffs=0 / crqpoffs=0 / rc=crf / crf=14.0 / qcomp=0.60 / qpstep=4 / stats-write=0 / stats-read=0 / vbv-maxrate=160000 / vbv-bufsize=160000 / vbv-init=0.9 / crf-max=0.0 / crf-min=0.0 / ipratio=1.40 / pbratio=1.30 / aq-mode=1 / aq-strength=0.40 / cutree / zone-count=0 / no-strict-cbr / qg-size=32 / no-rc-grain / qpmax=69 / qpmin=0 / no-const-vbv / sar=1 / overscan=0 / videoformat=5 / range=0 / colorprim=2 / transfer=2 / colormatrix=2 / chromaloc=0 / display-window=0 / max-cll=0,0 / min-luma=0 / max-luma=1023 / log2-max-poc-lsb=8 / vui-timing-info / vui-hrd-info / slices=1 / opt-qp-pps / opt-ref-list-length-pps / no-multi-pass-opt-rps / scenecut-bias=0.05 / no-opt-cu-delta-qp / no-aq-motion / no-hdr / no-hdr-opt / no-dhdr10-opt / no-idr-recovery-sei / analysis-reuse-level=5 / scale-factor=0 / refine-intra=0 / refine-inter=0 / refine-mv=0 / refine-ctu-distortion=0 / no-limit-sao / ctu-info=0 / no-lowpass-dct / refine-analysis-type=0 / copy-pic=1 / max-ausize-factor=1.0 / no-dynamic-refine / no-single-sei / no-hevc-aq / qp-adaptation-range=1.00
! R( X% _, c0 X0 O2 K  v* {* f! fDefault                                  : Yes. `4 ^) D2 x$ n# W
Forced                                   : No8 V6 M/ L5 q1 U) \
Audio #13 z! g. ~5 B7 M; @& D: _
ID                                       : 2
+ _' Y4 P8 G1 k* NID in the original source medium         : 4352 (0x1100)
# c9 j/ k% i$ j5 Y% }1 uFormat                                   : DTS XLL
1 N- E4 h! F, S* cFormat/Info                              : Digital Theater Systems3 s# N8 |9 X5 K# z
Commercial name                          : DTS-HD Master Audio
- n& ?$ G. j) HCodec ID                                 : A_DTS, F* V; h. [* [- \) i, K
Duration                                 : 1 h 52 min
  f7 {4 q& v1 tBit rate mode                            : Variable5 N4 M+ F- S" S# o" e2 K
Bit rate                                 : 3 557 kb/s
3 u" @4 s+ K8 P2 L# mChannel(s)                               : 6 channels
9 c- m. S5 U, ~2 p( Q$ d( B* SChannel layout                           : C L R Ls Rs LFE2 G! r- c% r) I3 t- j( B
Sampling rate                            : 48.0 kHz) ]+ V  x/ s3 j" Y- G1 h5 z1 i
Frame rate                               : 93.750 FPS (512 SPF)
! ~2 I# D  O" @$ i7 [: n; ~Bit depth                                : 24 bits6 W' N3 z- N% ]  x3 g
Compression mode                         : Lossless1 X' L. z. L! v$ c# ~9 F, v
Stream size                              : 2.79 GiB (12%)( G. D6 O( X3 j4 Z% \
Title                                    : Weathering.with.You.2019.JAPANESE.2160p.BluRaycd.x265.10bit.SDR.DTS-HD.MA.5.1-SWTYBLZ$ J. M- C1 L4 e- B1 g* \+ d; d
Language                                 : Japanese
2 f" X* V  T* y; EDefault                                  : Yes
, _4 s" Q1 ^, d) ?3 m# `; r( ^Forced                                   : No
. A" C- {" Q4 QOriginal source medium                   : Blu-ray2 }1 z( r4 }! n
Audio #2
, d( T$ f! u3 e# uID                                       : 3
/ G; \) }8 k' JFormat                                   : AC-3' M) {9 @5 ~6 q; _
Format/Info                              : Audio Coding 3( t2 w$ d' w* ^7 @8 D- `
Commercial name                          : Dolby Digital  f! y6 i3 u7 w2 c. ~" ~
Codec ID                                 : A_AC3( @6 r. Q7 W$ e
Duration                                 : 1 h 52 min0 D7 i: X' Q" h* L' n9 t
Bit rate mode                            : Constant
  G4 C3 I/ I& x. |+ I, [8 ~Bit rate                                 : 640 kb/s
; b! O" e% A5 l+ hChannel(s)                               : 6 channels
* X& q+ N) }9 ~3 u$ r9 ~7 e6 I, hChannel layout                           : L R C LFE Ls Rs
- e, X- a9 }1 L  M$ oSampling rate                            : 48.0 kHz; {* J" F& i7 t. {6 K" |
Frame rate                               : 31.250 FPS (1536 SPF)3 U; n. ?  Z% A; v/ V5 V: v
Compression mode                         : Lossy( Q) q) l  G" y. M( A
Stream size                              : 514 MiB (2%)
' f# M* w  i  v: A# U; Q: |Title                                    : Weathering.with.You.2019.JAPANESE.2160p.BluRaycd.x265.10bit.SDR.DTS-HD.MA.5.1-SWTYBLZ; H$ J3 J" {% @
Language                                 : Japanese
9 D# T( `' D1 |& v4 RService kind                             : Complete Main  o" y8 a- G" V# H1 R
Default                                  : No
* f% H( m) K$ BForced                                   : No
4 T8 z1 k8 N" E% O/ b, jText #1
3 y1 e% Z/ z6 H# NID                                       : 4
( T# a" r. f2 l1 w% Y. VFormat                                   : UTF-8
, B1 h* K) g! ACodec ID                                 : S_TEXT/UTF8
! Z- b( b  ], a6 H# [! o/ Z5 J, jCodec ID/Info                            : UTF-8 Plain Text
- j7 C0 }' W" [* `2 V9 aDuration                                 : 1 h 51 min( S5 Y) B: r3 P  I" ~, ^/ x4 |$ M
Bit rate                                 : 65 b/s
% M* ?# }' r+ FCount of elements                        : 1703* {( ^- r% [% r8 B9 x6 B, s
Stream size                              : 53.6 KiB (0%): n( z7 s. D* @9 m) T
Title                                    : English-SRT% |" S+ k2 i2 z4 P
Language                                 : English3 L9 V* F2 ^6 ~' y$ p
Default                                  : Yes
0 N& h) V4 N6 ^0 p) G" pForced                                   : No& @, R$ y) `. d1 }$ i8 e% Q& \
Text #2% i2 ~0 d' Z# a: X, H
ID                                       : 59 M6 z# ]" D, ?5 ?% G  t5 |( E" Y
ID in the original source medium         : 4768 (0x12A0)6 W& Q1 m, j' U, |# e0 T. V
Format                                   : PGS# [1 T: Y0 p( d1 \, n% l8 ~
Muxing mode                              : zlib
* j* }" W; _+ mCodec ID                                 : S_HDMV/PGS2 X3 o& R8 t9 P% K0 g0 G9 w
Codec ID/Info                            : Picture based subtitle format used on BDs/HD-DVDs. j1 v' L, q4 a. {+ K; M
Duration                                 : 1 h 51 min3 S9 C  T0 H0 Y  s. I/ `3 j2 @
Bit rate                                 : 42.8 kb/s
* O$ o! s: g' _" `4 C  Y. _% oCount of elements                        : 3506
5 Y/ x# T' K. C' l7 [! _' BStream size                              : 34.1 MiB (0%)
3 U0 g; @! H+ a  e1 \' MTitle                                    : Japanese-PGS
  \8 g6 f2 s7 P9 k8 NLanguage                                 : Japanese; L1 E- s* \3 @- O$ G1 T' {9 z: H2 g
Default                                  : No! g6 ^( d  o3 M3 l
Forced                                   : No
7 T0 w2 n# T; |, L0 xOriginal source medium                   : Blu-ray
$ H1 f6 N) p) P# nText #3
" K% @! [; W5 m& v) W  x/ wID                                       : 6* g0 V. j6 G+ W, J2 a# ~2 N! k
ID in the original source medium         : 4769 (0x12A1)4 K! o. L8 |  I  S, V: t1 i: O3 P
Format                                   : PGS
$ G# ?3 `" S/ J' i9 k* h7 ^Muxing mode                              : zlib
) A6 q) C$ l+ dCodec ID                                 : S_HDMV/PGS
3 j1 x' P+ w1 x* GCodec ID/Info                            : Picture based subtitle format used on BDs/HD-DVDs
  R$ g( N# b( W# S6 A- W& ZDuration                                 : 1 h 51 min$ n* l6 z5 U% a# [* E# c
Bit rate                                 : 33.4 kb/s
3 r; \/ a# s, a0 g' e  c7 R. B( |Count of elements                        : 3134
! g* X% i( n0 F3 K+ i: _- `! DStream size                              : 26.5 MiB (0%), h7 y4 ^8 o1 m$ w6 {0 n
Title                                    : English-PGS
) G, L1 `1 n) G* y5 `( ]0 ~Language                                 : English
  x, I7 }9 [$ D4 W" Q1 DDefault                                  : No
9 Y0 R0 T* _5 c5 k1 B& ]) L6 nForced                                   : No: Q3 A1 C' }4 P
Original source medium                   : Blu-ray% R1 ~' d7 B# p- x2 ~7 |
Text #44 N% P: z+ A( ^
ID                                       : 7% s3 g# H: I8 O: n5 a. I
ID in the original source medium         : 4770 (0x12A2)
4 u+ r( q, a" E' y4 G1 j$ Z6 cFormat                                   : PGS' ?; E2 j0 O# @! [, j
Muxing mode                              : zlib
7 j1 T2 |7 I1 gCodec ID                                 : S_HDMV/PGS
9 Z2 ?% }8 x: k+ t* {* _; p# @Codec ID/Info                            : Picture based subtitle format used on BDs/HD-DVDs
" c7 q/ F) v, O* W( \Duration                                 : 1 h 50 min
) D) ?0 y% q/ s0 X" T' }% ]Bit rate                                 : 30.6 kb/s
' W( `) {4 N: L6 R* |3 @Count of elements                        : 34627 z( D5 F9 O" z' P) L' R* G7 g' ?$ E
Stream size                              : 24.3 MiB (0%)
1 t0 R$ B' n7 P- [  mTitle                                    : Chinese-PGS6 n% W6 \- V+ O
Language                                 : Chinese
" J9 g6 p* v; ^) B* o' pDefault                                  : No
$ A$ s  f$ l' U& [, V& r# `Forced                                   : No: x) N4 p9 M8 V& a0 A' a' n
Original source medium                   : Blu-ray3 J' D6 ~8 v" U9 k
Menu: j3 H1 Q$ ]7 r' G  Y
00:00:00.000                             : en:Chapter 01
$ v, p; h$ h, C! c00:03:52.232                             : en:Chapter 02
! J) y" A/ S- u; r+ e00:07:13.057                             : en:Chapter 03$ F8 h* [% F5 H% j
00:11:51.293                             : en:Chapter 04
8 N1 v% H+ u* m% C7 ]6 r00:17:26.795                             : en:Chapter 05
5 m) ^: U2 f2 p& g; f: |9 X00:19:46.351                             : en:Chapter 06
/ u2 `" `2 U- f+ j& h2 S# g3 V9 \00:22:25.260                             : en:Chapter 07
, i! L9 j. m7 q! t/ z9 L00:26:07.691                             : en:Chapter 08  p  J* O$ y0 m2 ]& R
00:30:07.972                             : en:Chapter 09
' T& _+ k$ r2 m% U  T& |00:34:27.982                             : en:Chapter 10& q: w. u$ r( E
00:38:29.682                             : en:Chapter 115 K: e+ h1 l/ z
00:41:36.243                             : en:Chapter 12
8 b6 E6 M- F, [' P' N& m7 _00:44:05.893                             : en:Chapter 13% g% M2 F8 E# g# r, t: c% ~
00:47:59.126                             : en:Chapter 14
+ |% N9 G* ]6 e+ i00:52:11.253                             : en:Chapter 15" R( ]6 Z2 n7 f* \" \
00:55:55.852                             : en:Chapter 169 o; d$ B' s. g$ h8 o) G
00:58:46.773                             : en:Chapter 17& g7 g- g% P$ k  k( K7 f/ E3 k9 B  ~
01:01:42.532                             : en:Chapter 18* r1 v$ e. c7 C& I5 b- b& m
01:05:18.247                             : en:Chapter 19/ |& s# }: v. D
01:08:55.923                             : en:Chapter 20
8 C* C2 v/ q* W. K* D( v01:13:53.178                             : en:Chapter 21
) {" b  |3 e) v# R. A6 d' |01:16:58.322                             : en:Chapter 22
& W4 y; s- k1 R" T8 U  z01:19:57.584                             : en:Chapter 23' X5 u2 A1 c2 d) Y
01:23:15.573                             : en:Chapter 248 M% x- Z' J  d
01:25:48.226                             : en:Chapter 25
  K' _! i2 P- F% b8 R! J$ q( t01:28:51.117                             : en:Chapter 26' z6 B5 m7 q* t0 t& S$ Y
01:33:02.868                             : en:Chapter 27
6 D; |; b- D% Q; t& E01:38:32.907                             : en:Chapter 284 y! Z3 o# _9 J: L, p
01:43:29.244                             : en:Chapter 29/ K8 E* ^5 B- u+ K7 t
01:47:40.579                             : en:Chapter 30. Y7 R0 }- c$ R, \  t/ S5 U, x$ B
01:52:12.600                             : en:Chapter 31
SWEATY BALLZ presents
) X  y; {8 I& i0 a2 p& |- Y: l) t, c9 c( n& q
Weathering.with.You.2019.2160p.BluRaycd.x264.8bit.SDR.DTS-HD.MA.5.1-SWTYBLZ. V0 t( ~/ k, s0 s# x( e3 E+ F( K- n
Converted from 10 bit HDR to 8 bit SDR using tripple mixed Hable-Reinhard-JJ per scene+frame analysis algorithm
7 p! b- {: Y8 }, d" i0 ^
* Z. |6 ~2 o: o4 iVideo2 r, ^( q7 C* ~3 W+ U- w4 M
ID                                       : 1  h- u  S3 F* W# @0 a: v+ S
Format                                   : AVC
, n3 C; l- R9 k6 \Format/Info                              : Advanced Video Codec' j6 w/ n2 v; m1 P# \3 {# o
Format profile                           : High@L5.18 y" D: D% F: A6 V
Format settings                          : CABAC / 5 Ref Frames- K: {6 h& G- ~
Format settings, CABAC                   : Yes/ Z/ n" |+ O/ m+ w  v( E7 v  Q
Format settings, Reference frames        : 5 frames+ L7 `, `. x  S2 _6 }# i. p! U
Codec ID                                 : V_MPEG4/ISO/AVC! U& V, x' ^( M& X9 S8 _9 e
Duration                                 : 1 h 52 min
# C2 k% X4 c+ \6 iBit rate                                 : 23.3 Mb/s
* j# U2 ?7 B: ~" t# v) W% |Width                                    : 3 840 pixels
# u7 J+ [$ D' U1 T* y7 {" H) l8 }Height                                   : 2 160 pixels+ v7 E0 H; g: I3 T
Display aspect ratio                     : 16:9, ?% x3 k3 Y) X+ D1 a
Frame rate mode                          : Constant! {" w/ V) ?4 ~
Frame rate                               : 23.976 (24000/1001/37687) FPS' z0 a: f" w% W! [5 v( W. K! U
Color space                              : YUV
. L- D; y8 \: g* Q* yChroma subsampling                       : 4:2:0- l% L& s8 M5 i
Bit depth                                : 8 bits
' b1 T1 b! k* c& z6 kScan type                                : Progressive5 \- {) ?) y: I- M+ C6 k
Bits/(Pixel*Frame)                       : 0.1172 A6 x$ g, `/ g# S
Stream size                              : 18.3 GiB (85%)
6 y/ ~: r) f  N# R0 JTitle                                    : Weathering.with.You.2019.JAPANESE.2160p.BluRaycd.x264.8bit.SDR.DTS-HD.MA.5.1-SWTYBLZ% s, R7 w# A/ c% o3 I1 B7 h
Writing library                          : x264 core 157 r2935 545de2f
% T% b+ ^+ I4 P* ]Encoding settings                        : cabac=1 / ref=5 / deblock=1:1:1 / analyse=0x3:0x113 / me=umh / subme=10 / psy=1 / psy_rd=0.40:0.00 / mixed_ref=1 / me_range=48 / chroma_me=1 / trellis=2 / 8x8dct=1 / cqm=0 / deadzone=21,11 / fast_pskip=1 / chroma_qp_offset=-2 / threads=36 / lookahead_threads=4 / sliced_threads=0 / nr=0 / decimate=0 / interlaced=0 / bluray_compat=0 / constrained_intra=0 / bframes=5 / b_pyramid=2 / b_adapt=2 / b_bias=0 / direct=3 / weightb=1 / open_gop=0 / weightp=2 / keyint=250 / keyint_min=23 / scenecut=40 / intra_refresh=0 / rc_lookahead=50 / rc=crf / mbtree=1 / crf=16.0 / qcomp=0.60 / qpmin=0 / qpmax=69 / qpstep=4 / ip_ratio=1.40 / aq=1:0.60
" n: k) Y1 Y8 W, c- p+ V% K8 mDefault                                  : Yes
% w/ d$ m* U9 i# }' F/ ]9 n$ W# eForced                                   : No
- T2 Q7 K1 v" H6 C6 ]0 z1 h2 YAudio #10 _( R) H- i4 i3 z$ C
ID                                       : 2
  p' a, d7 R6 `/ IID in the original source medium         : 4352 (0x1100)
2 M3 i7 u5 y, U( ]  kFormat                                   : DTS XLL* Y+ M- T9 H+ q) e  m( a$ E, p4 ^
Format/Info                              : Digital Theater Systems( n" q1 P# k. ?) [* F& E1 s  p
Commercial name                          : DTS-HD Master Audio
! Y5 ^5 s9 [% m4 A- v% s5 e  zCodec ID                                 : A_DTS
0 ]+ U6 Q/ n& ~% s' s% l2 G5 w! V+ ^6 kDuration                                 : 1 h 52 min; e1 }) C5 W0 M
Bit rate mode                            : Variable
; _5 C& j, \7 c7 `- t' ^! s# P' ]Bit rate                                 : 3 557 kb/s9 O8 r' p; E) W9 T
Channel(s)                               : 6 channels. U! S! e# J% M  r6 f7 i
Channel layout                           : C L R Ls Rs LFE& u% k; V. z3 P+ h6 M7 x' n
Sampling rate                            : 48.0 kHz
8 B! f* k0 t4 b/ A. e& EFrame rate                               : 93.750 FPS (512 SPF)$ J. R  [7 U3 w: Q  O3 N. Q
Bit depth                                : 24 bits
1 j7 @/ V  U+ r  ^3 g8 wCompression mode                         : Lossless
, k" V0 W4 A$ M! }  c1 S$ IStream size                              : 2.79 GiB (13%)
* I& n7 K# M3 y6 a5 S1 LTitle                                    : Weathering.with.You.2019.JAPANESE.2160p.BluRaycd.x264.8bit.SDR.DTS-HD.MA.5.1-SWTYBLZ4 S$ d6 f9 s- x, ]# ~: A; C
Language                                 : Japanese
) f' C2 H$ L% w& f0 kDefault                                  : Yes, v5 E) J& ?! H9 Z. Z0 v+ `
Forced                                   : No% m  P2 n+ m( V" i( r
Original source medium                   : Blu-ray
1 t: E. Y  W! v/ R, ^! s6 h0 gAudio #2' D( ?" Y' K% s% P" X: i
ID                                       : 3
! ]" `  b8 h) k4 s5 i7 `9 g3 [Format                                   : AC-3
7 H% r  \* L; F  ^/ D5 L  ?7 }Format/Info                              : Audio Coding 32 J: l2 K5 z8 T& n+ f
Commercial name                          : Dolby Digital
4 w1 S% ?! Z( O3 {Codec ID                                 : A_AC3
3 r+ y6 Z1 l( Q/ H' MDuration                                 : 1 h 52 min2 H# `0 P( p. O
Bit rate mode                            : Constant
0 N9 R7 f7 i9 D- f4 q+ i* Y' kBit rate                                 : 640 kb/s
' P) a, m2 u" C& w3 WChannel(s)                               : 6 channels2 T8 O1 y9 T) a/ \: J  H' W
Channel layout                           : L R C LFE Ls Rs
# V2 m' r# E# l& \4 K; C* `Sampling rate                            : 48.0 kHz
5 J7 q2 L* R& ]" p! xFrame rate                               : 31.250 FPS (1536 SPF)
% J3 X3 u4 F5 q5 k& W4 pCompression mode                         : Lossy: T1 {- S9 M7 v' `
Stream size                              : 514 MiB (2%)
8 e4 d5 _$ `# Y3 P6 z5 n+ \Title                                    : Weathering.with.You.2019.JAPANESE.2160p.BluRaycd.x264.8bit.SDR.DTS-HD.MA.5.1-SWTYBLZ  l6 n' Q5 `- S
Language                                 : Japanese/ ^$ }  B+ ^8 b. T
Service kind                             : Complete Main' u( }1 C$ {4 b( c6 G
Default                                  : No
2 M" l% _/ C3 nForced                                   : No/ N5 [( @- u- Y% W( s
Text #1. W7 G4 w9 ]( y, p+ J
ID                                       : 4  a; p9 ?! W8 g# _
Format                                   : UTF-8
" ~8 x& w3 J4 S/ E, G, M# p# \* BCodec ID                                 : S_TEXT/UTF8
+ \6 p- i! y! cCodec ID/Info                            : UTF-8 Plain Text: E( x( R% u- W, T8 l6 e+ D
Duration                                 : 1 h 51 min
2 j+ x) U1 v& Q5 E8 cBit rate                                 : 65 b/s9 {. a. X' [% a8 I* l6 d6 g7 A
Count of elements                        : 1703! O! J1 N+ N( u8 P" |, D* C
Stream size                              : 53.6 KiB (0%)
$ u' {/ }8 ~, V  o3 OTitle                                    : English-SRT' z' C" x5 B8 W
Language                                 : English
: m; Y, L% ~# m7 \$ O4 O+ I7 w8 bDefault                                  : Yes1 l# I! i* Q. m& H
Forced                                   : No! A( a4 b/ g4 l3 R+ x2 D% u
Text #2
9 i- E0 i3 _% J3 _$ qID                                       : 5
) [6 k7 P6 R( b. iID in the original source medium         : 4768 (0x12A0)* M, F( i; F- h. B) I# u
Format                                   : PGS
* `9 K* V/ `$ O3 |" U& t. QMuxing mode                              : zlib& Q) U& E& |& H0 V& [- c% m- F0 D
Codec ID                                 : S_HDMV/PGS
$ d" Q5 U- _! ^/ d% @4 G( LCodec ID/Info                            : Picture based subtitle format used on BDs/HD-DVDs
3 e% |3 G4 P' A1 Z: hDuration                                 : 1 h 51 min
! h; m$ ]: U' ~7 T: mBit rate                                 : 42.8 kb/s# y, ^: @7 S) z1 `) Y, `
Count of elements                        : 3506) H( \+ p( ?+ G/ _: z
Stream size                              : 34.1 MiB (0%)
: v, Y1 c' w+ z8 J3 U" }% j  |0 JTitle                                    : Japanese-PGS
( d" ?9 `7 R- K9 t: w: L8 d2 {Language                                 : Japanese0 _1 U+ f9 j7 a" a. H. Q1 f
Default                                  : No
& n7 U( X+ B3 U0 I8 HForced                                   : No1 y6 u  {( ]% u' F
Original source medium                   : Blu-ray
) C( a- A. o" k- f6 }% ?; uText #33 A: v  B* p4 a
ID                                       : 6
; ]$ J; ]4 a; \/ L3 L' lID in the original source medium         : 4769 (0x12A1)8 o3 U; l7 x$ O$ Q  ~4 P
Format                                   : PGS
- ~& v( s/ B' H, A4 xMuxing mode                              : zlib. u- |) _$ ^0 V
Codec ID                                 : S_HDMV/PGS2 t  v" f) w( e) p" q
Codec ID/Info                            : Picture based subtitle format used on BDs/HD-DVDs2 E: y3 x1 [1 w+ Q4 z( [4 F' Y$ [
Duration                                 : 1 h 51 min
: C9 h  Z+ ~: [$ l- k  N2 l3 eBit rate                                 : 33.4 kb/s  L' l' W+ n$ s& N/ b
Count of elements                        : 3134
( }6 l* S) c  A. @Stream size                              : 26.5 MiB (0%)
' _  e7 S, M$ u+ o/ ]( j2 \1 Q! RTitle                                    : English-PGS1 ?9 ^8 i; k+ e1 s4 K% t
Language                                 : English" s% n5 a  c) h  b8 e9 X- a
Default                                  : No7 m/ b# v& y; _9 r3 |  b+ O
Forced                                   : No
( G5 Q1 H+ Y4 u  a& SOriginal source medium                   : Blu-ray0 P5 ]4 T& M: H5 n
Text #4
$ Q8 t) T4 J* T& W- t3 l5 f6 O+ sID                                       : 7! g7 O% r! C3 I+ ?, c
ID in the original source medium         : 4770 (0x12A2)2 g9 ^$ }( b& x4 C1 g6 X
Format                                   : PGS
/ i$ C" j5 V8 @% h2 a/ [Muxing mode                              : zlib
! h7 O# s3 O( a$ aCodec ID                                 : S_HDMV/PGS+ C2 v$ }9 a/ ~: R  D
Codec ID/Info                            : Picture based subtitle format used on BDs/HD-DVDs
' O8 y5 R# k* U$ ]- EDuration                                 : 1 h 50 min
) b6 K! M) S6 ^9 C* MBit rate                                 : 30.6 kb/s
3 `: g) S( T3 jCount of elements                        : 3462, U! D' |' x+ G4 ?0 v7 I
Stream size                              : 24.3 MiB (0%)
' H6 _* ]$ z8 ?7 _Title                                    : Chinese-PGS
6 x; |6 L  F- U$ Q+ R. lLanguage                                 : Chinese
8 O' B% [  R1 JDefault                                  : No1 m5 s0 F2 t4 {8 ?
Forced                                   : No
3 V, m( Y; ]6 |5 J* _Original source medium                   : Blu-ray# r- _6 A9 b) n$ p7 \& O1 t: \( t
Menu
: u# r+ }6 H8 U! f8 L4 A00:00:00.000                             : en:Chapter 01, H  i* w, f6 Z6 S7 \+ k$ S
00:03:52.232                             : en:Chapter 020 q; j* l/ V' i, I4 C
00:07:13.057                             : en:Chapter 03
: o, B1 o; D# z- @) i00:11:51.293                             : en:Chapter 04
3 \- ~5 D& ^: R5 N# j- F00:17:26.795                             : en:Chapter 058 n2 ~+ N/ ~; a& Y# H8 d5 k, q0 L
00:19:46.351                             : en:Chapter 06
& O0 L  Z, @9 g" y) q00:22:25.260                             : en:Chapter 07+ u' I: e0 y4 V! n
00:26:07.691                             : en:Chapter 089 c' ?! y3 |  @5 D' m# y7 j
00:30:07.972                             : en:Chapter 09  N$ w/ t+ Y& N
00:34:27.982                             : en:Chapter 10
, V. d) I* c' D1 C% d00:38:29.682                             : en:Chapter 11+ A4 P. I( }& j  @! m6 c& e
00:41:36.243                             : en:Chapter 12; w2 W- x! ]; ]
00:44:05.893                             : en:Chapter 133 D6 ]" H; M% k" _- H
00:47:59.126                             : en:Chapter 14
4 H$ H1 @) F# d# _, r! E6 x, _7 G00:52:11.253                             : en:Chapter 15: S& ?1 P, B+ H, Y# u
00:55:55.852                             : en:Chapter 16+ U, n  f* u* `" ~! j
00:58:46.773                             : en:Chapter 172 K. f- o$ T" b+ ]/ W6 P
01:01:42.532                             : en:Chapter 181 C$ B3 c  w4 o2 J& H: w# ?
01:05:18.247                             : en:Chapter 19
( ~& s7 \; k, D$ P01:08:55.923                             : en:Chapter 20; _$ o9 ^  V6 ?% B! Z2 o5 i. b
01:13:53.178                             : en:Chapter 21
! L/ E; f9 O( L1 h* u01:16:58.322                             : en:Chapter 22
- W) ^+ f  u+ B- A8 n01:19:57.584                             : en:Chapter 23
/ I4 w- f; z/ i- m- X1 `01:23:15.573                             : en:Chapter 245 x: r. J% Z5 G! W. @% _7 p) m: v4 C( e
01:25:48.226                             : en:Chapter 254 ^$ G4 P7 h$ Z' R1 ?% n
01:28:51.117                             : en:Chapter 26( u0 V) n# x" X" x
01:33:02.868                             : en:Chapter 27- ~6 x% e3 h& i2 ?  y4 A* C6 X  v
01:38:32.907                             : en:Chapter 286 J9 A  v& ~2 a5 T" `4 I
01:43:29.244                             : en:Chapter 29
$ g7 [3 u2 l' m+ s1 v8 o01:47:40.579                             : en:Chapter 30
8 d( q. x) d! F5 O01:52:12.600                             : en:Chapter 31

7 b7 |1 W6 Y, ^$ V" C
游客,查看本帖隐藏内容请回复 | 加入VIP贵宾可免积分免回复 了解详情 | 还不是会员:点击获取邀请码 Invitation Code

2

主题

715

帖子

3313

积分

Sponsor

金币
586 枚
体力
1374 点
tto138 发表于 2020-6-17 18:56:28 | 显示全部楼层
沙发是抢的而不是占的!
+ Z4 Z! e* E) b. Q( NNot see, I am a novice, the inadequacies of the first Please bear with me!4 f2 ?- U& ^7 m; @7 m. ^- M1 a3 F

0

主题

16

帖子

210

积分

Sponsor

金币
115 枚
体力
56 点
dolgenlee 发表于 2020-6-19 12:56:46 | 显示全部楼层
感谢楼主分享

31

主题

1656

帖子

9034

积分

Sponsor

金币
1276 枚
体力
4510 点
QQ
shiji1973 发表于 2020-6-24 09:27:30 | 显示全部楼层
感谢分享精彩电影

本版积分规则

小黑屋|Archiver|蓝光电影资源网

GMT+8, 2021-7-26 06:21

快速回复 返回顶部 返回列表