BluRayCD Forum

 找回密码
 立即注册【分享大片】

QQ登录

只需一步,快速开始

查看: 13|回复: 0
收起左侧

[喜剧爱情] 婚姻故事 [内封中字 评分最高的爱情片] Marriage Story 2019 720p BluRaycd x264-YOL0W 7.84GB & 6.72GB

[复制链接]

3719

主题

4088

帖子

3万

积分

Post Share

金币
6770 枚
体力
6143 点

卓越贡献勋章

mvods 发表于 2020-7-11 23:17:36 | 显示全部楼层 |阅读模式
01.jpg
& s  H2 C5 p7 ~- n
. Z0 t. p; b, v◎译  名 婚姻故事
9 Y4 H; y) j; S◎片  名 Marriage Story
8 x2 @2 f, y1 k◎年  代 2019
1 G- Y; w3 P% S7 `◎产  地 英国/美国
4 H/ k& q& i' ]3 _; o: E" J" F. N◎类  别 剧情/爱情3 U7 \- s6 `( Y5 J
◎语  言 英语. p: S4 @  `) x  J/ K4 s) T
◎上映日期 2019-08-29(威尼斯电影节)/2019-12-06(美国)/2020-05-20(中国大陆网络)
0 z: n" B, A" }: Y% t( I◎IMDb评分  8.0/10 from 220,121 users
$ C7 q6 C- V% x; E' E) C" b◎IMDb链接  https://www.imdb.com/title/tt7653254/
% j7 `/ n. ]. y3 N◎豆瓣评分 8.6/10 from 207,629 users
  u; X0 \* ~# t8 @◎豆瓣链接 https://movie.douban.com/subject/27202818/
% o( S/ {8 j3 d) N◎片  长 2 h 17 min
- m% ?5 {$ y/ O: `( D- H/ p) y◎导  演 诺亚·鲍姆巴赫 Noah Baumbach2 \1 ~. ]8 ~! V* O$ d7 d
◎编  剧 诺亚·鲍姆巴赫 Noah Baumbach) M) _  F' Q  H9 H1 h7 O% l% c
◎主  演 斯嘉丽·约翰逊 Scarlett Johansson
- z7 `  k! ^5 N       亚当·德赖弗 Adam Driver/ r3 d0 w, w) G( p/ I6 h8 V5 V
       劳拉·邓恩 Laura Dern2 @& o  S# a, k. A0 P9 {
       艾奇·罗伯逊 Azhy Robertson
$ n0 a4 ?& ~! K: z, M       梅里特·韦弗 Merritt Wever6 v$ l! r8 u( r" G4 {4 f
       阿伦·阿尔达 Alan Alda
6 L  ]- S% ]$ M: r% N       朱丽·哈基提 Julie Hagerty
9 G. U1 C( f+ G/ Y  Y: ~. {3 j       雷·利奥塔 Ray Liotta
: i2 U6 n" d. R6 o1 F: R       马克·奥布莱恩 Mark O'Brien
$ ~% D' b" ?  o       华莱士·肖恩 Wallace Shawn
) O& K1 K1 a1 b8 P' m3 X# t- b8 I       凯尔·柏海莫 Kyle Bornheimer. Q% ~- k2 h' z" u( g
       米奇·萨姆纳 Mickey Sumner3 T6 ^, c9 s7 q5 i9 @
       马修·马希尔 Matthew Maher% H) q# P2 J& ^$ w1 t% E
       罗伯特·斯密戈尔 Robert Smigel
0 d2 k) @$ Z0 v) S: u0 _5 z       艾登·梅耶里 Ayden Mayeri- E( z* s1 ~. x, q0 n
       布鲁克·布鲁姆 Brooke Bloom
% [6 a6 r3 f; l3 L% \4 Y% q; P7 y2 ?       玛莎·凯莉 Martha Kelly
; r( d/ H" m; d* e/ O       阿尔伯特·琼斯 Albert Jones, ?0 W$ p2 ^- H, X) ^& W. O
       汉娜·邓恩 Hannah Dunne
/ e4 S6 g) \* E2 H$ A8 q       桑德拉·罗斯科 Sandra Rosko
  R9 K2 ]' k8 b0 m, Y       麦金利·贝尔彻 McKinley Belcher III. A  {/ [4 Q3 W5 }6 {3 u1 b% E0 z
       戈登·格里克 Gideon Glick
& }) N% ~1 U1 h4 e7 P2 o4 Z       马修·希尔 Matthew Shear
* m& C$ O9 a. W9 n       阿米尔·塔莱 Amir Talai7 J& @" Q$ ]' u8 `+ O0 S. A0 f
       萨拉·琼斯 Sarah Jones
4 Q1 X1 g1 ~5 I6 e+ |+ n* [       文尼·希伯 Vinny Chhibber
0 V5 ]" T1 ^* h* P- D: K; `* O       胡安·阿方索 Juan Alfonso- z6 U7 g; w6 u6 H9 s) f7 i, l
       洛蕾塔·谢诺斯基 Loretta Shenosky
3 S  g! D: Y# U! T7 w, i       滕德·艾德比佩 Tunde Adebimpe2 Z* ^: a$ r1 `1 H& b" m
       雅斯曼·塞斯·琼斯 Jasmine Cephas Jones
- t1 v  ]; E, e  z( v! W7 R2 Q0 U2 k
◎标  签 婚姻 | 家庭 | 爱情 | 美国 | 剧情 | 女性 | 2019 | Netflix
( g/ V2 {# v! N. G& y5 y
( o) l+ L, d- A6 f1 a6 u: p◎简  介  
: [  g. @; ~1 y$ v
' j4 x' M6 Q5 l+ `4 k, y" Q: C  讲述了结婚多年并育有一子的戏剧导演查理和女演员妮可因工作分居而不得不走向离婚,在这场为了争夺抚养权的离婚拉锯战中,关于爱情、婚姻和家庭真实感人的细枝末节牵动人心。两人的关系又将何去何从?
. _% j& W. G( L) c% Q7 S! k" n
# k+ [& N# f0 R) D5 O; [◎获奖情况  ! x1 N7 h; ?% M: |' x& n% e

' V* _4 ?/ Z) H! T  第92届奥斯卡金像奖(2020)
4 `" P' P' }" N' {  最佳影片(提名) 大卫·海曼 / 诺亚·鲍姆巴赫( }/ \; k( K0 G( c7 o! z7 L9 N
  最佳男主角(提名) 亚当·德赖弗
$ i5 b/ _0 x& v- U  最佳女主角(提名) 斯嘉丽·约翰逊  B* ~2 M$ {5 \& d
  最佳女配角 劳拉·邓恩- t! k1 T) k& c: m% W
  最佳原创剧本(提名) 诺亚·鲍姆巴赫; r' ~& M' U' y# S0 h
  最佳原创配乐(提名) 兰迪·纽曼: P; y- }9 Q( d$ Z

" t$ D0 \7 g7 N+ p  第76届威尼斯电影节(2019)
( Q" E8 |% c. y9 `5 W  主竞赛单元 金狮奖 (提名) 诺亚·鲍姆巴赫
( B  L, }- u7 V/ L
6 d7 h7 x* K+ x6 Z- E7 Q4 q6 @  第77届金球奖(2020)
( Y; }! f) A/ K+ q1 o  电影类 最佳剧情片(提名)& R# \0 u7 p2 x, Q( M1 E
  电影类 剧情片最佳男主角(提名) 亚当·德赖弗5 @* u. G) w( i% w  M$ K* X
  电影类 剧情片最佳女主角(提名) 斯嘉丽·约翰逊
) o( u( t1 M# K5 m  电影类 最佳女配角 劳拉·邓恩0 P& Q3 c( Z2 m* L
  电影类 最佳编剧(提名) 诺亚·鲍姆巴赫
+ Y$ F5 I( T3 i" {  电影类 最佳原创配乐(提名) 兰迪·纽曼
8 c. O0 B( y- M4 T& X. W" r( V4 Q# _5 f( U
  第73届英国电影学院奖(2020)% P- r) V$ I! d8 g: `' B7 ~
  电影奖 最佳男主角(提名) 亚当·德赖弗
: c- m6 |7 _/ t: _# V  电影奖 最佳女主角(提名) 斯嘉丽·约翰逊
0 m' Z4 ?1 t+ _  电影奖 最佳女配角 劳拉·邓恩
& z& i- t( t  x4 l5 n6 y) |( }% ?  电影奖 最佳原创剧本(提名) 诺亚·鲍姆巴赫( F& _7 S* `* {) x+ S
  电影奖 最佳选角(提名). G/ A. G0 X# A( Z9 P  g5 q

% E7 E7 g5 v* F7 [3 C: Z  第44届多伦多国际电影节(2019)2 _5 A% C# Q/ p* l& c
  观众选择奖(提名) 诺亚·鲍姆巴赫) V, U3 y3 u4 z! j

, k# ~  v! h# {# `) X, @) j+ J  第26届美国演员工会奖(2020)
8 J3 U$ Z( H2 }% h) {% N  电影奖 最佳男主角(提名) 亚当·德赖弗: W. \3 q: s0 u) ^0 P4 W
  电影奖 最佳女主角(提名) 斯嘉丽·约翰逊
' _: ^7 G7 H& L  电影奖 最佳女配角 劳拉·邓恩
( V  g) m+ J) p* E0 @0 t
7 S9 b/ ~  r1 l  第72届美国编剧工会奖(2020)! N& N7 v/ A9 Q! e
  电影奖 最佳原创剧本(提名) 诺亚·鲍姆巴赫7 b* I" F% ^3 u) E
% `) h; J6 t% Z3 Z+ G
  第31届美国制片人工会奖(2020)
" ^- ~0 h3 k: l; p6 Y8 p  最佳电影制片人奖(提名)3 R! N5 F: J* X2 ?

6 @1 h" L4 l7 I1 E  N  第70届美国剪辑工会奖(2020)
; |. C. v. c! X  剧情片最佳剪辑(提名) 詹妮弗·拉梅  m4 D2 b, C0 ~# G. e$ r9 L" u

$ O) u4 d  o5 ^, n0 s  第85届纽约影评人协会奖(2019)
' P0 [, Q/ C. T# ^- c6 o  P; P  最佳女配角 劳拉·邓恩7 H5 h! |) A! q8 m6 ?: |- F1 f

" g  A  h# ]" e  第91届美国国家评论协会奖(2019)- ~4 S7 P4 v7 }1 u! s
  年度佳片1 [+ W. v( ?5 F4 Q% Z) \

! H, ]. s! D# b  第25届美国评论家选择电影奖(2020)
: ^" n! ~" K# f1 f6 c' T, S  最佳影片(提名)* i  j, ?$ u- A0 r
  最佳导演(提名) 诺亚·鲍姆巴赫9 _8 Q6 ]$ e' Z% w4 ?) L
  最佳男主角(提名) 亚当·德赖弗! m6 x+ |& L/ M& T' h6 T
  最佳女主角(提名) 斯嘉丽·约翰逊
* b. [. t/ K6 R+ N/ c4 P8 E  最佳女配角 劳拉·邓恩
# R2 q6 O) Q3 K% }3 Q8 g  最佳群戏(提名)4 ^& \" X* |8 F& K# Z# c
  最佳原创剧本(提名) 诺亚·鲍姆巴赫
. y- r4 {. E% H! s4 E  最佳配乐(提名)
2 k1 o. j; L3 B" |0 b! Z6 ~6 L. W1 T6 V
  第35届美国独立精神奖(2020)
, {: ?- J! Z/ X# p  最佳影片(提名)
- F  w+ j7 w' G  a  最佳剧本 诺亚·鲍姆巴赫
2 S% l; s0 D' R5 Q* e4 R% i  罗伯特·奥特曼电影奖
$ p5 Z( F6 J/ c0 {5 G3 T% @
' r- M5 E) K8 V- j5 ?' |8 Q% U3 J  第22届英国独立电影奖(2019): |% R% |! x( O/ q2 w
  最佳外国独立电影(提名)
5 e9 F- d4 h, {+ S8 b9 t$ N9 a2 d/ c' O& P3 q2 {! G9 _' c
  第29届哥谭独立电影奖(2019)
+ g( }' J: W) D  最佳影片& j# I+ r! B$ i5 a
  最佳男演员 亚当·德赖弗2 y, ?4 Q' \3 r. ~) o" h3 ]2 F& c
  最佳剧本 诺亚·鲍姆巴赫
3 y; M* J- Z+ x" M% ?+ p* N% W" b! X$ H, s, N5 w* h! Y5 n
  第20届美国电影学会奖(2019)
3 K' V( j) M& Q, x! X2 r3 ~0 K  X/ g+ ~  年度佳片5 S( z3 B0 f' ^# |

0 r1 k8 F8 m1 z" ?4 j4 B6 q4 j4 l  第24届金卫星奖(2020)8 o2 ^1 `5 Y5 A& z  {
  电影部门 最佳剧情片(提名)
: O+ ?3 N, B/ d7 L9 g- A& O  电影部门 最佳导演(提名) 诺亚·鲍姆巴赫
) u, X# D* Z1 o' f: q2 b  电影部门 剧情片最佳男主角(提名) 亚当·德赖弗1 L) P! Y7 H8 U) U0 h
  电影部门 剧情片最佳女主角 斯嘉丽·约翰逊* ~! R3 ~7 m$ Q) t8 [! @
  电影部门 最佳女配角(提名) 劳拉·邓恩
& X$ x( w* W  v, m" {5 z1 q# A  电影部门 最佳原创剧本 诺亚·鲍姆巴赫5 u: A0 h9 M5 n9 L+ d6 N, [
  电影部门 最佳原创配乐(提名)
& B+ F2 t" u5 R5 z2 `5 q  电影部门 最佳剪辑(提名)# H" I& F! b: J
) ?: ?. ~( m9 w
  第23届好莱坞电影奖(2019)
2 r; V) s& t- E* [( Q  年度女配角 劳拉·邓恩
$ I; r5 l; i. y5 _: i  年度配乐 兰迪·纽曼: P( ~. `; y/ f+ {5 i( x% m

8 D! A; B& e1 K% H! Y" h+ ]  第54届美国国家影评人协会奖(2020). D" }( ^8 Z, n8 M- H& \- Q
  最佳男主角(提名) 亚当·德赖弗
# G+ w. O. w3 v0 `& D  最佳女配角 劳拉·邓恩6 |" f1 P- M, @1 B2 L3 n! V
6 C# ~/ [% S1 I  f) |2 c3 o
  第18届华盛顿影评人协会奖(2019)
. E* Y/ z/ g$ c! j) s" \$ L4 C  最佳男主角 亚当·德赖弗2 _0 d  O: @6 n- P& z3 z
  最佳原创剧本 诺亚·鲍姆巴赫
/ P: V3 D$ M1 W
' {# H9 s" ?: p; k9 D5 ^9 h  第40届伦敦影评人协会奖(2020)
5 l5 P* D. j' F7 {  年度电影(提名)
2 v$ n% c3 U! V1 q$ K  年度编剧(提名) 诺亚·鲍姆巴赫4 W6 u' M% t; S% U# J
  年度男主角(提名) 亚当·德赖弗9 Y0 s. s( D( h% `) a; i8 T1 y# j
  年度女主角(提名) 斯嘉丽·约翰逊
+ z# q: C5 e5 Q3 h4 l/ f5 n4 U$ ~  年度女配角(提名) 劳拉·邓恩" ?9 P8 O0 o( {0 A: {* l/ `7 ^* n7 ~% L; V
, k1 }1 l( i. m( w/ v1 B% X: T
  第40届波士顿影评人协会奖(2019)
7 r2 {+ G& l9 T6 S4 D  最佳女配角 劳拉·邓恩1 m% x8 b5 ?% I0 c
  最佳剧本(提名) 诺亚·鲍姆巴赫
8 P7 t) R0 E4 c" l, C7 b$ d' ~) @# u
  第45届洛杉矶影评人协会奖(2019)
' j3 ?/ [/ g0 u) g4 j  最佳男主角(提名) 亚当·德赖弗7 L5 C! `3 M$ [' p6 w! g3 L" B
  最佳剧本 诺亚·鲍姆巴赫
" k) _* A3 l" `' P7 \: i) |, W" r, _6 q" r  E& r; y- ]
  第32届芝加哥影评人协会奖(2019)' t* n& t3 J' u, w, T
  最佳影片(提名)
: R# `! R+ f4 {  最佳导演(提名) 诺亚·鲍姆巴赫8 W4 |, i# k; k$ V. C$ w) z* W
  最佳男主角(提名) 亚当·德赖弗; {) k9 x6 U* y6 V
  最佳女主角(提名) 斯嘉丽·约翰逊2 o$ ]5 |. i: c. u- ^( o! g
  最佳女配角(提名) 劳拉·邓恩* m/ L, A* B; B) |  {; C* ~
  最佳原创剧本(提名) 诺亚·鲍姆巴赫* q  ?( C- |1 \3 U5 z
  最佳原创配乐(提名) 兰迪·纽曼
3 e( x# |; K; d4 c. ^! T: j7 Q
3 }3 T( o/ {9 k  第13届底特律影评人协会奖(2019)1 M& K0 _7 Y+ i2 j& ?
  最佳男主角 亚当·德赖弗
% D8 C6 u  t" M& Y7 d  最佳女主角 斯嘉丽·约翰逊- [9 r+ ]% R  D3 ?+ K( f
  最佳女配角 劳拉·邓恩/ B8 G* @& R  H3 E- f* r3 n' }
  最佳剧本 诺亚·鲍姆巴赫
8 Z8 ]2 M9 d, X3 P7 w+ y/ a& b5 }6 [: @/ A5 l2 @
  第4届亚特兰大影评人协会奖(2019)
- Y+ p% ~5 {7 k9 ]$ Z% \( L, @% [# h; V  十佳影片
' R0 l: V8 [9 r. u6 v0 @  最佳男主角 亚当·德赖弗
  S0 a* s% Q1 i& H% K  最佳女配角 劳拉·邓恩6 c( x9 x! y; \" r2 N$ u* |% ~
9 E0 @( o, H0 @: `
  第23届美国在线影评人协会奖(2020)) K9 l" _( @% j
  最佳影片(提名)
( @; L8 A: F% H8 t  最佳男主角 亚当·德赖弗" Z# a; J% n- }- D; z
  最佳女主角(提名) 斯嘉丽·约翰逊. V* M& O5 Z9 i3 M, \2 ?
  最佳女配角(提名) 劳拉·邓恩4 t2 X2 ]% F% P
  最佳原创剧本(提名) 诺亚·鲍姆巴赫, o) y  C! \+ {
  最佳原创配乐(提名) 兰迪·纽曼
  d5 p4 D# {$ Z6 B4 {5 T2 g! W$ s. g1 L. Z
  第6届豆瓣电影年度榜单(2019)& i  @0 B) M4 H  t
  年度冷门佳片(提名)- v9 M" A$ i. u% u) H1 X
  评分最高的爱情片
$ e7 P2 P* {( d4 z, |  |3 O
Video
" i5 I  o- |/ Q6 ^& }) q5 mID                                       : 1+ i. [% ?$ J9 x, w0 ~
Format                                   : AVC
6 [  l- j# T, b5 @Format/Info                              : Advanced Video Codec% U: J. U0 R/ g; o
Format profile                           : High@L4.13 K, }; Y% x7 E( \2 H: v2 E
Format settings                          : CABAC / 4 Ref Frames
, L5 I% U# Y! m$ ?) m8 [# iFormat settings, CABAC                   : Yes6 N! `) h( D1 N; x2 E" x
Format settings, Reference frames        : 4 frames
9 p7 i3 _7 g! l4 g7 u& MCodec ID                                 : V_MPEG4/ISO/AVC
0 D2 r. ~( U& S: y4 WDuration                                 : 2 h 17 min
: @: n; Z+ h/ X  d1 a$ ]3 y7 W; FBit rate                                 : 5 500 kb/s
# P; H& Q) U0 E' T% ~: J: vWidth                                    : 1 200 pixels
) X5 m' v+ v3 ^7 I0 VHeight                                   : 720 pixels
9 `& j: J) T' ]- h( o5 v+ k4 r! CDisplay aspect ratio                     : 5:3
( l3 v& c% y9 N$ e4 R7 j" @Frame rate mode                          : Constant. h2 l6 R# ^8 I2 V
Frame rate                               : 23.976 (24000/1001/37687) FPS; P  L! j( ]) C4 k4 x/ N  W( g! {
Color space                              : YUV
; k8 P: i% A% }3 }, {/ qChroma subsampling                       : 4:2:02 J9 c+ o) `. r" ?
Bit depth                                : 8 bits
' ~! I1 g+ D8 t. y8 MScan type                                : Progressive
; j, A' B9 p; @* b! IBits/(Pixel*Frame)                       : 0.266( `0 ^5 y4 G8 x3 G$ B6 l
Stream size                              : 5.26 GiB (78%)* D; A: I8 }) Z' P5 z
Title                                    : Marriage.Story.2019.720p.BluRayCD.x264.DTS-FGT
/ a3 C+ o" U- ~# B9 ?Writing library                          : x264 core 148 r2795M aaa9aa8; p  @; p. s# M# C9 @- h: [
Encoding settings                        : cabac=1 / ref=4 / deblock=1:-2:-2 / analyse=0x3:0x113 / me=umh / subme=9 / psy=1 / psy_rd=1.00:0.15 / mixed_ref=1 / me_range=16 / chroma_me=1 / trellis=2 / 8x8dct=1 / cqm=0 / deadzone=21,11 / fast_pskip=1 / chroma_qp_offset=-3 / threads=72 / lookahead_threads=3 / sliced_threads=0 / nr=0 / decimate=1 / interlaced=0 / bluray_compat=0 / constrained_intra=0 / bframes=3 / b_pyramid=2 / b_adapt=1 / b_bias=0 / direct=3 / weightb=1 / open_gop=0 / weightp=2 / keyint=250 / keyint_min=25 / scenecut=40 / intra_refresh=0 / rc_lookahead=50 / rc=2pass / mbtree=1 / bitrate=5500 / ratetol=1.0 / qcomp=0.60 / qpmin=0 / qpmax=69 / qpstep=4 / cplxblur=20.0 / qblur=0.5 / vbv_maxrate=31250 / vbv_bufsize=31250 / nal_hrd=none / filler=0 / ip_ratio=1.40 / aq=1:1.00, R) P/ J9 V: a- _' f7 F
Language                                 : English8 y* s7 F6 Y; `1 Q' S8 U) C
Default                                  : Yes
7 K1 S  G9 m$ n: w2 i9 WForced                                   : No
9 d! s( k8 w' q$ P! A* D# e, K! r- U8 W  O0 |
Audio
$ \7 B9 U$ Y$ n( pID                                       : 2
' `8 x' H% J8 K8 ^" e% ~Format                                   : DTS
$ ^4 D; m, H, NFormat/Info                              : Digital Theater Systems! g. C* [8 s) A& ?6 {% j
Codec ID                                 : A_DTS% S6 r7 I, J4 \/ m
Duration                                 : 2 h 17 min
! q, P" l: R) }' w' MBit rate mode                            : Constant
; ^' {% }0 v( i% C7 C$ p+ R% _: TBit rate                                 : 1 509 kb/s. x9 i( X2 `2 K8 D1 b% Y. r
Channel(s)                               : 6 channels
, y; W  \& {" D( D0 P5 ~Channel layout                           : C L R Ls Rs LFE$ h! w  i/ ]6 {
Sampling rate                            : 48.0 kHz5 n) Y8 E( X2 W4 d  s% A! A
Frame rate                               : 93.750 FPS (512 SPF)* U. q: c$ |. R) ~9 [, R3 n; P9 R
Bit depth                                : 24 bits. P7 e; L3 T' l' q
Compression mode                         : Lossy3 M  n5 J2 J( Q8 C7 D
Stream size                              : 1.44 GiB (22%)" ^  E" ]- f6 y* }
Title                                    : Marriage.Story.2019.720p.BluRaycd.x264.DTS-FGT
6 O% g5 ?  @( HLanguage                                 : English
: Y* B& L" B. X4 VDefault                                  : Yes
# [+ A$ }% z9 `# F( T+ rForced                                   : No! s* j0 j% R" K- E

3 `# \' N3 O8 `6 o& {Text #1: ^( [* _: k' j$ Q+ n
ID                                       : 3  ]' Y! C  V+ F. |6 ?; K4 r# w0 M
Format                                   : UTF-8. g; W- f4 C* @+ `1 i. E: P
Codec ID                                 : S_TEXT/UTF8+ |% x3 b" z" i, y7 r( g
Codec ID/Info                            : UTF-8 Plain Text/ f+ `9 C' R0 G: W
Duration                                 : 2 h 11 min
- S8 O, r+ V, y2 D5 H, O' W  xBit rate                                 : 92 b/s! e1 R  n1 G& A- }
Count of elements                        : 2559
+ T% a) ^1 k: hStream size                              : 88.5 KiB (0%)
' D8 ]0 d1 }8 F" |- q5 U' ELanguage                                 : English- C7 t' E$ C/ {# n2 R# A
Default                                  : Yes
$ d' L. x' r4 g% i; q5 ~Forced                                   : No! S0 t1 i8 }6 u7 {
# g# }/ w3 |) L5 q/ W5 V; |. e
Text #28 g3 t0 U4 }1 U) s6 S
ID                                       : 4
9 `/ D% n5 n) k& D" `# L( ?5 [- c/ [Format                                   : UTF-86 R$ f7 S, b: J, j
Codec ID                                 : S_TEXT/UTF8
; O3 l5 p7 [: }Codec ID/Info                            : UTF-8 Plain Text
$ E* I9 [8 B1 O2 h/ @Duration                                 : 2 h 11 min4 x% N5 l+ B) S- _3 W1 _4 K
Bit rate                                 : 103 b/s
$ x0 z5 {& D8 k. \! ZCount of elements                        : 2796
+ A; F9 H8 J( |4 v/ D: h0 c9 K8 ZStream size                              : 100.0 KiB (0%)4 m8 e! R( {/ m4 Q8 b. H% K
Title                                    : SDH
7 F% a- D" V7 h: R) U- q4 @7 j# qLanguage                                 : English
5 U5 n5 {0 x5 Q& S4 F- E( q  e3 dDefault                                  : No- h" `$ u2 L2 c3 l; C8 \( N  u
Forced                                   : No
; P2 O7 ~$ [  H: v+ P4 v. X- _
/ H+ W+ a2 t5 N9 ^" lText #3
* E5 F2 {* n, P+ q$ C% ^ID                                       : 5
2 i5 w9 m+ }. J% |) {1 c; uFormat                                   : UTF-8
' N: j: t8 ~% T4 z- q# rCodec ID                                 : S_TEXT/UTF8; s# E7 J0 g1 P- O4 F/ w' N0 I
Codec ID/Info                            : UTF-8 Plain Text9 S  M$ D9 j. {0 l. A6 Z4 ^
Duration                                 : 2 h 16 min+ D$ _9 t7 O, F4 p  b, d  |+ ^! V. v
Bit rate                                 : 145 b/s
$ R; i) q5 i# c# L; z& ~; ZCount of elements                        : 24460 |- a* B& P8 B' V
Stream size                              : 145 KiB (0%)) ?4 w0 A6 ^8 L' Z' n
Language                                 : Arabic; K7 Z( i; S, i7 o8 `4 l# U$ j
Default                                  : No0 v6 Y! e: m- c
Forced                                   : No
8 v, N' i* S) I" y( o& q' b! c; g1 k' f- x! c! x
Text #45 h! A6 L8 g- ]5 F
ID                                       : 6
! o* q+ u6 J) xFormat                                   : UTF-8
8 }3 _! h+ b5 b; j* M' ACodec ID                                 : S_TEXT/UTF8
8 \7 e' p" M* Y& x* ^# w/ _Codec ID/Info                            : UTF-8 Plain Text
  f! G6 T, C% B8 N6 b6 JDuration                                 : 2 h 16 min
7 ^9 l% H9 B, `; l4 o# e$ D/ M8 q  pBit rate                                 : 78 b/s( {7 x: h" B0 Z+ O: T6 G0 b
Count of elements                        : 25478 p+ s$ B- a9 w) d
Stream size                              : 78.4 KiB (0%)
  v1 I. J9 Z* KTitle                                    : Simplified
# Q2 ]0 {0 N" Y% z' \7 G: ]Language                                 : Chinese
$ j- ]7 H$ t' E# `9 m* N/ F. NDefault                                  : No
& b- k! E  F7 VForced                                   : No
& I9 O0 z# x1 V, X+ C' Z9 w9 e" o% J% l; C( F1 D; u7 d
Text #54 r' K% O& K% ~3 V
ID                                       : 75 R/ k7 b) s( d% N5 R3 }
Format                                   : UTF-8- ^1 L' O6 o; q$ @
Codec ID                                 : S_TEXT/UTF8. u: f) Q/ `. n1 W3 ?
Codec ID/Info                            : UTF-8 Plain Text
) N; Q* u( }6 z/ k5 {' vDuration                                 : 2 h 16 min
5 M" B9 F3 Y8 d& B+ Q4 t+ uBit rate                                 : 70 b/s
! v) f2 r% L6 {6 X/ e$ F) D( CCount of elements                        : 2523
3 [8 X( p* y: u4 p4 DStream size                              : 70.3 KiB (0%)
, w) \! I" }9 l4 TTitle                                    : Traditional
4 X( N8 M5 C3 q3 B: ULanguage                                 : Chinese
% O3 \' ^* B( F8 v4 ^) p, G4 EDefault                                  : No0 R; j3 @+ Z( |. O3 {* h
Forced                                   : No* v3 u  h: N! Q7 u! ~
8 ~8 T$ T8 Y2 ^% s
Text #6, ]# Y, r% y/ _- v! c2 e
ID                                       : 8
1 q9 w6 S* a3 l& g- L. R. X  n0 UFormat                                   : UTF-8# i, q) P9 b4 W, \/ p" o1 s4 |4 w
Codec ID                                 : S_TEXT/UTF8) i0 L6 }, [6 p. N9 ?" z% _5 {
Codec ID/Info                            : UTF-8 Plain Text9 M8 T* p- z. `" C  y& g! B" a; i+ F
Duration                                 : 2 h 16 min# q. V( p, l5 j3 n" Q
Bit rate                                 : 75 b/s
0 d" g. z) q( N4 |# T2 }' KCount of elements                        : 2446: }. s7 q& d& k4 D) x. i/ C  b! J
Stream size                              : 74.9 KiB (0%)) J8 O+ @5 G, D1 b4 x/ r( m5 k, z! D2 ]
Language                                 : Czech' M/ y7 t' y+ r# f' U- p
Default                                  : No
3 ], ?5 h% y: ]& b1 O1 D; cForced                                   : No) N2 H7 b) B& \* p! S. ~
2 Z6 ]- j3 o, R* ~; O9 L8 d7 b  F
Text #7$ s" o, M8 J* q' X
ID                                       : 9
" d  R# o1 B  @Format                                   : UTF-8& q, u* y& h% T) ]- a) h1 Y6 D
Codec ID                                 : S_TEXT/UTF8
  \& B  K* s- G5 ]& p/ D. ?Codec ID/Info                            : UTF-8 Plain Text; t$ }1 H0 x/ w/ ^4 Q, {8 L5 E# ^
Duration                                 : 2 h 16 min
0 N- A3 ~7 @# HBit rate                                 : 80 b/s
+ s4 l. R( ?, d# NCount of elements                        : 2439# J$ n+ C# m/ p! P  }# g
Stream size                              : 79.9 KiB (0%)& `. {4 _0 ^) j% b9 D# b+ T
Language                                 : Danish
* o4 I/ s$ N8 fDefault                                  : No
" _- m6 h/ ]" e0 z+ q4 |( WForced                                   : No; P' I9 n# ~- w" ^  W) V! ^

* d/ f6 T: `; R0 sText #8
% K  ~& ~, [4 o! mID                                       : 10
" J# E- l: C8 Z. }6 g* l9 K9 UFormat                                   : UTF-8
; l7 S6 u$ A, @2 ECodec ID                                 : S_TEXT/UTF8, g" p% f- F0 |2 y4 |" ]+ F4 P% Q) W5 I
Codec ID/Info                            : UTF-8 Plain Text$ t1 k+ s% e* D- c
Duration                                 : 2 h 16 min
9 m5 [8 m1 N8 h9 V: Z, N) E, Q4 {Bit rate                                 : 75 b/s
$ X3 y0 Z, x) d* d# f: }Count of elements                        : 2395
6 Z2 W* ]+ X' ^7 B) Q4 NStream size                              : 74.8 KiB (0%)/ ~. P! ~$ V: X+ y; G
Language                                 : Dutch
# O: O+ Q/ D% j- P  RDefault                                  : No
& e; T  V# F& r9 I# KForced                                   : No; [1 P# m/ h! q; w: W; l; ]; {

, l# F, k, R" {3 e0 ]4 `. GText #9: o( u/ P5 o. _/ W
ID                                       : 11
5 z% A8 J1 w( g, }% V+ QFormat                                   : UTF-8
6 V4 }1 X  A6 J* J! dCodec ID                                 : S_TEXT/UTF81 u0 m9 E# @) n! ]# J# |- W& D, H
Codec ID/Info                            : UTF-8 Plain Text
, f, I1 J( ~4 G9 @Duration                                 : 2 h 16 min0 |. H- x+ l. Y6 C$ K9 ]. y
Bit rate                                 : 74 b/s
5 o# |- y0 y$ u9 WCount of elements                        : 2442
. d9 `) |+ c0 d- }9 }: ^5 aStream size                              : 74.1 KiB (0%)( P/ c$ z& U% P; t/ q  b# p$ `! a; b
Language                                 : Finnish, [7 h% l* [& U4 Y
Default                                  : No
6 o+ s( X6 s" nForced                                   : No
( Z. i# h0 F6 }) w
  J1 U3 k1 k( `0 b7 r- ~Text #10
4 j" J+ x. A: G2 oID                                       : 12
; g! d- h9 z- w  ~. {+ H! g  T3 R. hFormat                                   : UTF-8
4 Z& e1 x& }- h, |7 kCodec ID                                 : S_TEXT/UTF80 Y0 g- X; D  C! y5 u4 X
Codec ID/Info                            : UTF-8 Plain Text0 b. I" }% u4 j3 d" l; z
Duration                                 : 2 h 15 min
* S- h' G% H- B# Z/ ?- J  e5 ?/ Y" iBit rate                                 : 78 b/s) b  E7 b9 W5 n# J/ q" M. K! Y
Count of elements                        : 24217 S, M* l$ ~' P9 q
Stream size                              : 77.9 KiB (0%): H' D7 k8 _2 p1 l/ I+ C. ?$ }
Language                                 : French6 S5 [( u  ~! P& D2 ]2 K5 J/ y& Q
Default                                  : No
3 f  s3 o, ~& O: S% Y$ IForced                                   : No
% D; l! R8 L8 i% W( N0 L' K! N8 b, n' p2 F" _2 r
Text #117 V; J7 \% c2 p/ j  _
ID                                       : 13& M2 c  i( O8 G# i! w8 q
Format                                   : UTF-8
+ y0 s- M0 o( g! x( ]Codec ID                                 : S_TEXT/UTF8
. l$ {! ~# E& _/ l9 D9 pCodec ID/Info                            : UTF-8 Plain Text
+ ~2 W% ^& ~$ J  j: [6 K6 z% P( vDuration                                 : 2 h 16 min6 K" U; {/ T7 O6 m) v
Bit rate                                 : 75 b/s) ~: L8 x2 H. ?. P8 s6 D$ [5 k5 g
Count of elements                        : 2206' V+ J. \$ ]0 A4 J1 ?3 ~( x. v
Stream size                              : 75.3 KiB (0%)
( P2 c  @9 K0 B0 k) i* TLanguage                                 : German
- a! W: L# ]8 z; M: EDefault                                  : No+ z* t+ d* r9 b- ^0 B* M7 Q
Forced                                   : No0 u& _. _6 D% Z% u2 y. d1 o
* M2 x# }* c: L8 X$ j- m- a
Text #12* v0 |; Z5 O% k& l& Z9 ?
ID                                       : 14
, o+ h) f$ [" P! Z9 qFormat                                   : UTF-8# e: b# V: s$ c4 A3 u
Codec ID                                 : S_TEXT/UTF8( Z" W) s9 h4 E: i
Codec ID/Info                            : UTF-8 Plain Text) L  Y1 `) a3 ^) L' R
Duration                                 : 2 h 16 min6 ]2 T% I9 U4 p( Y
Bit rate                                 : 133 b/s
7 l* S( \' l1 p. _, g: oCount of elements                        : 2446
" Q' Q0 ^  r9 b' x% {Stream size                              : 133 KiB (0%)
* Z; Y9 [1 f. |  R# n8 t6 n' uLanguage                                 : Greek5 G) [# ~9 b9 V% h1 k
Default                                  : No
% S4 T) q( J8 t; J. \Forced                                   : No* ?4 N7 K7 n6 ?- c+ E9 Q
8 c& _1 I+ q! C1 e: y' Y8 L
Text #13& {6 f, o- Q& E- V' |' w) Z
ID                                       : 152 L* c  j, i. v
Format                                   : UTF-8$ P. n) H3 H! o' q
Codec ID                                 : S_TEXT/UTF8
7 F6 F- B( E! |Codec ID/Info                            : UTF-8 Plain Text/ l0 W- N* u- z1 O) c
Duration                                 : 2 h 16 min; s8 d  t# ?+ z, d3 B& H
Bit rate                                 : 120 b/s
/ Y- S8 e7 G2 b0 H: pCount of elements                        : 2446
- c+ |" H. n* P# H8 A3 B* WStream size                              : 120 KiB (0%)
) P/ m( v/ U/ p6 k- a; tLanguage                                 : Hebrew
1 c* F8 w& ^; ?2 j2 dDefault                                  : No. e6 v; q, h8 ?1 Z5 {
Forced                                   : No
. h) ^2 q! C$ X
2 f4 T9 @, [, T; @* OText #14
1 T4 e+ k8 U7 Z3 ]/ N" f9 cID                                       : 16
2 Q) q6 p' Q3 X+ xFormat                                   : UTF-8- {) Z& Z# a4 i% n4 T% u
Codec ID                                 : S_TEXT/UTF85 _& A. s2 f+ Q$ j6 s& _) d) O
Codec ID/Info                            : UTF-8 Plain Text2 y, }& z; p( n: i  }
Duration                                 : 2 h 16 min( w; Z. N/ {# G* |* s% }" ]' l
Bit rate                                 : 87 b/s. A8 _' _# B0 h  z, Y* O( K( a
Count of elements                        : 2445
, y) I. t( u+ r" b) iStream size                              : 87.6 KiB (0%)
: z; ?; `! X0 D0 I0 Q6 WLanguage                                 : Hungarian
' ]+ s( ^3 r, o! y8 `; i3 p  u/ B7 wDefault                                  : No! n1 \5 z; B8 s1 x
Forced                                   : No
$ D1 J9 x6 o5 h) Z4 ?2 u9 f! c5 B7 V
! o5 a% U$ C7 `" c) s0 l; u8 Y. i& bText #15) C* ?3 F+ g5 \& i
ID                                       : 17
+ r% Y1 m) Q: Q7 y7 t- ~Format                                   : UTF-8
: q/ B7 h+ ]5 \/ kCodec ID                                 : S_TEXT/UTF8: D4 s1 g; P4 [' K9 p* S1 |8 B
Codec ID/Info                            : UTF-8 Plain Text
4 _6 C' a; M5 X: G6 vDuration                                 : 2 h 16 min
5 v2 l* ?  E: c! w2 |Bit rate                                 : 82 b/s
8 t) T3 n# h9 k' K6 }7 ECount of elements                        : 2452
! G' w5 e/ Q* o! }5 G- FStream size                              : 82.2 KiB (0%)
9 M+ x4 G4 J# H, {Language                                 : Indonesian
5 G, f1 R9 u, mDefault                                  : No
1 x- k2 e) W' Y  pForced                                   : No
0 Q* z+ }: a5 F) H
- a2 y' B0 x4 c3 LText #16
- ?! |) }$ `/ [2 E! H1 O6 P' cID                                       : 18
4 F" \# z$ m- bFormat                                   : UTF-8
2 A6 H% b' B4 QCodec ID                                 : S_TEXT/UTF8( A0 L9 T9 a( b) Y7 J  V! ~
Codec ID/Info                            : UTF-8 Plain Text
* k: `  U5 K2 L! [% uDuration                                 : 2 h 16 min
! S9 \1 x7 v8 P) VBit rate                                 : 78 b/s1 h- L5 q6 @) C/ R) g
Count of elements                        : 2426# h2 v# c3 }% j9 ]
Stream size                              : 78.8 KiB (0%)( m1 h( c  [; g9 w# y& A7 i7 Y
Language                                 : Italian2 t- B! _& [9 G
Default                                  : No
; _2 S- e+ c* d( q3 ?+ X7 tForced                                   : No* d: X' r7 j( ~( u

% p) C; A" L5 \4 Q( aText #17
* S; G" V/ |0 O4 ?ID                                       : 19; |( d# t4 E& R# ?+ u2 R, x" b; K
Format                                   : UTF-8
3 _5 {3 W( Q$ n# N1 C$ P& j- VCodec ID                                 : S_TEXT/UTF8
  @7 K0 H9 w& @- N5 N0 v3 RCodec ID/Info                            : UTF-8 Plain Text
$ |% w8 |% k) f4 u5 C5 WDuration                                 : 2 h 16 min  O8 I% b; c0 W% w  s$ ]
Bit rate                                 : 68 b/s& ^: s/ |) O6 j' a+ q8 A' @
Count of elements                        : 2502
" ]8 L3 v) T- \* F4 wStream size                              : 67.9 KiB (0%)) W. X) f+ l, n" ?1 G
Language                                 : Japanese
' k5 r  z4 `0 }3 @4 qDefault                                  : No
& v! v3 |  P! C6 w+ KForced                                   : No. n. `4 V7 |! |0 s

- s0 q: l; I& N% V) C) O* qText #18: Q1 x8 z2 s! G3 p- B# S
ID                                       : 207 Y3 \# f( z; O0 {2 l
Format                                   : UTF-83 V- C. n0 i9 M- ]' U4 o
Codec ID                                 : S_TEXT/UTF8; N; A% k7 _. q* Z4 a: [0 G* N
Codec ID/Info                            : UTF-8 Plain Text
' O3 z  X5 A; n# nDuration                                 : 2 h 16 min
5 y* W# _1 m! ?& a7 D+ L( h* iBit rate                                 : 87 b/s! Z3 B9 J) Y; w% Q  N$ j7 d0 \# _
Count of elements                        : 2520
; b' ^& \) J0 p* b1 ~2 lStream size                              : 87.7 KiB (0%)
  Q' x, `  h7 wLanguage                                 : Korean
$ }. Y& ]! r. f. m( y( ~" @4 lDefault                                  : No
! s- M8 B- W3 w2 J  I3 v" ?, sForced                                   : No' r0 v  O' P6 m3 }- e# v3 D4 q/ [
* |$ p$ r6 y! a, l
Text #196 Q& g. Y+ E% M5 s" |
ID                                       : 215 a" Q$ o0 i6 a% |% p
Format                                   : UTF-8
- s( _; F/ z, ^7 ?2 c! \9 cCodec ID                                 : S_TEXT/UTF8
+ h5 t. {/ f, @# j, W& `% q6 ]Codec ID/Info                            : UTF-8 Plain Text
5 F8 q3 l4 [: p* E" X" w$ r" `# l$ U+ XDuration                                 : 2 h 16 min
7 V+ j# A% S4 ?9 I! D3 {# X, kBit rate                                 : 80 b/s
4 ]2 k% [( Q" }" R% hCount of elements                        : 2437  F7 U, z7 _1 P0 a; ^
Stream size                              : 80.1 KiB (0%)+ g/ D( r3 m0 [! f% u2 G) U) X
Language                                 : Norwegian Bokmal
2 i3 o6 B9 r) G" W) x  B! RDefault                                  : No
  H# H# l& F1 K9 G( _: NForced                                   : No/ h0 H5 ?* m: `/ i1 j
0 r( n# b1 V" r( G( g4 q
Text #20+ u+ B! S/ i# k4 |- A, _. r
ID                                       : 22/ [  X" H+ L4 U& M8 I1 C& k/ Q- t
Format                                   : UTF-8, E( |) ~8 z. [$ Z- y0 e
Codec ID                                 : S_TEXT/UTF8
0 M$ b5 J. g0 X9 c. M/ s5 NCodec ID/Info                            : UTF-8 Plain Text- V9 @# Z9 A, c9 M4 P/ U) D8 W
Duration                                 : 2 h 16 min  E8 T1 J' t1 g+ v' C5 c0 ]7 J
Bit rate                                 : 77 b/s
+ q/ |; x2 m: S  p% U( ?' o1 [5 d' yCount of elements                        : 2408
- l5 B; T. \' L6 KStream size                              : 77.0 KiB (0%)
7 z% h6 l* i- h, C( j( eLanguage                                 : Polish
- ~; r- f% C/ D( }, g0 H0 ]Default                                  : No
: ]: }& j' o8 f" Q& O% TForced                                   : No* b- B. e: [0 \4 O
4 q% H% `  D& s/ k& `9 h
Text #217 A; e( g3 S, t+ E
ID                                       : 23
; o1 N" B: Q6 E, S+ ~9 t/ fFormat                                   : UTF-8
: g1 ]! f7 x. b+ XCodec ID                                 : S_TEXT/UTF8( g8 r( A8 I8 t- t  y$ k
Codec ID/Info                            : UTF-8 Plain Text2 m# }0 D$ E" e- s
Duration                                 : 2 h 16 min( m) f. u- ^4 o3 w+ w" s, x# Z$ e7 ~
Bit rate                                 : 74 b/s, R# n& _2 B1 R" o
Count of elements                        : 23802 V" |) _$ T' g& V5 ~; O* `
Stream size                              : 74.7 KiB (0%)8 m3 M$ B) {. T
Title                                    : Brazilian9 K1 y8 P9 O1 d3 U4 j8 Y
Language                                 : Portuguese
7 @' ~' I% Z1 H, IDefault                                  : No
6 s5 c8 Q4 P. p+ XForced                                   : No5 q$ _* G5 s7 d

: v* A% l7 h3 ?Text #22" N6 i' K9 Z9 J5 T
ID                                       : 24
) r- d6 ~: I  Z* B1 q* f  r. NFormat                                   : UTF-8  w$ r# X0 x! d' c' k$ T
Codec ID                                 : S_TEXT/UTF8
/ i5 G# P! ?+ t! j6 iCodec ID/Info                            : UTF-8 Plain Text. J3 ]% O( _3 I. p6 q- V* b
Duration                                 : 2 h 16 min
' H6 u! p/ s7 YBit rate                                 : 81 b/s
1 R9 K7 v4 w# H0 i0 J- M7 y- UCount of elements                        : 24674 P8 H7 D& L9 G
Stream size                              : 80.9 KiB (0%)
6 H$ H) g- q5 x2 `  kTitle                                    : Iberian5 I' A2 h, s  D  c. \& z! G
Language                                 : Portuguese# [: P, p8 r8 Z3 X3 u9 v
Default                                  : No
) a" ^/ s8 O  ^( n, M0 h7 WForced                                   : No
, f' ]0 w8 `1 X% @% n) n% @+ N5 _, U: B6 s
Text #236 M0 \/ A; W' O3 K& O6 y
ID                                       : 25% p7 z/ R2 ^+ I: l
Format                                   : UTF-8
8 d' K1 V5 F- g+ uCodec ID                                 : S_TEXT/UTF8/ n  N6 n+ X- H3 q8 w; A4 X# F
Codec ID/Info                            : UTF-8 Plain Text
. a+ h. |" G: }: \8 oDuration                                 : 2 h 12 min2 f0 @6 }; x$ Y' \& e+ t" {8 r
Bit rate                                 : 84 b/s
0 b, {8 K0 ?5 s0 ?* t- CCount of elements                        : 24911 h$ W4 N! ]# F. ^6 u* z+ n* c( L- j
Stream size                              : 81.8 KiB (0%)$ K, ^7 W4 ?; M1 H5 R7 C8 \0 N
Language                                 : Romanian: z* y1 Z0 ^" M* \. @4 y3 v
Default                                  : No6 A' [$ f" S' @1 h$ J: m( \5 V) o
Forced                                   : No% j) Y. j) R+ i4 s9 K5 r' _
; ]* M# e- w6 S( |+ @
Text #24+ P4 A: f# W, K# q& A; Z( A- c$ E
ID                                       : 26
7 t/ U* P% Q' c( d6 pFormat                                   : UTF-8
% Y/ A) B/ F1 O' i2 t$ j* O3 ]! aCodec ID                                 : S_TEXT/UTF8$ }3 W3 v  R2 [2 Y
Codec ID/Info                            : UTF-8 Plain Text
: R7 v! H( A0 D. cDuration                                 : 2 h 16 min
) B2 a6 S  t6 oBit rate                                 : 132 b/s
5 V* W- Z( l3 ]& e9 hCount of elements                        : 24171 K/ J0 W  T2 a& d" {2 R' N
Stream size                              : 132 KiB (0%)6 o- y8 G" p4 G9 i* y
Language                                 : Russian
, _. r6 Y( x0 ^$ \6 m* kDefault                                  : No
; F3 j- a8 q# bForced                                   : No
0 t9 h* n- F& O; [% `! k7 X" c) B% |. P8 y9 K
Text #256 {* j( }7 }0 a# Q6 N4 T
ID                                       : 27, v8 O4 h; [7 X9 B" i$ V6 o
Format                                   : UTF-8) z6 v/ G7 p6 s) n$ `" K. _8 ]
Codec ID                                 : S_TEXT/UTF8/ |" L6 N. w" H7 I4 ]6 s# K* M+ U
Codec ID/Info                            : UTF-8 Plain Text2 V5 X/ V- f) W2 l
Duration                                 : 2 h 16 min0 \5 f' U2 d/ E! k
Bit rate                                 : 76 b/s
) ^/ ?- A" l( _1 jCount of elements                        : 2388
, w% f) z( B9 s2 G: GStream size                              : 75.9 KiB (0%)
$ d6 E+ N( S+ B! z& I. pTitle                                    : Castilian
7 Y# Q' q! N5 W* {& R; iLanguage                                 : Spanish
$ H  ~4 T  W; L) v3 ~; u3 lDefault                                  : No
4 {6 c' R& y& z+ h! Z2 xForced                                   : No
( ]( n7 ^, c' m( G( N& v4 w& O3 p% h5 ?7 q8 g! O* Z$ U* J
Text #26
/ E0 ]3 S2 }# n2 yID                                       : 28
4 ], K  |% e, B2 m8 w) U0 yFormat                                   : UTF-8+ I+ C' A/ P1 B. O( D0 F& ^
Codec ID                                 : S_TEXT/UTF8% H' s# x/ g/ z
Codec ID/Info                            : UTF-8 Plain Text$ F4 O1 K5 O7 }$ H2 k( o+ s
Duration                                 : 2 h 16 min
3 M. U$ ]& A0 `* d' h) s, aBit rate                                 : 79 b/s
2 f5 [" E& Y& Y! N& x( a! g5 QCount of elements                        : 2322
) |- b  ~8 ~7 L0 |% D- DStream size                              : 78.9 KiB (0%)) r9 p, j' K' u' S6 d
Title                                    : Latin American. |3 e2 p' O0 R1 \/ ?- P9 |
Language                                 : Spanish
7 j. Q8 v/ A8 s; l4 \Default                                  : No7 x$ j: x/ Q  }" y$ F
Forced                                   : No
$ j- E( m6 X; T- \, B4 h( g% ?% Z( K6 F
Text #277 O# e* M$ ^7 N4 t
ID                                       : 29
& x: h5 L' x" W" j* ^! d9 RFormat                                   : UTF-8
0 l; M( K9 i7 l' Y& DCodec ID                                 : S_TEXT/UTF8
) F/ r; y# j& \/ j% oCodec ID/Info                            : UTF-8 Plain Text
4 l2 t: k7 R! ~; \  j6 J/ t$ iDuration                                 : 2 h 16 min
% p( j1 g8 S) A. X5 C, \  y  _Bit rate                                 : 80 b/s
# @; g2 B/ s0 d  z6 ZCount of elements                        : 24461 \6 @8 b8 q) F0 t! ?
Stream size                              : 80.4 KiB (0%)
2 I. m* }6 w* a/ A. z5 d' [Language                                 : Swedish
- i8 L; @+ ?6 ?' @Default                                  : No
2 s' P! m1 q0 \- v; s+ WForced                                   : No
' N7 V9 A8 P3 @- y. U( F$ P
+ c, J" O# g" GText #28
& J  c6 M  c: c/ CID                                       : 30
0 v0 P8 n: P. x2 x% A$ bFormat                                   : UTF-8
( E9 P3 F6 Z( p! q5 h/ i6 e, QCodec ID                                 : S_TEXT/UTF83 P$ e$ c3 w$ }' e* j; z
Codec ID/Info                            : UTF-8 Plain Text
8 k2 _% D' X' j1 ]" QDuration                                 : 2 h 16 min* w4 w; V* j. u3 P% D) _) j% [
Bit rate                                 : 215 b/s& K+ l, D0 B+ p
Count of elements                        : 2587* d, S; j: o5 z! w0 A
Stream size                              : 214 KiB (0%)
; h8 x1 b$ _  _Language                                 : Thai
. k: X. z6 \+ R/ @" n; S  k7 j" uDefault                                  : No
/ F6 I: f0 x1 s" P5 Z1 gForced                                   : No
7 ^" g! ]8 g  z0 H) a' d" j* V, N7 _! }7 }, o: r7 g
Text #29
4 X8 u7 K* E% o( d* ?" LID                                       : 316 i; p, d3 B) O4 H" G, V+ d
Format                                   : UTF-8
2 b4 v0 z6 c+ V1 ^3 j; s$ DCodec ID                                 : S_TEXT/UTF80 |0 X' z) g! Z/ m% C3 q8 M
Codec ID/Info                            : UTF-8 Plain Text
6 P; `( b; I! h% }! n" p( bDuration                                 : 2 h 16 min6 H9 P# w% z( Z, F( M; U# D) i3 `* r; j
Bit rate                                 : 81 b/s, L/ t7 b6 S" u; e( n
Count of elements                        : 2446
) q5 y- z4 Z* F0 ^, cStream size                              : 81.1 KiB (0%)6 Q1 X4 V: U0 e+ \; p0 R
Language                                 : Turkish
- A2 w: [# J, b; M8 c  z9 pDefault                                  : No
0 Q& v4 W' M) w* j* r9 U) s. ?Forced                                   : No% a% u! j/ u3 v) f; `$ w6 i

; ]" a0 h8 U9 f8 a3 Q2 kText #30) R( U- Y1 s) Q1 i, M5 v: O4 E
ID                                       : 329 V. G0 C6 M4 w$ s: M
Format                                   : UTF-8! p7 R$ x- b$ L1 a) N- p
Codec ID                                 : S_TEXT/UTF8
& j9 J. ~/ J2 x0 z5 {Codec ID/Info                            : UTF-8 Plain Text
7 h. F. B3 ~9 N0 E  H% {& Z2 tDuration                                 : 2 h 11 min
5 ]# T% h: m" Q1 M" k" ~Bit rate                                 : 113 b/s0 k; v8 [5 |, ~6 B" M( m7 O+ R' s
Count of elements                        : 2445
# b4 ^& |5 \$ {6 hStream size                              : 109 KiB (0%)' ]5 J9 Z. D0 Z; J
Language                                 : Vietnamese
' [% o* ~3 `% a' d( q; G& {Default                                  : No
% p2 i! j$ E0 fForced                                   : No
" R* F2 |$ Q- D6 q5 [2 G6 U6 \# F# j$ j, U3 t3 D; q  N
Menu& K+ C; a% i2 K$ P9 k* A
00:00:00.000                             : en:Chapter 1
4 U3 l, f* D7 I4 \( C, p4 T- M& a" t- R) T00:09:49.213                             : en:Chapter 21 S5 I: X! r' s) w/ ~7 {! d, A3 ?
00:15:43.859                             : en:Chapter 3
* K% z) S5 m! m$ |2 ?00:21:54.730                             : en:Chapter 4
. t, J3 O# F$ J5 ^  D# V00:32:34.452                             : en:Chapter 5
3 h  I: Y* o5 u00:44:36.965                             : en:Chapter 6
% ?; I: V- A- A) U( I00:49:17.495                             : en:Chapter 70 A0 l" S; w3 E: Q: b
01:04:05.883                             : en:Chapter 86 ?$ W: c( n8 U
01:13:27.986                             : en:Chapter 95 Z. X' u- F. ]0 |2 c8 u
01:24:40.075                             : en:Chapter 10
. ], m6 m* f1 A9 m01:31:15.928                             : en:Chapter 11$ O" a0 R8 {: i: R( H0 V. [; k
01:41:26.789                             : en:Chapter 12
* t3 W4 K' y+ |! I8 z' T, q5 ^01:47:05.919                             : en:Chapter 13: m* b3 B2 I5 m2 x
01:57:24.078                             : en:Chapter 14
8 V* e3 C# l! g# d; P, j02:00:09.076                             : en:Chapter 15
  K  z$ I" C/ {02:04:36.135                             : en:Chapter 16
Video
* O) Z) W1 K1 K' D  i- O, p( j, wID                                       : 1
$ Y' I* p4 K0 j. F/ W; Z/ ?3 WFormat                                   : AVC
1 Q6 X! V' t3 m/ D! q. ^1 k3 pFormat/Info                              : Advanced Video Codec
. g/ A" ~& p0 h2 j& cFormat profile                           : High@L4.1
# P* I' e0 r1 q2 TFormat settings                          : CABAC / 8 Ref Frames
! i1 m) l! D! K: Y' o4 ZFormat settings, CABAC                   : Yes/ A. k' A% {! S- L, V
Format settings, Reference frames        : 8 frames9 W9 Z" l5 ^6 M8 `9 E  j
Codec ID                                 : V_MPEG4/ISO/AVC/ k8 u$ z  C' Z+ t
Duration                                 : 2 h 17 min
6 [$ n0 i% C) t& B% o4 XBit rate                                 : 7 533 kb/s
3 _5 J+ y: `- Z9 S; l* f& pWidth                                    : 1 200 pixels7 H8 G% l4 j' x" g; Z8 c
Height                                   : 720 pixels
' V! s& d' r1 [0 X& z1 jDisplay aspect ratio                     : 5:3
/ G5 k: A: t- d0 NFrame rate mode                          : Constant
" e6 L1 Y. V2 v8 J2 @7 BFrame rate                               : 23.976 (24000/1001/37687) FPS
8 V% G1 J* J8 \0 }8 B+ lColor space                              : YUV% ~: H/ r' v  A/ n" r8 Z/ k+ _9 C9 [
Chroma subsampling                       : 4:2:0
( }' Q9 h' t2 N4 ^Bit depth                                : 8 bits
7 Y. d, ]& T9 t9 m3 o0 V' S: KScan type                                : Progressive0 K3 h" |5 v/ v/ E* {/ k; L
Bits/(Pixel*Frame)                       : 0.364
' R' F. b" U8 A! t( H( L1 E- XStream size                              : 7.21 GiB (92%)& |$ W1 }2 F% k: H
Writing library                          : x264 core 161 r3015 4c2aafd2 e+ M  u7 z3 J6 H1 n
Encoding settings                        : cabac=1 / ref=8 / deblock=1:-3:-3 / analyse=0x3:0x133 / me=umh / subme=9 / psy=1 / psy_rd=1.00:0.00 / mixed_ref=1 / me_range=24 / chroma_me=1 / trellis=2 / 8x8dct=1 / cqm=0 / deadzone=21,11 / fast_pskip=0 / chroma_qp_offset=-2 / threads=22 / lookahead_threads=1 / sliced_threads=0 / nr=0 / decimate=1 / interlaced=0 / bluray_compat=0 / constrained_intra=0 / bframes=3 / b_pyramid=2 / b_adapt=2 / b_bias=0 / direct=3 / weightb=1 / open_gop=0 / weightp=2 / keyint=250 / keyint_min=23 / scenecut=40 / intra_refresh=0 / rc=crf / mbtree=0 / crf=19.5 / qcomp=0.60 / qpmin=0 / qpmax=69 / qpstep=4 / ip_ratio=1.40 / pb_ratio=1.30 / aq=3:0.77
* `: r; F$ b% V, q  L& o2 @Default                                  : Yes7 L: j  v0 ^2 ^6 e% s$ o1 X
Forced                                   : No
$ R# y' U# `5 [, e* J% h% R" NColor range                              : Limited  p& G% M# _/ q
Matrix coefficients                      : BT.709
5 ]/ d- G/ s+ `( E- ~Audio
: ^8 P0 t8 d4 |' n) R9 aID                                       : 2
! l$ p" l6 k3 m1 cFormat                                   : AC-38 \& A2 x6 _% Z+ ^) }
Format/Info                              : Audio Coding 3
7 r, ^1 E$ Y7 d/ v& \/ x: t" cCommercial name                          : Dolby Digital
% g& F* s( a! ]9 sCodec ID                                 : A_AC3; v; k) s) t* Q5 \$ t
Duration                                 : 2 h 17 min
; N" c: @/ w; f, F8 Y, I; `Bit rate mode                            : Constant6 V: O1 Y" O# v" K6 X/ a6 m3 }
Bit rate                                 : 640 kb/s! F: T4 @2 x6 Z1 O/ P% J
Channel(s)                               : 6 channels) I5 n8 H. e2 T
Channel layout                           : L R C LFE Ls Rs9 ^- N1 w1 X1 n9 h2 H
Sampling rate                            : 48.0 kHz2 [5 u& i# ]" ]/ [6 i2 `) k8 `, H! {
Frame rate                               : 31.250 FPS (1536 SPF)1 Y- V5 ~9 U# _( ^; u
Bit depth                                : 16 bits5 j5 Z  B8 B: [( c+ Y1 n* ^
Compression mode                         : Lossy$ M  ^+ a) N* C( o$ D4 `) d7 B7 ]
Stream size                              : 627 MiB (8%)* n( G( n% z: @
Title                                    : English
* p% z& E) I1 G  }0 fLanguage                                 : English
# m( l1 T, a+ Z' _5 o1 v  {Service kind                             : Complete Main1 f+ |& ?4 b1 I2 D5 v' w/ w. X. @. ~4 z
Default                                  : Yes- {7 ?* h. W5 p" ?' l7 Z0 e
Forced                                   : No, a; _% U; y& p9 U# E* h" `
Text- s9 J2 ~+ r1 v1 s" |2 q+ u
ID                                       : 30 s6 d/ }. Q; R0 ~2 f& e
Format                                   : PGS" {( }! X' Z$ p& y+ c) ?. x+ q# s  g1 d
Muxing mode                              : zlib
+ M7 I3 z3 D& NCodec ID                                 : S_HDMV/PGS
( m  e  O+ Q9 F) w1 P2 SCodec ID/Info                            : Picture based subtitle format used on BDs/HD-DVDs3 j2 B. m) }! N. q9 y* U
Duration                                 : 2 h 11 min! N+ V; y7 U+ z  c# N3 \* ?
Bit rate                                 : 86.3 kb/s/ a/ t7 i! Q# ?% A8 L5 `
Count of elements                        : 5566
" `# k( O' u% k' M* \! I/ w9 I, m# j6 uStream size                              : 81.0 MiB (1%)7 @. ?$ b3 `7 l- n3 Q- U1 T% }- L
Language                                 : English
" R  Q: p2 s: O6 ^6 vDefault                                  : No
( q4 R+ b( r, D5 a! C. P: mForced                                   : No
+ t. U( [6 o$ ]  e+ bMenu" U2 r4 Y* m0 F) U2 I2 _8 G' [
00:00:00.000                             : en:Chapter 01
9 z( z8 H  X+ k00:09:49.214                             : en:Chapter 02' S4 ?2 J. k" d2 G  y
00:15:44.360                             : en:Chapter 03
0 V2 e- W3 `6 v$ N- Q0 u! J00:21:54.730                             : en:Chapter 04* ?9 y4 M7 ]$ T) N0 A$ `% v" ?
00:32:34.452                             : en:Chapter 05, H+ F# a' S1 [# K+ c( j
00:44:37.300                             : en:Chapter 061 j, v* G( X  L1 C
00:49:17.955                             : en:Chapter 07
3 p8 w. h: b7 y01:04:05.884                             : en:Chapter 08
9 q- o( i0 Q+ d6 M6 q& l" A8 d9 [01:13:27.987                             : en:Chapter 09
" m9 p  o0 E* F5 h01:24:40.075                             : en:Chapter 10
1 r1 V* C8 P0 x01:31:15.929                             : en:Chapter 11
$ e* D; g+ O  t# r01:41:26.789                             : en:Chapter 12
) Y+ p% \! q7 O6 E01:47:05.919                             : en:Chapter 13
# A9 @; }  `3 [) l3 w01:57:24.663                             : en:Chapter 14
1 h. \5 x" `: C' Y9 J: _02:00:09.077                             : en:Chapter 15
" b; h% q  j) j) Z  \% O/ n1 K02:04:36.135                             : en:Chapter 16# W3 k  ^% o/ X1 b( x

) D  O" s5 [, ?: w* ?" FMarriage.Story.2019.720p.BluRaycd.x264-YOL0W
) n$ C1 S9 f2 T3 Q8 D7 j0 F$ N; p) G
Date........: 2020/07/11
5 a+ `+ W0 }* lSource......: BluRay/ p" W- J5 A4 ~; ?0 }/ ]/ @* b
Runtime.....: 02:17:02.752; B+ C4 Z6 Y) r1 z: ?7 [

, f9 T3 M! F. W' B4 s+ I" PVideo.......: x264 @ CRF 19.5
+ T; U. F& C7 M3 ^# cResolution..: 1200x720 5:3
6 T3 z) z. O( x) RBitrate.....: 7533 Kb/s' k8 {0 w  r( F
FPS.........: 23.976
7 ^4 ]/ V  T, Q* D( }( lSource......: 28353 Kb/s$ E7 N$ D0 q/ I. y) r
' a; ~* M+ q% t
Audio.......: English AC3 5.1 640 kb/s% |: \; [4 {, E2 B- r
Subtitles...: English
' }+ L& L1 ^  ~Size........: 8027 MB/ A5 ]. y$ D% h
Link........: https://www.imdb.com/title/tt7653254/3 q, b' I5 E- A- t+ |6 v
Note........:
" g) R3 J# q6 I4 d- C+ j
游客,查看本帖隐藏内容请回复 | 加入VIP贵宾组可免积分免回复下载 立即了解 | 还不是会员:点击获取邀请码 Invitation Code

本版积分规则

小黑屋|Archiver|蓝光电影资源网

GMT+8, 2020-8-7 17:18

快速回复 返回顶部 返回列表