BluRayCD Forum

 找回密码
 立即注册【分享大片】

QQ登录

只需一步,快速开始

查看: 18|回复: 2
收起左侧

[科幻恐怖] 机器生活 Life Like 2019 1080p BluRaycd x264 DTS-HD MA 5.1-FGT 8.73GB & 8.17GB

[复制链接]

3719

主题

4088

帖子

3万

积分

Post Share

金币
6770 枚
体力
6143 点

卓越贡献勋章

mvods 发表于 2020-7-13 16:53:07 | 显示全部楼层 |阅读模式

. T: J, ]+ T4 ]/ t1 }) L
' w) X1 Z# ?. I, N% c+ z+ B◎译  名 机器生活, r5 N7 [, \. u4 Z
◎片  名 Life Like / Love Thy Keepers
! J( h4 r/ m8 C& s6 |! h( o◎年  代 20199 v* \  \% ~3 \* a5 I
◎产  地 美国+ u' E7 h1 J" A- B
◎类  别 科幻
' F5 i/ W  g$ `- u+ F/ }◎语  言 英语) H, I; F7 \1 R2 d$ o( C  v
◎上映日期 2019-05-14(美国), T$ h& i7 z/ z# {4 w$ h& m6 m' o
◎IMDb评分  5.4/10 from 1,257 users3 a8 i: v: A( P- s( E9 d
◎IMDb链接  https://www.imdb.com/title/tt6547786
$ C3 w, B& G2 u6 V* e: K◎豆瓣评分 6.0/10 from 956 users# L% v' j, S6 _4 C
◎豆瓣链接 https://movie.douban.com/subject/27098316/
, R* \9 e7 c  f  }2 Q- S◎片  长 1 h 35 min5 S" f+ |7 `7 {* _7 i0 l- a; A# W
◎导  演 乔什·加诺维茨 Josh Janowicz
* G! K6 v' `) J◎编  剧 乔什·加诺维茨 Josh Janowicz
9 s9 |0 }4 n  F+ r◎主  演 艾狄森·蒂姆林 Addison Timlin
$ O5 D) e8 d* R' v8 `       詹姆斯·达西 James D'Arcy
: [: T9 w7 h$ T       史蒂文·斯崔特 Steven Strait/ b$ L4 i8 S, ?+ s0 X1 ^  B
       德鲁·凡·阿克尔 Drew Van Acker
; I+ j+ c1 W/ \5 K       马克·法姆吉列蒂 Mark Famiglietti1 B2 ]- S" D3 n! O2 p' S% N$ S
       里桑·瓦伦丁 Lisann Valentin; j! w2 Z5 ~4 h, \4 k3 t5 J0 h/ \
       埃朗·米歇尔·蒙汉 Ellen Michelle Monohan
* t4 J1 i# e; K0 e       希拉里·巴拉福德 Hilary Barraford
9 v/ U7 I, ?1 }& s; w$ S( m" R' n& }       尼古拉斯·巴迪 Nicholas Baroudi
% h% @( M. x. s2 F; S3 u
' g* Z# Z% l8 N◎标  签 科幻 | 美国 | 同性 | 伦理 | 2019 | 主仆 | 剧情 | 人性
6 p# e: M8 H" n8 n9 D9 {' y# x  q* ?6 M. k! @7 M: C
◎简  介  & W; i3 r, X( R( {  V$ _
5 ?/ [  C1 ~" X: j  s6 n  J
  一对理想主义的年轻夫妇获得了一个逼真得令人惊叹的机器人,机器人的帮助使他们无忧无虑,但随着他们日渐亲近,他们对人性的感知将会改变。1 ~7 H( F& p3 c4 K1 T+ H& T
1 [8 f. u2 N" j/ {% `
  An idealistic, attractive young couple acquires a stunning, life-like robot for guilt-free help; but, as the three grow closer, their perception of humanity will be altered forever.
! w7 E& \' Q) _9 k0 w6 h
Video
' M; N' z" \9 PID                                       : 1
# ~) P+ w' g: v& j5 zFormat                                   : AVC% Q" M% L- u- z) n: @6 ]7 j
Format/Info                              : Advanced Video Codec
, v+ v' Z1 c+ v9 n8 e3 j) r, J0 n8 JFormat profile                           : High@L4.1
6 [. G& `0 q7 b/ g- b% VFormat settings                          : CABAC / 4 Ref Frames
. s, R. m+ X- f9 bFormat settings, CABAC                   : Yes
2 [9 L. B0 X, \) H! wFormat settings, Reference frames        : 4 frames) s" T. T- ~3 c8 B2 G7 Z/ `
Codec ID                                 : V_MPEG4/ISO/AVC
) D  f$ f% C0 q/ l5 r" HDuration                                 : 1 h 35 min# I- M) [- Z0 `1 I! B! F# i6 L. @
Bit rate                                 : 11.5 Mb/s
9 `9 u+ ~% _( l5 y! G0 CWidth                                    : 1 920 pixels
- z. r' \. `# t3 o  h" Q. SHeight                                   : 804 pixels
" g9 X/ J+ g5 A6 i# Q5 y. _, V* PDisplay aspect ratio                     : 2.40:1. o3 ]( Q* x) S
Frame rate mode                          : Constant
0 \7 c6 s6 I6 }5 _+ bFrame rate                               : 23.976 (24000/1001/37687) FPS
  l7 [* y( k" ~( E; M5 t  gColor space                              : YUV; R1 X$ [8 X, n' u
Chroma subsampling                       : 4:2:0
# s3 z  ]8 N5 {: v$ l$ OBit depth                                : 8 bits, C* B4 _9 I" h+ B( k$ e
Scan type                                : Progressive2 v# @% @  [( g3 t# C+ o% B
Bits/(Pixel*Frame)                       : 0.311
; ], O5 W2 @" S$ H0 e" ?Stream size                              : 7.66 GiB (88%)( X# o: |( |, h
Title                                    : Life.Like.2019.1080p.BluRayCD.x264.DTS-HD.MA.5.1-FGT1 G# I5 J9 J5 O% L, [  y
Writing library                          : x264 core 148 r2748 97eaef24 R" v3 i3 x8 u8 z8 @% N
Encoding settings                        : cabac=1 / ref=4 / deblock=1:-2:-2 / analyse=0x3:0x113 / me=umh / subme=9 / psy=1 / psy_rd=1.00:0.15 / mixed_ref=1 / me_range=16 / chroma_me=1 / trellis=2 / 8x8dct=1 / cqm=0 / deadzone=21,11 / fast_pskip=1 / chroma_qp_offset=-3 / threads=24 / lookahead_threads=3 / sliced_threads=0 / nr=0 / decimate=1 / interlaced=0 / bluray_compat=0 / constrained_intra=0 / bframes=3 / b_pyramid=2 / b_adapt=1 / b_bias=0 / direct=3 / weightb=1 / open_gop=0 / weightp=2 / keyint=250 / keyint_min=25 / scenecut=40 / intra_refresh=0 / rc_lookahead=50 / rc=2pass / mbtree=1 / bitrate=11500 / ratetol=1.0 / qcomp=0.60 / qpmin=0 / qpmax=69 / qpstep=4 / cplxblur=20.0 / qblur=0.5 / vbv_maxrate=31250 / vbv_bufsize=31250 / nal_hrd=none / filler=0 / ip_ratio=1.40 / aq=1:1.00
3 j0 W0 k3 q; W( S7 W6 E$ SLanguage                                 : English, v8 E" A1 Y" ^& G
Default                                  : Yes$ ~$ A& R& _: H! w5 l. T
Forced                                   : No9 I" V# Y! y) O: |) C
$ M9 H/ }/ s- L/ n
Audio
4 C! F0 b. n2 }8 l5 EID                                       : 2* B, h: A) K0 Z! G1 u$ c) b
ID in the original source medium         : 4353 (0x1101)1 V7 s3 O7 x& t
Format                                   : DTS XLL
7 {2 |1 T! r. @2 H. o" SFormat/Info                              : Digital Theater Systems
4 n& W! O" k2 M8 @5 e: A( ?Commercial name                          : DTS-HD Master Audio! \& t8 o0 x. F  [2 l( Q
Codec ID                                 : A_DTS
3 D9 u! U) Q6 H7 k( PDuration                                 : 1 h 35 min
. r7 z+ g4 ~5 z6 |5 Z  u$ eBit rate mode                            : Variable
: ~2 P6 n  A$ gBit rate                                 : 1 603 kb/s! p( `2 D3 r4 Z
Channel(s)                               : 6 channels
, p/ Z( K+ L3 ^( Z5 _/ DChannel layout                           : C L R Ls Rs LFE
+ Y+ y) v' J8 _# o* gSampling rate                            : 48.0 kHz
& Z; B+ f% [: vFrame rate                               : 93.750 FPS (512 SPF)
  z$ m+ E# l6 X- t* ^Bit depth                                : 16 bits. x. y; m( `# ~$ d; c7 C: A! ]
Compression mode                         : Lossless
) B0 o1 r. V7 uStream size                              : 1.07 GiB (12%): d3 E$ m. A, c5 P
Title                                    : Life.Like.2019.1080p.BluRaycd.x264.DTS-HD.MA.5.1-FGT
3 J9 i7 x% n& B" @: K: ZLanguage                                 : English
. g6 S) ?- J5 TDefault                                  : No* s% Z# q( T, f* p5 K
Forced                                   : No
+ l, m2 f4 e) D4 A2 xOriginal source medium                   : Blu-ray! `2 U+ @: ~9 A. v

4 ?" b+ e1 B1 |Text
; a  O& g3 y( DID                                       : 35 C# ^' P* S% E- t
Format                                   : UTF-8
4 u/ ~7 o5 y9 XCodec ID                                 : S_TEXT/UTF8  E+ j. p$ o: \, Y4 A
Codec ID/Info                            : UTF-8 Plain Text
8 n& u6 M, `( @$ d% {$ O6 [Duration                                 : 1 h 30 min
& {9 K) {$ R- N3 o5 OBit rate                                 : 50 b/s( [: t: T) X& h  [
Count of elements                        : 1081$ c9 A, }1 {6 L& c1 `4 Y5 F# u
Stream size                              : 34.0 KiB (0%)' t$ L6 i/ E$ G# d  ^7 O/ ~
Title                                    : English-SRT( @3 W  V- d" ?1 B8 s
Language                                 : English
8 k6 F) A$ ]. }. q; |7 bDefault                                  : Yes& b- ]2 j4 P( f' I4 C) Y2 S
Forced                                   : No
" i) P9 G' O$ C: X' D1 @+ C. W8 s5 |6 `: V+ w
Menu
2 D( l! R2 p: S. b9 m$ J4 c$ n00:00:00.000                             : en:Chapter 01% u  ?( v. O$ t9 ^7 b
00:07:04.006                             : en:Chapter 02
% `( R0 D% t# q6 r& P: y+ H00:13:03.282                             : en:Chapter 03
4 j* f* p5 w6 u: |# p5 r( j2 y* o( m8 E% a00:18:38.992                             : en:Chapter 04
$ A) X2 c0 l3 E3 `8 C00:25:44.125                             : en:Chapter 05
/ e% w; ^: A1 Y, Q) o8 f% ]. \" c00:31:16.749                             : en:Chapter 06
  ?, q. N3 ~& F, u. b2 V00:42:49.316                             : en:Chapter 07
4 _: J$ P( i5 b, ?$ `2 T, j00:52:55.213                             : en:Chapter 08
; l; ^. M( r  F+ `01:03:31.682                             : en:Chapter 09
/ u! O. M- E" W: _, `$ o9 i! @01:11:14.937                             : en:Chapter 103 b: F" T3 N: a$ ~1 |) |# i
01:20:22.734                             : en:Chapter 11- h3 n1 g& D$ I
01:30:36.806                             : en:Chapter 12
Video" ?& A$ X% Y/ x, x5 A
ID                                       : 19 U/ G/ k3 n( w) N
Format                                   : AVC
& u; f; D9 I: y' xFormat/Info                              : Advanced Video Codec
% e$ n. Z2 j& k; Z- r3 \Format profile                           : High@L4.1
* ?" X6 @; O, N1 VFormat settings                          : CABAC / 4 Ref Frames8 f  l7 q8 u3 i; G4 q4 ?3 T- H
Format settings, CABAC                   : Yes& G6 |3 X8 m) y# o  H
Format settings, Reference frames        : 4 frames: K  X( P3 Y, l0 ?: b
Codec ID                                 : V_MPEG4/ISO/AVC
0 w/ p- @% z( l) I: Z) b0 L+ q( E9 f8 ADuration                                 : 1 h 35 min* i3 S$ a& ~+ J& S
Bit rate                                 : 11.5 Mb/s  f' u$ f, B0 @- \! l& {- E
Width                                    : 1 920 pixels
3 ^$ m  Z7 Y& d% `: n; A/ kHeight                                   : 804 pixels
" V) E4 g7 \/ E/ k5 t) Y; d  s9 SDisplay aspect ratio                     : 2.40:1
8 ]8 c, j+ R: R2 ~Frame rate mode                          : Constant$ y9 M# \$ R; m8 _! K1 q
Frame rate                               : 23.976 (24000/1001/37687) FPS
# c8 l, o' t. H* B5 Z( r; SColor space                              : YUV
+ N+ N4 E. x+ w9 I' A! v0 LChroma subsampling                       : 4:2:0
/ I$ Q6 e6 @/ N2 IBit depth                                : 8 bits3 T  S7 }) j2 T" X# a. V
Scan type                                : Progressive
" x3 z0 j  O5 T4 u5 \+ lBits/(Pixel*Frame)                       : 0.3115 B& d8 j. R; V5 O/ g& l
Stream size                              : 7.66 GiB (94%)
. C, n# a( S+ V4 e8 _9 _0 y) Q2 pTitle                                    : Life.Like.2019.1080p.BluRaycd.x264.DTS-FGT6 ^$ n- g' J2 ^* P
Writing library                          : x264 core 148 r2748 97eaef20 N; d1 @" Y3 ]! C2 Q  @
Encoding settings                        : cabac=1 / ref=4 / deblock=1:-2:-2 / analyse=0x3:0x113 / me=umh / subme=9 / psy=1 / psy_rd=1.00:0.15 / mixed_ref=1 / me_range=16 / chroma_me=1 / trellis=2 / 8x8dct=1 / cqm=0 / deadzone=21,11 / fast_pskip=1 / chroma_qp_offset=-3 / threads=24 / lookahead_threads=3 / sliced_threads=0 / nr=0 / decimate=1 / interlaced=0 / bluray_compat=0 / constrained_intra=0 / bframes=3 / b_pyramid=2 / b_adapt=1 / b_bias=0 / direct=3 / weightb=1 / open_gop=0 / weightp=2 / keyint=250 / keyint_min=25 / scenecut=40 / intra_refresh=0 / rc_lookahead=50 / rc=2pass / mbtree=1 / bitrate=11500 / ratetol=1.0 / qcomp=0.60 / qpmin=0 / qpmax=69 / qpstep=4 / cplxblur=20.0 / qblur=0.5 / vbv_maxrate=31250 / vbv_bufsize=31250 / nal_hrd=none / filler=0 / ip_ratio=1.40 / aq=1:1.00
" ^4 J" H; l& i* k  XLanguage                                 : English$ b) m9 y+ V0 A
Default                                  : Yes# X; ]! n+ i% D, I% a
Forced                                   : No6 R& p% ^( Z' m$ ^. o) W8 p

) H2 B, i0 K! ^8 m, NAudio
" _2 Q( l& C" z; d5 r; C$ g% u3 RID                                       : 2
0 v+ f, E6 I6 N# h) T6 B. U; S2 qFormat                                   : DTS+ t- G( H% g6 d& a1 C2 o
Format/Info                              : Digital Theater Systems
1 G. g3 e- q- G! ?+ O& KCodec ID                                 : A_DTS7 A4 E7 E6 K5 G3 E$ ]5 E: D
Duration                                 : 1 h 35 min
+ @5 b* M% v5 \Bit rate mode                            : Constant
5 z3 ]8 |6 h$ ]* z9 W( g: z+ KBit rate                                 : 768 kb/s+ l" c5 u5 Z+ B3 P& I4 }& r* u5 s4 v
Channel(s)                               : 6 channels
* f' c* c+ s* r7 t7 rChannel layout                           : C L R Ls Rs LFE% r( m$ R' W; G, m) j, m5 j( `! S
Sampling rate                            : 48.0 kHz% F- P0 q; O4 d! B
Frame rate                               : 93.750 FPS (512 SPF)6 h% d5 l: w( Q6 `
Bit depth                                : 16 bits7 d8 F  [8 c; K5 `8 J( [
Compression mode                         : Lossy+ v, ?* _! c; N( F( r9 C
Stream size                              : 524 MiB (6%)
$ `  D- N2 A, q( h6 F3 iTitle                                    : Life.Like.2019.1080p.BluRaycd.x264.DTS-FGT
: H8 N& M$ a+ V* G% ^Language                                 : English
; ]' w- p) {8 W. Z5 RDefault                                  : Yes/ f( f1 Q4 E2 s+ m* a% Z( j
Forced                                   : No
/ [# ~3 G/ G' E, [
8 D' {4 X' ]( Q1 u' ?0 s7 [& vText- o5 C5 T' o( Q2 ]9 x
ID                                       : 3
. g: `* b; _" J+ _- aFormat                                   : UTF-8" h. C" J) P: P1 A. e* i* b# Q
Codec ID                                 : S_TEXT/UTF8
3 l. |/ O; O; dCodec ID/Info                            : UTF-8 Plain Text
' b! g1 Z) @' v; ^7 {: E% dDuration                                 : 1 h 30 min
, X" i1 A. Q) p+ \* wBit rate                                 : 50 b/s
" s7 Q* o5 h# BCount of elements                        : 1081
$ k5 B* g. U5 C4 `# mStream size                              : 34.0 KiB (0%)
: j# d6 T( P- F9 X, C) LLanguage                                 : English( s* ?/ c: I$ n, d! \: B. C3 W
Default                                  : Yes2 H, r  z- s1 Q/ m' Q
Forced                                   : No5 f$ H5 z; c1 `6 e4 w
! y3 w; q/ B' Z) G( F6 [  t
Menu
  r  l, J. b; U- K! t8 m00:00:00.000                             : en:Chapter 01
: G! V, a. x  P" A00:07:04.006                             : en:Chapter 02
$ \% k/ s8 M  X00:13:03.282                             : en:Chapter 03
& i2 t- L) K' X! L00:18:38.992                             : en:Chapter 04
8 K0 s8 a+ M2 M& c7 x2 v0 ]- c# W00:25:44.125                             : en:Chapter 05
7 V! A1 G1 g) l/ \  L  B, ^00:31:16.749                             : en:Chapter 06. I8 r5 U  [$ K
00:42:49.316                             : en:Chapter 07# i$ R& [; w1 T# `
00:52:55.213                             : en:Chapter 08) p  ^3 E0 D% z7 x4 ^- v. J: B
01:03:31.682                             : en:Chapter 09
! H3 G: L# Y0 {: J* E: q01:11:14.937                             : en:Chapter 10
1 m% u( s3 m- i: {/ H01:20:22.734                             : en:Chapter 11& M+ \: g& S( Z# j, T- {  i, ]. Q
01:30:36.806                             : en:Chapter 12
$ t! [1 m( U: }# Q# c
游客,查看本帖隐藏内容请回复 | 加入VIP贵宾组可免积分免回复下载 立即了解 | 还不是会员:点击获取邀请码 Invitation Code

560

主题

1816

帖子

1万

积分

VIP advanced

金币
1467 枚
体力
4112 点

公主勋章卓越贡献勋章

21cn 发表于 2020-7-14 01:43:42 | 显示全部楼层
楼主发贴辛苦了,I*老*虎*U!9 _5 C' z7 B0 I/ n
bluraycd forum, a lot of Blu-ray movies!
+ Z( `5 Z$ O6 q; m6 Z

35

主题

1204

帖子

4264

积分

Sponsor

金币
219 枚
体力
1610 点
lanpanshuma 发表于 2020-7-14 09:07:37 | 显示全部楼层
每天都来蓝光论坛看看,我爱蓝光电影。+ D, X$ ]" s) V2 t% j0 l4 a: r
I love your Blu-ray movies Forum!
$ G1 N$ {# {; ^/ l9 m# s
该会员没有 ...

本版积分规则

小黑屋|Archiver|蓝光电影资源网

GMT+8, 2020-8-7 17:41

快速回复 返回顶部 返回列表