BluRayCD Forum

 找回密码
 立即注册【分享大片】

QQ登录

只需一步,快速开始

查看: 10|回复: 0
收起左侧

[科幻恐怖] 机器生活 Life Like 2019 720p BluRaycd x264 DTS-FGT 4.18GB

[复制链接]

3719

主题

4088

帖子

3万

积分

Post Share

金币
6770 枚
体力
6143 点

卓越贡献勋章

mvods 发表于 2020-7-13 17:00:41 | 显示全部楼层 |阅读模式
01.jpg : {5 ?6 r5 |5 P( q# G0 g
2 m; i- O. U1 x. w: |7 Q$ K
◎译  名 机器生活
, B1 h* P/ P, Y& V8 @0 V◎片  名 Life Like / Love Thy Keepers7 U* W' n! L. _/ F: D, ~( U
◎年  代 2019  V6 w9 h- o: s1 R& d- D" k
◎产  地 美国
0 f% V7 }/ w2 f( g5 c  q0 L$ r◎类  别 科幻2 Y3 m7 Q1 d$ b# F0 y& o
◎语  言 英语1 M# c% _8 M6 h! o) c
◎上映日期 2019-05-14(美国)
% \& m8 W8 N- z) C◎IMDb评分  5.4/10 from 1,257 users. Q$ P  ^7 P  I. _  M
◎IMDb链接  https://www.imdb.com/title/tt6547786
7 f) M1 v( T* r- j7 _9 M  U◎豆瓣评分 6.0/10 from 956 users
- P  f5 w* E/ C. @+ i- Y" W/ K◎豆瓣链接 https://movie.douban.com/subject/27098316/5 a; R- U' T5 X% F
◎片  长 1 h 35 min
  m6 s# ^. `4 ]% L2 P: D◎导  演 乔什·加诺维茨 Josh Janowicz
: ?. n5 h6 _0 y; l◎编  剧 乔什·加诺维茨 Josh Janowicz
  r6 P& X: s/ ~6 o# v◎主  演 艾狄森·蒂姆林 Addison Timlin
2 ^5 z+ f& D$ {+ d       詹姆斯·达西 James D'Arcy+ Y- c" d3 x* m; ~2 t' V8 L
       史蒂文·斯崔特 Steven Strait8 p, Q7 ]! U/ g
       德鲁·凡·阿克尔 Drew Van Acker3 @' p# l4 v# H2 k
       马克·法姆吉列蒂 Mark Famiglietti
4 @, u3 Z# [5 i: W  i) ^$ y$ S       里桑·瓦伦丁 Lisann Valentin
) w* \" c! g% x: Z       埃朗·米歇尔·蒙汉 Ellen Michelle Monohan
6 E5 s7 F$ p: T$ {& d5 ~       希拉里·巴拉福德 Hilary Barraford
8 l6 [' C* |0 }, s7 ^       尼古拉斯·巴迪 Nicholas Baroudi* P0 @: i; z7 @3 s' X) \2 S: i
, X4 L& m0 ?+ E' y+ E/ R
◎标  签 科幻 | 美国 | 同性 | 伦理 | 2019 | 主仆 | 剧情 | 人性
5 Y' V2 ~7 c/ Y) N+ I% m1 ?9 r
* G" a" E1 M3 U8 @, h◎简  介  . f& a- [/ a8 t/ O# M, p  m
! b2 w0 b6 v$ \
  一对理想主义的年轻夫妇获得了一个逼真得令人惊叹的机器人,机器人的帮助使他们无忧无虑,但随着他们日渐亲近,他们对人性的感知将会改变。
4 D+ M. B; A4 i8 n& w( R# R
Video& l1 h4 e4 J; D* U- G  X4 p) c
ID                                       : 1( r8 e+ @5 S$ J
Format                                   : AVC
1 S  ?. ^6 K- C0 w, K$ uFormat/Info                              : Advanced Video Codec
# ^) L, g' z* w0 X. sFormat profile                           : High@L4.1
2 v- p, b; l- p3 b4 W; yFormat settings                          : CABAC / 4 Ref Frames% m6 t6 X2 p6 ?, D% r
Format settings, CABAC                   : Yes
- g" u6 P1 B/ B' O6 HFormat settings, Reference frames        : 4 frames
) h1 ~9 ^/ [4 Q. g7 F5 }: jCodec ID                                 : V_MPEG4/ISO/AVC
7 N* y; p8 m+ u# nDuration                                 : 1 h 35 min
$ v4 D- F$ l2 ~/ t: [Bit rate                                 : 5 500 kb/s
, x' G) ]: e4 q# P  g* M$ AWidth                                    : 1 280 pixels. K' h7 [  L; d: M( N  w
Height                                   : 536 pixels
! T9 ]0 Q" g" z* Y" x7 l6 Y2 eDisplay aspect ratio                     : 2.40:1
. V/ B! h/ W, |5 Z" K- {: SFrame rate mode                          : Constant( C$ Y1 v5 z6 L7 d" l: G. B
Frame rate                               : 23.976 (24000/1001/37687) FPS
/ d2 n5 b, I. N0 }) j  O& UColor space                              : YUV" y, z4 W( O- f- f, j
Chroma subsampling                       : 4:2:0# V1 I' O9 @1 ^$ Y7 [
Bit depth                                : 8 bits
5 I3 \& {1 e$ {. X4 v6 YScan type                                : Progressive
8 A+ _: S$ E' W8 A% L& sBits/(Pixel*Frame)                       : 0.334
* A; d2 n# q& ]$ Y/ F- o! dStream size                              : 3.66 GiB (88%)& i  Y' D: y! u
Title                                    : Life.Like.2019.720p.BluRayCD.x264.DTS-FGT5 W! @5 ^+ ~8 N* I
Writing library                          : x264 core 148 r2748 97eaef2+ z6 E3 m$ J, Y. z; H
Encoding settings                        : cabac=1 / ref=4 / deblock=1:-2:-2 / analyse=0x3:0x113 / me=umh / subme=9 / psy=1 / psy_rd=1.00:0.15 / mixed_ref=1 / me_range=16 / chroma_me=1 / trellis=2 / 8x8dct=1 / cqm=0 / deadzone=21,11 / fast_pskip=1 / chroma_qp_offset=-3 / threads=24 / lookahead_threads=3 / sliced_threads=0 / nr=0 / decimate=1 / interlaced=0 / bluray_compat=0 / constrained_intra=0 / bframes=3 / b_pyramid=2 / b_adapt=1 / b_bias=0 / direct=3 / weightb=1 / open_gop=0 / weightp=2 / keyint=250 / keyint_min=25 / scenecut=40 / intra_refresh=0 / rc_lookahead=50 / rc=2pass / mbtree=1 / bitrate=5500 / ratetol=1.0 / qcomp=0.60 / qpmin=0 / qpmax=69 / qpstep=4 / cplxblur=20.0 / qblur=0.5 / vbv_maxrate=31250 / vbv_bufsize=31250 / nal_hrd=none / filler=0 / ip_ratio=1.40 / aq=1:1.004 i  P# v  o, p& N+ A
Language                                 : English. m, D; \* E  n$ G  o# B# G
Default                                  : Yes
  J& _$ Z, p. lForced                                   : No
  _6 x8 Z8 o/ m. X) Z3 _& q. T# g1 l) c* Z. h
Audio% A. S) {2 B! a. ^# N0 J
ID                                       : 2
* ~5 C- Z, K  b, m9 S9 s% xFormat                                   : DTS
, }( `. o% p8 J7 Q4 o) q+ ?Format/Info                              : Digital Theater Systems
) O% V* d! H) ^6 KCodec ID                                 : A_DTS
* r* K' Z7 s, ^/ E, m. l$ eDuration                                 : 1 h 35 min2 Q$ ~% B) k, b+ ^4 g. M( n
Bit rate mode                            : Constant
8 v& r. K! i- `5 E# o- r: Z; ?$ \) eBit rate                                 : 768 kb/s
2 w# i: y4 W) L1 [Channel(s)                               : 6 channels7 O" y) d( a. n# ?3 D: ?) j
Channel layout                           : C L R Ls Rs LFE" j( \, c& Y! P1 l; f
Sampling rate                            : 48.0 kHz
9 K% {- W8 o. Q- iFrame rate                               : 93.750 FPS (512 SPF)
5 N6 r7 A  R) e# `Bit depth                                : 16 bits: x4 h/ i* A- R  Q0 p4 w- s# N
Compression mode                         : Lossy
; U8 L1 A4 ?. SStream size                              : 524 MiB (12%)) _7 q& T+ m9 u2 ]% P7 X9 ]
Title                                    : Life.Like.2019.720p.BluRaycd.x264.DTS-FGT" H. ~( `' A" a: O4 w7 g% [
Language                                 : English1 J6 @, ]7 `2 Y
Default                                  : Yes
4 _  Z% T. `  c/ I" n0 _( ~- H: OForced                                   : No
+ G7 y: ?  b2 [# m  k: V6 k! W0 j+ k6 ?% V) T! `2 k
Text  t+ x( A3 o& Q( G
ID                                       : 3! A: |* _  R  r6 i
Format                                   : UTF-8! ~% Z. j" i' P1 l+ R
Codec ID                                 : S_TEXT/UTF8
8 w$ s$ k( R& F! e7 VCodec ID/Info                            : UTF-8 Plain Text
1 n- S+ R" Y/ l4 LDuration                                 : 1 h 30 min
6 L! G) P2 ], j' [) p. HBit rate                                 : 50 b/s
% D1 g6 f7 W; V' SCount of elements                        : 1081& N; t- \4 T! |
Stream size                              : 34.0 KiB (0%)+ J1 B9 i& O9 Z6 x$ W9 |3 t. i
Language                                 : English* d' k1 D+ z; ?& ^
Default                                  : Yes
& y6 U. I/ V& r0 I7 X) ^* [Forced                                   : No
' R! |" u* p. X$ U' X2 G  M( {2 f# `$ n; ^
Menu
9 Z. V- }( U- h  [1 ~00:00:00.000                             : en:Chapter 01& L9 G2 q. @9 }7 o) B3 Z8 m
00:07:04.006                             : en:Chapter 024 P6 ?  \5 W$ B) c( m, d8 r6 t
00:13:03.282                             : en:Chapter 03. L, F; t& v9 h. S( ^
00:18:38.992                             : en:Chapter 04; P' N( D4 h8 @
00:25:44.125                             : en:Chapter 05
6 A3 _7 Y. ?- a$ \00:31:16.749                             : en:Chapter 06# F% ^6 n2 j! t$ w' o; o+ D/ x  L
00:42:49.316                             : en:Chapter 07
7 [6 |* A6 m0 n00:52:55.213                             : en:Chapter 08' Q) C* m( h9 ^& M! I  v, I- e2 h
01:03:31.682                             : en:Chapter 09* ?, i# Z8 T& ]1 V- @) I- X
01:11:14.937                             : en:Chapter 10
- D* U: C* B6 ~- Z6 C' n3 Y01:20:22.734                             : en:Chapter 11
7 G, }9 w1 f; O! n01:30:36.806                             : en:Chapter 12

6 `+ B/ \4 g& S+ \
6 b, m# Q) G3 ]9 R' @$ L2 E) ~4 V; N* E$ I
游客,查看本帖隐藏内容请回复 | 加入VIP贵宾组可免积分免回复下载 立即了解 | 还不是会员:点击获取邀请码 Invitation Code

本版积分规则

小黑屋|Archiver|蓝光电影资源网

GMT+8, 2020-8-7 17:20

快速回复 返回顶部 返回列表