BluRayCD Forum

 找回密码
 立即注册【分享大片】

QQ登录

只需一步,快速开始

查看: 112|回复: 7
收起左侧

[4K极清电影] 登陆日,诺曼底1944 [4K REMUX无损版] D-Day Normandy 1944 2014 DOCU 2160p BluRaycd REMUX HEVC DTS-HD MA 5.1-FGT 18.47GB

[复制链接]

4421

主题

4587

帖子

5万

积分

Post Share

金币
8323 枚
体力
16432 点

卓越贡献勋章

黄金嫖客 发表于 2020-7-20 03:58:40 | 显示全部楼层 |阅读模式
Allied forces invade Normandy on June 6, 1944.4 [+ ~6 j* s# ~

9 W7 B: F, M% p# E 01.jpg
! x) G) `" }* o: W/ n1 R. t9 I$ J$ P3 R# {5 s& i9 m
◎译  名 登陆日,诺曼底1944 , {" l5 Y, B4 v; |0 r) l' p; b0 M
◎片  名 D-Day, Normandie 19441 L$ W# g8 L; e' D- u
◎年  代 2014
% t4 D% F6 ~$ [0 D8 c$ v◎产  地 法国# |# F; g& p$ ^6 t; Z+ v
◎类  别 纪录片
! m/ p( ]* Q. \6 N+ ?- f2 P7 q◎语  言 法语, k* \$ b4 H0 c' U. |
◎上映日期 2014-04-02(法国)
0 R2 f1 W. p5 s- Q: a◎IMDb评分  7.4/10 from 122 users
' {+ ^1 ^5 e- X◎IMDb链接  https://www.imdb.com/title/tt3635920/# V/ M/ V" L+ j
◎豆瓣评分 0/10 from 0 users9 w6 p. q1 k% ]
◎豆瓣链接 https://movie.douban.com/subject/25907990/8 I+ g( u1 }& S' E4 w( u" Q
◎文件格式 x265 + DTS8 n( @  y  j- C7 Y6 Q) b. l7 ^
◎视频尺寸 3840 x 2160
0 ^" H6 m  r0 o2 M) P( K7 j/ N" A◎文件大小 1DVD 18.47 GiB
. C$ N5 q6 R0 Y◎片  长 42 min 56 s
+ J7 w9 `" M! @( a: j" p* p/ Y7 r. ?◎导  演 Pascal Vuong' C" ?3 s* `  e+ q" y9 _1 _
◎编  剧 Pascal Vuong- M3 g6 R  j$ }
◎主  演 Tom Brokaw
* _! q; K0 ~7 k       François Cluzet
6 k( |  }- A# f3 c% s, I7 U: M4 Y       Glynis Loizeau
+ ?5 F4 o. M4 @
$ k2 i# F: @# w8 E) E* @6 ?◎标  签 2014 | 紀錄片 | 法国 | UHD | PascalVuong | IMAX2 A. u$ a/ w3 ]# z5 p

/ y- t! _3 k  R- m" M◎简  介  
7 B& j" s5 t& ]( N# `# K: ^/ p" C4 ?$ {9 l: y6 y/ I3 `
  诺曼底1944年诺曼底登陆日是专门为纪念重叠行动而制作的,也就是众所周知的“诺曼底登陆日”或“登陆诺曼底登陆日”。1944年6月6日,在诺曼底海滩盟军登陆70周年之际,这部电影在全球播出。0 g0 x3 I0 Z* t8 X& b$ M- D
9 g2 ^6 _3 `5 i# m0 @
  June 6, 1944: The largest Allied operation of World War II began in Normandy, France. Yet, few know in detail exactly why and how, from the end of 1943 through August 1944, this region became the most important location in the world. Blending multiple cinematographic techniques, D-Day 3D: Normandy 1944 brings this monumental event to the world’s largest screens for the first time. Narrated by Tom Brokaw, D-Day 3D: Normandy 1944 pays tribute to those who gave their lives for our freedom… A duty of memory, a duty of gratitude.+ ?8 U7 y8 H  h3 T$ n2 a
) y9 R% j8 j2 e$ H
  D-Day, Normandie 1944 a été spécialement réalisé pour les commémorations rendant hommage à l'opération "Overlord" autrement connue sous le nom de "D-Day" ou "Jour-J". Le fim est diffusé mondialement à l'occasion du 70e anniversaire du Débarquement Allié qui eut lieu sur les plages de Normandie le 6 juin 1944.
' H, k7 k& V+ S
  b" |: R+ P7 p# v
Video
& ?; T9 U( |7 A+ w' t) Q% A( v$ ~ID                                       : 1( M3 s2 x. q7 I! T" }2 O# o
ID in the original source medium         : 4113 (0x1011)
, b  v8 `" Q7 H" k! S. PFormat                                   : HEVC: B4 w( R" F9 q8 a
Format/Info                              : High Efficiency Video Coding
. ^  ^7 n: |# o# ^  l5 }/ F' VFormat profile                           : Main 10@L5.1@High
8 K3 C( r( u; ^9 v8 {Codec ID                                 : V_MPEGH/ISO/HEVC
* _5 C& h: P2 [+ ]Duration                                 : 42 min 56 s
9 q) Y1 u/ O! j. ^' ?2 \+ ~" `Bit rate                                 : 53.9 Mb/s
$ Q0 L, X5 J9 x8 i( kWidth                                    : 3 840 pixels
6 L! Y& K2 z4 ?' D" A5 B1 rHeight                                   : 2 160 pixels
* t: Q! m9 ~  b- cDisplay aspect ratio                     : 16:9, ^5 d0 z' f. P, ?
Frame rate mode                          : Constant
8 g4 \; l2 w  X3 ^Frame rate                               : 24.000 FPS& A% j: u/ [8 \: G
Color space                              : YUV
, x5 K/ x! ~) y1 oChroma subsampling                       : 4:2:0 (Type 2)  S- F1 N4 A3 n- F: E
Bit depth                                : 10 bits* ?3 T- U$ P3 |6 P2 N4 q
Bits/(Pixel*Frame)                       : 0.271
# ~8 |% M7 p+ J7 C' Z7 S+ o' [$ h7 pStream size                              : 16.2 GiB (87%)0 R; g0 \6 J. R  z
Title                                    : D-Day.Normandy.1944.2014.DOCU.2160p.BluRayCD.REMUX.HEVC.DTS-HD.MA.5.1-FGT4 L" @0 k2 |; z- ~. C1 L( f
Language                                 : English
: Q) T; c4 Q" ^) z( N+ cDefault                                  : No) b4 [$ j! Y5 q) `
Forced                                   : No$ s3 k; w' q/ ^$ U- `9 y! o
Color range                              : Limited0 g4 e% p! h2 H: o) w
Color primaries                          : BT.20204 h" q' t6 F7 e6 o! C) s+ U# `
Transfer characteristics                 : PQ" t  K  e  y5 m- ]
Matrix coefficients                      : BT.2020 non-constant
# E( L4 y: ?  V* u+ A5 [Original source medium                   : Blu-ray
5 i; X& X7 f$ x6 N+ \8 o7 K# ]8 `3 {& x
! Z7 D6 G6 |& T; Q$ AAudio #1
9 ?5 a- ]6 O. U6 m) RID                                       : 2
* ?/ g' b5 R' L( k9 VID in the original source medium         : 4352 (0x1100)% _; N5 x# H/ C: d
Format                                   : DTS XLL- a: q1 V- r' [5 x7 H* Z+ [
Format/Info                              : Digital Theater Systems
, y5 [8 b8 `5 OCommercial name                          : DTS-HD Master Audio6 z  e+ ]+ ]/ Y$ G: H
Codec ID                                 : A_DTS0 b" I' Y8 J! _* p8 ?7 K' b
Duration                                 : 42 min 56 s# D: h  E0 I" t' w" X
Bit rate mode                            : Variable: F7 N$ I" {7 d4 W' q, H
Bit rate                                 : 3 860 kb/s
4 ?8 e5 ^, ?+ I5 r* r& S6 WChannel(s)                               : 6 channels; W4 ]5 J9 R; H; P- b( G
Channel layout                           : C L R Ls Rs LFE5 Y6 L- T1 z3 T- U. t! c! ~
Sampling rate                            : 48.0 kHz1 P% g) ~5 x3 C! b& J/ Z
Frame rate                               : 93.750 FPS (512 SPF)$ [  O5 ?+ Q2 [7 S
Bit depth                                : 24 bits
) I! B6 n$ s& x  p6 t* G# H7 PCompression mode                         : Lossless
9 y' b+ Y: _* a* I+ H& LStream size                              : 1.16 GiB (6%)) {- ]6 g: V& f' [  z+ }" l
Title                                    : D-Day.Normandy.1944.2014.DOCU.2160p.BluRaycd.REMUX.HEVC.DTS-HD.MA.5.1-FGT7 I% }( F. T- M+ x, \. S
Language                                 : English
% ]5 m( F. M/ S, V" J6 W! F3 F2 cDefault                                  : Yes
/ C, e: U. X" `# F1 p1 K: u2 c4 mForced                                   : No5 x3 e  A9 M( e5 V7 t+ U1 l
Original source medium                   : Blu-ray; r, v7 w" j' u& U! \5 h+ r
5 F/ t( I5 u/ u) B, \' k+ c% m3 r
Audio #22 a3 i; X1 I1 q0 D5 }
ID                                       : 3
9 |  r  Z' r7 h% H) [( ~; fID in the original source medium         : 4353 (0x1101)
2 _2 W3 u2 U1 vFormat                                   : DTS XLL: y( a6 q5 H0 O/ G0 D( K" c. V
Format/Info                              : Digital Theater Systems
2 A# L; v5 p- p: z, iCommercial name                          : DTS-HD Master Audio
9 R1 m/ @! J5 q, k5 k) P/ @Codec ID                                 : A_DTS* |8 W, ]/ P# z  n; y( i; w9 }
Duration                                 : 42 min 56 s0 G) _6 H% P+ E7 n. [! {
Bit rate mode                            : Variable- p- r, C4 Y1 i  p2 O) ?) a2 s1 B
Bit rate                                 : 3 854 kb/s0 j& C+ P( ]$ x7 }: t
Channel(s)                               : 6 channels7 ]9 L+ T  Y& C- n4 I: N- w! T7 |
Channel layout                           : C L R Ls Rs LFE
8 M- z; S$ p' _Sampling rate                            : 48.0 kHz
$ j9 U+ r( a# h+ W* p$ m. J9 @1 V7 NFrame rate                               : 93.750 FPS (512 SPF)% P5 j2 ?. I- G* J5 l
Bit depth                                : 24 bits: _0 ^3 L1 |  M
Compression mode                         : Lossless4 N8 j$ m: \5 a6 [% b  g/ h5 x7 A
Stream size                              : 1.16 GiB (6%)$ Y7 R7 s, u7 |: ?$ }7 f, g# }
Title                                    : D-Day.Normandy.1944.2014.DOCU.2160p.BluRaycd.REMUX.HEVC.DTS-HD.MA.5.1-FGT
' S8 S' M3 H) F) D- B7 }0 U# MLanguage                                 : French
; G& ?: X7 L: X4 s$ ]! j6 QDefault                                  : No
5 Y6 c+ {) v+ w/ b. u3 v% DForced                                   : No. l* H' G2 m% U* d0 ^  n; N+ @8 I
Original source medium                   : Blu-ray% |& a" ]* L- O* a

8 s6 l: [" o$ |2 f2 I4 E; WText #1
. W- g8 ~7 j. _6 `ID                                       : 4% g% o  s; C2 V9 I6 M! r
Format                                   : UTF-8
9 W' d3 ^0 J0 H! W4 y" u" ]: jCodec ID                                 : S_TEXT/UTF8
0 @  U1 |1 }( R4 hCodec ID/Info                            : UTF-8 Plain Text
6 [8 w! U, H) X8 J8 y/ Q' v( mDuration                                 : 42 min 11 s
% x7 q! u+ i/ ABit rate                                 : 74 b/s' j) P* `" @! t3 f1 N. a  P
Count of elements                        : 709; G( w! w' Q; K) u9 z4 z) [. m! G
Stream size                              : 22.9 KiB (0%)
  ]: B( @1 Y) l& ]/ Z+ O+ ]8 e' iTitle                                    : English-SRT, C  A, d$ u8 z/ k  m
Language                                 : English) z  ^8 L/ x. V- S/ u' }
Default                                  : Yes% |; P4 Z* Z$ _  J( M
Forced                                   : No! U6 n. K2 {6 I
; R/ c8 E6 N4 }0 w
Text #2( @9 O5 ~9 d' `8 g. T, S; k- D$ S. ^
ID                                       : 5
' s1 d+ v) ^7 Q: j& T2 l( X9 ^ID in the original source medium         : 4768 (0x12A0)& F4 |9 T( u; ]6 ~- o" x8 Q
Format                                   : PGS1 R4 u9 U! `: F
Muxing mode                              : zlib
! Y. v, U0 v: ~0 I! _2 }# G" [Codec ID                                 : S_HDMV/PGS' y5 \+ L- V' _  j% @" Z* a; O" o5 `
Codec ID/Info                            : Picture based subtitle format used on BDs/HD-DVDs
2 B* A8 p6 H* T: O& J* W% RDuration                                 : 42 min 19 s4 [! ]$ |& `" K
Bit rate                                 : 34.1 kb/s  `3 G$ ?$ s. U' j
Count of elements                        : 1524
9 O, n2 C# c9 ~( k- x7 oStream size                              : 10.3 MiB (0%)0 _0 O  l% G5 G
Title                                    : English-PGS  z! s, U4 d1 D# u
Language                                 : English
2 l1 J  j( [2 y  s+ Q! RDefault                                  : No
; v2 V1 \! ^' y0 H! HForced                                   : No6 {2 j4 {' j9 G& e: `
Original source medium                   : Blu-ray) k% N! ^3 c% a/ c( A
8 }9 }& g7 H; k" @- B8 w- u6 v& W
Menu3 T) M+ F$ w' `! k, m- j6 m# ]
00:00:00.000                             : en:Chapter 014 B9 T$ K8 Y! b1 g" |+ e8 K' g
00:04:41.958                             : en:Chapter 02
/ u; d, ]- A: W" e+ Q00:06:45.625                             : en:Chapter 03
  z6 u! M% w, i  R1 f7 W00:09:00.083                             : en:Chapter 04
( m  b7 ~9 E) i  i  Z- A00:11:09.000                             : en:Chapter 05
; F" Z3 u9 Y4 E( k4 w) P00:16:05.375                             : en:Chapter 06
" V5 L8 a: T0 O7 L3 s' I* M00:20:13.000                             : en:Chapter 076 |# z/ A. T; K( Q& m% b
00:23:23.416                             : en:Chapter 08
1 R& J' g; y. ?; D$ P& \00:26:18.583                             : en:Chapter 09
( k: l7 T$ O9 t& L. a00:28:59.500                             : en:Chapter 10
% _, m" |2 U& c/ `00:34:46.041                             : en:Chapter 11
1 w2 m2 v* X2 a; E  ~00:40:27.000                             : en:Chapter 12

3 N( S2 t: `; z5 u0 s4 U% S2 v) {& W
游客,查看本帖隐藏内容请回复 | 加入VIP贵宾组可免积分免回复下载 立即了解 | 还不是会员:点击获取邀请码 Invitation Code

39

主题

1217

帖子

4338

积分

Sponsor

金币
231 枚
体力
1632 点
lanpanshuma 发表于 2020-7-20 06:57:26 | 显示全部楼层
Bluraycd又有新电影发布了,激动中……!3 |! ]) r5 o6 @* k, q  ?' v8 P+ t
Not see, I am a novice, the inadequacies of the first Please bear with me!: C% M4 O+ T+ S, m! b
该会员没有 ...

0

主题

325

帖子

1696

积分

Sponsor

金币
75 枚
体力
987 点
zt6895 发表于 2020-7-20 09:53:40 | 显示全部楼层
膜拜神人,后来者请保持队列……!
6 C7 f' i" P/ b$ xNot see, I am a novice, the inadequacies of the first Please bear with me!; j( S" Q* I% c0 D4 X: S

560

主题

1817

帖子

1万

积分

VIP advanced

金币
1471 枚
体力
4122 点

公主勋章卓越贡献勋章

21cn 发表于 2020-7-20 15:58:40 | 显示全部楼层
啥也不说了,楼主就是给力!
: z6 y; y6 H6 D7 ?I love your Blu-ray movies Forum!+ V7 G- \. j2 Y0 R

0

主题

9

帖子

192

积分

Sponsor

金币
156 枚
体力
14 点
shj6 发表于 2020-7-25 10:58:28 | 显示全部楼层
每天都来蓝光论坛看看,我爱蓝光电影。
( r& |, U& X' |/ R, TIn fact, I have always felt that the landlord of good taste! Ha ha!/ W) p! S& u( r) r% a$ c

4

主题

132

帖子

812

积分

Sponsor

金币
171 枚
体力
404 点
QQ
hellangelcx 发表于 2020-7-26 13:27:22 | 显示全部楼层
每天都来蓝光论坛看看,我爱蓝光电影。1 `. H6 P: H, _
I love your Blu-ray movies Forum!
8 Y/ w' [3 l2 ?9 ~# u+ v/ }
蓝光论坛里 ...

8

主题

105

帖子

761

积分

Sponsor

金币
259 枚
体力
308 点
jmlove008 发表于 2020-7-30 16:15:01 | 显示全部楼层
每天都来蓝光论坛看看,我爱蓝光电影。5 Z3 _3 c# X: t
bluraycd forum, a lot of Blu-ray movies!) @& {% c5 s) [* J: \. G; e

0

主题

410

帖子

1612

积分

Sponsor

金币
0 枚
体力
814 点
QQ
neilwang1982 发表于 5 天前 | 显示全部楼层
有点意思,下来看看

本版积分规则

小黑屋|Archiver|蓝光电影资源网

GMT+8, 2020-8-9 14:12

快速回复 返回顶部 返回列表