BluRayCD Forum

 找回密码
 立即注册【分享大片】

QQ登录

只需一步,快速开始

查看: 9|回复: 0
收起左侧

[动作战争] 长夜危机/开源/恶夜救援/长夜 Survive The Night 2020 1080p BluRaycd x264 DTS-HD MA 5.1-FGT 9.46GB & 14.53GB

[复制链接]

3721

主题

4090

帖子

3万

积分

Post Share

金币
6771 枚
体力
6153 点

卓越贡献勋章

mvods 发表于 2020-7-31 19:31:48 | 显示全部楼层 |阅读模式

$ V3 v$ s( }4 h# h, X) }/ a) ]
  W9 T2 o2 V" e0 M' c7 _- {1 o◎译  名 长夜危机/开源/恶夜救援(台)/长夜
# r$ a" N% |" K( Q" h9 s2 U◎片  名 Survive the Night / Open Source / The Long Night 8 f6 Z; l" A. q) V% V% \: A
◎年  代 2020
; Y/ A- }, f! W5 D6 l+ Q7 z◎产  地 美国* W' ]5 \! G3 u0 ^+ G# E
◎类  别 动作/惊悚, b5 e# A0 s4 k/ N6 }
◎语  言 英语
/ m5 t: e9 Q- y9 [0 E8 T◎上映日期 2020-05-22(美国)( O( v0 ~% D6 c; O( t: j; K
◎IMDb评分  5.0/10 from 4,957 users4 ]1 t% W) o+ T. a
◎IMDb链接  https://www.imdb.com/title/tt10303324
% g; {6 v1 p  t% s◎豆瓣评分 3.8/10 from 426 users
* J7 y/ c, ~- x, B4 g* o4 W◎豆瓣链接 https://movie.douban.com/subject/33440170/9 @9 a. {2 Y. L: k8 t2 j% |
◎片  长 1 h 29 min
- U7 [- n( g# t  o◎导  演 马特·伊斯坎达里 Matt Eskandari
. x9 {# B3 a: i' |8 z6 \8 b◎编  剧 Doug Wolfe
1 |  H  |$ |. ]◎主  演 布鲁斯·威利斯 Bruce Willis
5 o# d6 F# v/ Y6 ^+ S7 ?       查德·迈克尔·墨瑞 Chad Michael Murray& `+ K* S! _9 T* \+ H) l
       丽迪雅·赫尔 Lydia Hull& L" j) [4 k2 {/ y  X! @1 @
       泰勒·乔恩·奥尔森 Tyler Jon Olson5 k7 Y7 ~4 J1 Z4 I5 w( F( c1 k1 H8 Z+ A
       谢伊·巴克纳 Shea Buckner9 \" L1 y# {  Z! w1 ?
       Jessica Abrams
0 [' m" @- @: G7 T& v/ x       Ravare Elise Rupert
' B+ n- T1 m# E. {, k       Natalie DiDonato
$ [7 c% a1 V3 u+ j       Sara Lynn Herman1 w7 M) G4 Q6 g) M9 v
       Charlie Alvarado
) i2 U! a/ t2 {, N6 k/ A       Riley Wolfe Rach
  Y4 P9 _" p+ v: I: E, {* g0 `4 G       Jef Holbrook
7 l0 {% M* g. I4 q+ E; J* I6 }/ r4 z8 R1 C5 B& U" b
◎标  签 布鲁斯·威利斯 | 动作 | 惊悚 | 美国电影 | 烂片 | 美国 | 2020 | 电影9 y* s6 L$ s( @, b& p
: j" t( n. y: ?
◎简  介  
) J6 ?( w: l, \
5 Y! [% Y# I8 [. V4 P% V& e; k  布鲁斯·威利斯将主演马特·伊斯坎达里([深水区])执导的动作惊悚片[长夜](The Long Night,暂译)。影片讲述两个冷血罪犯闯入一个市井医生家中,为其中一个因抢劫失败身负重伤的罪犯治疗。然而这位医生并不具备治疗罪犯伤情的医学技能,医生该如何保护他的家人呢?影片将于6月3日佐治亚州哥伦布开机。
- L7 \  T% T4 W$ ]7 G: Q0 u  L
, U8 B; H% B5 S+ b, v' L  A disgraced doctor and his family are held hostage at their home by criminals on the run, when a robbery-gone-awry requires them to seek immediate medical attention.
6 B  G& X" v) ~
Video3 q# R; T3 B! h8 [
ID                                       : 1- k  e4 r! T) ^! J1 U
Format                                   : AVC2 z7 V7 }% _4 a, q
Format/Info                              : Advanced Video Codec4 L1 g/ j4 H1 O& t& d- \
Format profile                           : High@L4.1! j! k' \( t( G" Z' b' n
Format settings                          : CABAC / 4 Ref Frames, }/ _) N, W1 G: e  Z$ H# x4 C
Format settings, CABAC                   : Yes
+ C- c, w& }( \6 _% NFormat settings, Reference frames        : 4 frames
+ ^# i# i  d$ {) HCodec ID                                 : V_MPEG4/ISO/AVC
) u8 n+ z0 P9 F' IDuration                                 : 1 h 29 min
4 T4 H# c, c* v) w7 e* p) b: }Bit rate                                 : 11.5 Mb/s
. o' l4 E4 T+ f) z$ e# o1 I) rWidth                                    : 1 920 pixels
9 a1 Y1 g4 p' i2 |* oHeight                                   : 960 pixels$ O# t0 h" ^6 f" O/ \2 i
Display aspect ratio                     : 2.000
7 [$ x( q$ c; P6 MFrame rate mode                          : Constant/ Q! s, ^( R4 a/ B
Frame rate                               : 23.976 (24000/1001/37687) FPS
) n6 c* n# j/ {: B* p6 IColor space                              : YUV
5 o! d% I! b) n( |# B$ k/ e9 S' L$ TChroma subsampling                       : 4:2:0
6 O/ L/ k- a& V5 i  \/ }Bit depth                                : 8 bits) M; b5 U( G. i
Scan type                                : Progressive
$ K: Q5 [; n3 n" [* e4 ^Bits/(Pixel*Frame)                       : 0.260
, f8 |! }+ B4 P. M* n5 vStream size                              : 7.17 GiB (76%)
5 j! h& L6 ^! bTitle                                    : Survive.The.Night.2020.1080p.BluRayCD.x264.DTS-HD.MA.5.1-FGT  Y" y3 f- B+ R  o# f' a
Writing library                          : x264 core 148 r2748 97eaef2
5 \, s7 @; X1 ^$ HEncoding settings                        : cabac=1 / ref=4 / deblock=1:-2:-2 / analyse=0x3:0x113 / me=umh / subme=9 / psy=1 / psy_rd=1.00:0.15 / mixed_ref=1 / me_range=16 / chroma_me=1 / trellis=2 / 8x8dct=1 / cqm=0 / deadzone=21,11 / fast_pskip=1 / chroma_qp_offset=-3 / threads=72 / lookahead_threads=3 / sliced_threads=0 / nr=0 / decimate=1 / interlaced=0 / bluray_compat=0 / constrained_intra=0 / bframes=3 / b_pyramid=2 / b_adapt=1 / b_bias=0 / direct=3 / weightb=1 / open_gop=0 / weightp=2 / keyint=250 / keyint_min=25 / scenecut=40 / intra_refresh=0 / rc_lookahead=50 / rc=2pass / mbtree=1 / bitrate=11500 / ratetol=1.0 / qcomp=0.60 / qpmin=0 / qpmax=69 / qpstep=4 / cplxblur=20.0 / qblur=0.5 / vbv_maxrate=31250 / vbv_bufsize=31250 / nal_hrd=none / filler=0 / ip_ratio=1.40 / aq=1:1.00
0 K% Y" P1 Z" y7 CDefault                                  : Yes
; c$ F& q! T  z. }8 y+ LForced                                   : No2 w  v) S3 W; V% q; _8 p/ Q. P
$ `' `2 b5 G7 }0 u5 N# w2 c" ]
Audio7 y' B% m  K, O) h: w% {. G
ID                                       : 2/ A9 m6 G  r4 v  q( t; ]( l' y
Format                                   : DTS XLL
" W; L1 M5 g& GFormat/Info                              : Digital Theater Systems
8 ], i3 ?5 c& h4 ~$ k. g" K9 ~Commercial name                          : DTS-HD Master Audio$ g2 l/ O  p7 |# |# @
Codec ID                                 : A_DTS
- M- p+ k: ?* M' `. B! l# Z, @& xDuration                                 : 1 h 29 min6 I! W8 L7 [/ A1 H, f
Bit rate mode                            : Variable$ U: ?/ v3 i8 n
Bit rate                                 : 3 640 kb/s
  `% Q0 ]+ N( Z: E: ZChannel(s)                               : 6 channels* D! d7 X* w* `. x; l# R# X
Channel layout                           : C L R Ls Rs LFE+ _/ J; T  Q! Q2 E7 ]+ x8 L7 N5 W
Sampling rate                            : 48.0 kHz
& [3 D5 W6 ?# p3 t2 e' RFrame rate                               : 93.750 FPS (512 SPF)" `" ?7 X! v6 }- Z; f* h; F
Bit depth                                : 24 bits) Q1 W6 x+ X9 A8 a) ^* j5 o
Compression mode                         : Lossless
3 q; P& H& U8 r" b0 GStream size                              : 2.27 GiB (24%)
, a$ D8 a5 `! M5 O( B0 J2 nTitle                                    : Survive.The.Night.2020.1080p.BluRaycd.x264.DTS-HD.MA.5.1-FGT
  M3 z( v' N9 _" {1 ELanguage                                 : English
- e9 d+ D- c! v  M( uDefault                                  : Yes( C% \! Q+ d' P6 h- ~1 e% B8 J/ D
Forced                                   : No9 S0 U3 h' n6 a+ {

" p8 p' R$ T: I2 G; k1 d, [" QText #14 v' d4 o( D% m# H
ID                                       : 3
0 H6 m: P0 x' n& {Format                                   : UTF-8( m3 y6 P5 g' i( z3 a, `9 F+ g- _
Codec ID                                 : S_TEXT/UTF8. x, q, h. k# O, |  ~" T; W; j
Codec ID/Info                            : UTF-8 Plain Text
0 D- ~' q9 w6 `5 o+ iDuration                                 : 1 h 22 min
% g9 V& z2 x/ X4 K& m1 ?) RBit rate                                 : 33 b/s
3 Q0 @, t% I  ?6 I0 CCount of elements                        : 814
* c: x; @& S( M4 v+ ZStream size                              : 20.6 KiB (0%), R1 K4 B; W, [- l& U+ n4 J
Title                                    : English-SRT) p2 e  n& V/ z9 }
Language                                 : English3 f, b. K% D: R, u' l; b
Default                                  : Yes* W# R/ [& e4 R6 y" X1 N
Forced                                   : No
% G2 R3 b: h# a; L4 w0 q$ a& T* l( K* }) B
Text #2
* }1 b, S3 C, e9 j! PID                                       : 4% a, {" \- j( \& ?
Format                                   : PGS1 l. c9 ~" Y; @5 n- v* k1 P6 E( y2 P
Muxing mode                              : zlib; Y7 O. }9 p6 n9 I6 v
Codec ID                                 : S_HDMV/PGS5 g7 q$ \( R1 ^
Codec ID/Info                            : Picture based subtitle format used on BDs/HD-DVDs
  w9 T0 [; X9 v, P1 _& \Duration                                 : 1 h 22 min
+ m7 V" Z1 R; U4 A1 a9 S0 X8 @! G0 [Bit rate                                 : 24.7 kb/s
# B1 X# Q0 N1 W' G& h7 A' @7 FCount of elements                        : 1942
8 K1 L4 u( A* E( K$ CStream size                              : 14.6 MiB (0%)+ I# w  _8 Z$ s3 r- f  L
Title                                    : English-PGS
" x+ \# ^, e$ C+ r8 ?8 ALanguage                                 : English
& t0 [0 Z' s$ L3 X, O& tDefault                                  : No
) H" f1 y5 C! m" o# wForced                                   : No
; E/ _0 ~; B. X( L/ @( n" f! g+ S6 S1 @- H- e, g# g: X0 C; E
Text #3( e$ b- c7 w; D) v# D1 u
ID                                       : 5
4 \  _8 U1 Y4 V+ k8 m7 P# b: z( lFormat                                   : PGS
# o# N- T9 A! X) qMuxing mode                              : zlib
% x4 T6 ~$ l: L3 TCodec ID                                 : S_HDMV/PGS
' k) \7 H3 P0 Y. yCodec ID/Info                            : Picture based subtitle format used on BDs/HD-DVDs
& L; I. |* y, {' ~9 F* A7 b# t) [Duration                                 : 1 h 27 min
  N% z- O( r* O; @1 u/ mBit rate                                 : 20.9 kb/s! S, @2 [* [( Y( d
Count of elements                        : 1814+ p. X' \6 f7 z$ ~
Stream size                              : 13.1 MiB (0%)& s9 j) d9 W( W  V
Title                                    : Portuguese-PGS% M" c$ K; q9 S7 i/ \
Language                                 : Portuguese" _; d& r; Z% g2 ^& u; O, \
Default                                  : No
: ]; f# d8 S6 rForced                                   : No
5 y3 ?; [: t2 h1 z2 f2 i
; {1 Q( \2 M0 O5 _9 I* Z% e& e8 bText #4
" y+ x- z4 P- J& A# {: SID                                       : 6
2 e  |3 M, T# D9 H5 K; cFormat                                   : PGS; V. L* d2 m9 L' ~% D* l7 L6 l
Muxing mode                              : zlib
$ f3 }% {; L& P9 B: M, ICodec ID                                 : S_HDMV/PGS& g$ f5 d0 h% j' A  C
Codec ID/Info                            : Picture based subtitle format used on BDs/HD-DVDs
: y5 d" K/ N" V$ E% @7 x+ }Duration                                 : 1 h 27 min
9 Z5 V3 G" P0 i2 r" ]1 ABit rate                                 : 20.2 kb/s& m4 q7 ?; V" W% r: r3 Z
Count of elements                        : 1814& @) a! Y: `. `3 U. f" B/ ^
Stream size                              : 12.6 MiB (0%)" n$ ^; I. n/ |2 L( o
Title                                    : Spanish-PGS+ J9 a7 `3 a% W& X
Language                                 : Spanish7 q; C1 D, {* p$ a
Default                                  : No7 \$ a+ O+ a8 F) x% V- z
Forced                                   : No
1 U8 y0 |8 _4 h/ W: }2 v5 R+ P' I+ E$ Z: z4 ~1 w
Menu+ h& o3 h; }) S
00:00:00.000                             : en:Chapter 1
2 ~5 E8 t# M" M" ^00:03:55.026                             : en:Chapter 24 j# b+ _3 l/ y. `; t2 d1 E1 _
00:08:53.241                             : en:Chapter 3
+ C. K* g9 i+ @$ b% P7 e00:15:14.247                             : en:Chapter 4
. s/ R" `- `- t) v. c1 [$ d00:20:46.662                             : en:Chapter 5
. ?9 ^& C# m. w) ~! I# ?00:24:47.695                             : en:Chapter 6; x; O8 x9 c* {3 t
00:30:06.263                             : en:Chapter 7
3 }1 J2 j. Y. x" s2 w& d0 g5 E00:36:01.284                             : en:Chapter 8
8 w+ d( B& R  @2 d$ X2 t" x00:40:44.901                             : en:Chapter 95 @2 ?* E8 ~. `- C
00:44:14.694                             : en:Chapter 10
2 H# B% \9 ]2 }9 m8 h( {00:50:30.069                             : en:Chapter 11- w/ J- C, V8 R. f& b
00:55:13.393                             : en:Chapter 12) H, |- Y+ d# U- X- T
01:01:37.360                             : en:Chapter 13
5 b' y0 q' T# Q  e, _; K01:08:05.206                             : en:Chapter 14
: r2 r! g/ l6 W# m7 o- o2 J01:13:02.378                             : en:Chapter 15
- e9 T1 H& }2 P8 ]* c- }% {8 {01:22:04.586                             : en:Chapter 16
Video
2 g. V0 T0 f5 o( b7 [" m( ]ID                                       : 1& j* z% p4 U; h& s# M! V0 i) `
Format                                   : AVC
# v" C" z# K6 K' C5 _4 l2 _Format/Info                              : Advanced Video Codec
( Y; s! Q( A" t' x: s" F- _Format profile                           : High@L4.13 D  i2 ~: v* [9 ^! m3 c7 R
Format settings                          : CABAC / 4 Ref Frames: K2 T) x; m5 y$ r- R
Format settings, CABAC                   : Yes+ y2 F2 w  f# x: M5 Q
Format settings, Reference frames        : 4 frames5 g8 _9 q# W- l  W9 N( x/ K. u0 J6 U
Codec ID                                 : V_MPEG4/ISO/AVC
% m3 r2 u+ H6 E/ U* T2 IDuration                                 : 1 h 29 min
7 i& E2 [) C' p( L7 z' x* }Bit rate                                 : 19.6 Mb/s
: U$ ]3 i6 q/ `" u: ^  z7 FWidth                                    : 1 920 pixels$ j3 q/ U2 g7 z$ K
Height                                   : 960 pixels
) [2 T; E7 c9 ?& vDisplay aspect ratio                     : 2.000
' q* u5 t) |+ Q- k: e2 L4 JFrame rate mode                          : Constant
; P# W' l, R* z! S  {Frame rate                               : 23.976 (24000/1001/37687) FPS5 Z) U, o, [5 z2 |9 b' @
Color space                              : YUV' i( r. ]$ p2 I' }
Chroma subsampling                       : 4:2:0
( r+ F( J# t  J. g  k' xBit depth                                : 8 bits+ i2 H. W/ I3 y8 |
Scan type                                : Progressive
# A; P5 g! t9 u* g6 KBits/(Pixel*Frame)                       : 0.4442 L, z5 S$ t% q, Q8 {
Stream size                              : 12.2 GiB (84%)
* o! }& o; R  G, JWriting library                          : x264 core 161 r3015 4c2aafd( t/ T2 N( q$ w4 i
Encoding settings                        : cabac=1 / ref=4 / deblock=1:-3:-3 / analyse=0x3:0x133 / me=umh / subme=9 / psy=1 / psy_rd=1.00:0.00 / mixed_ref=1 / me_range=32 / chroma_me=1 / trellis=2 / 8x8dct=1 / cqm=0 / deadzone=21,11 / fast_pskip=0 / chroma_qp_offset=-2 / threads=24 / lookahead_threads=2 / sliced_threads=0 / nr=0 / decimate=1 / interlaced=0 / bluray_compat=0 / constrained_intra=0 / bframes=3 / b_pyramid=2 / b_adapt=2 / b_bias=0 / direct=3 / weightb=1 / open_gop=0 / weightp=2 / keyint=250 / keyint_min=23 / scenecut=40 / intra_refresh=0 / rc=crf / mbtree=0 / crf=16.2 / qcomp=0.60 / qpmin=0 / qpmax=69 / qpstep=4 / ip_ratio=1.40 / pb_ratio=1.30 / aq=3:0.80# t- E2 z; F& r5 q! M
Default                                  : Yes
4 b2 z& i2 g  q& J1 i2 oForced                                   : No
# X8 j+ M+ `6 L- M/ A& R: t6 \Color range                              : Limited
# [" V) N. b6 Z. ]. TMatrix coefficients                      : BT.7098 o" W9 X7 R7 x; S  o* ?2 ]* i& g
Audio- M/ [! W2 f0 t0 g! f. j" x
ID                                       : 2- z0 a- K# H& B
Format                                   : DTS XLL( [1 e" W: A& j2 V$ w- K
Format/Info                              : Digital Theater Systems
; c  D  a0 \$ OCommercial name                          : DTS-HD Master Audio- r0 Z$ ]% r' r; W2 X1 ~
Codec ID                                 : A_DTS( M- U/ s  `" V. r( b$ K
Duration                                 : 1 h 29 min
" y' @" u# X7 h( M4 s7 G2 cBit rate mode                            : Variable
  y2 y* }* M8 j) A$ U) |0 I7 iBit rate                                 : 3 640 kb/s9 @( b. f0 b) [" q
Channel(s)                               : 6 channels
: u* p; \: w/ }6 _2 pChannel layout                           : C L R Ls Rs LFE
6 R8 m, `: @, N, L: d3 L0 }2 {" BSampling rate                            : 48.0 kHz* H7 ~& ~3 O+ x
Frame rate                               : 93.750 FPS (512 SPF)
; Z. z# P4 |% uBit depth                                : 24 bits4 \3 j( A. y& {7 f
Compression mode                         : Lossless
; v# c5 t2 [) x3 A5 X9 N8 hStream size                              : 2.27 GiB (16%)! p7 ~( j* U% v+ M8 _7 E
Title                                    : English) G8 x4 L" D* }) X* O
Language                                 : English
7 ]& m6 c# \) C. @9 N  @2 sDefault                                  : Yes; k2 M2 I2 w/ [* `$ X
Forced                                   : No
9 R0 `$ ~' H4 EText #1
( h' I' u8 h. BID                                       : 33 L1 N- q" e; E# s( O  c: Q3 Y
Format                                   : PGS2 c5 e3 @. I8 k
Muxing mode                              : zlib
) n7 d8 N$ e0 M7 _! jCodec ID                                 : S_HDMV/PGS
" h; e; D  x- K) r* L5 KCodec ID/Info                            : Picture based subtitle format used on BDs/HD-DVDs8 o' f) G% i: `1 ~
Duration                                 : 1 h 22 min
! m3 C" B: E% }: |% T( l% S* v0 sBit rate                                 : 24.7 kb/s7 n% ?, p4 V& e( L) n4 E
Count of elements                        : 1942
7 |8 g# w9 t8 B  @8 g9 |Stream size                              : 14.6 MiB (0%)
. d3 ?: Z5 T$ s4 j# B% QLanguage                                 : English
1 S$ f6 N" Y- e0 J  s4 C! S. |Default                                  : No, ?1 e; t1 m! p  E) p# T
Forced                                   : No- F' ]* L( g$ z' \
Text #2
( S1 P7 S# P( g$ `+ [ID                                       : 4
3 {! V/ }7 B! F" v3 U9 V. YFormat                                   : PGS
% \; Y) M% Z" vMuxing mode                              : zlib
" ^) R. f2 k. w  B  fCodec ID                                 : S_HDMV/PGS. @2 ]6 O7 h- X
Codec ID/Info                            : Picture based subtitle format used on BDs/HD-DVDs$ G# _) ^3 [% t, [( ~# x
Duration                                 : 1 h 27 min
, u$ ~9 C- K7 l  zBit rate                                 : 20.2 kb/s0 V" y" s; Z2 X) B' r  c, D  G& E
Count of elements                        : 1814& `& O, b: D, M& K; i! }7 v
Stream size                              : 12.6 MiB (0%)
( N, t: S) @# q- tLanguage                                 : Spanish; n% P# R! t  d/ n
Default                                  : No
& ~* ^3 g$ R) I( t" eForced                                   : No; R& c1 s( f9 U  }
Text #30 ^6 u4 \( @* ~. m+ d& @/ @
ID                                       : 5
" z* N# w) X" C  s4 p' \Format                                   : PGS
! j/ m/ G) f% o: \2 U2 ZMuxing mode                              : zlib
) Q& d. b5 ?9 I4 L$ vCodec ID                                 : S_HDMV/PGS
. r" J, B+ ~4 ~3 k4 w. p  z! r& @Codec ID/Info                            : Picture based subtitle format used on BDs/HD-DVDs
8 Y' E3 z4 q, V) F- HDuration                                 : 1 h 27 min) |  C, y7 S' h( A
Bit rate                                 : 20.9 kb/s2 D% e  f4 d7 `" [) E/ s
Count of elements                        : 18145 `, l1 L$ l# O7 i( W+ {4 H/ X7 g- z
Stream size                              : 13.1 MiB (0%)! D& \8 M0 [5 h- S+ v
Language                                 : Portuguese
- X; h: B$ H5 o) ]1 B8 `3 ]Default                                  : No
1 D& _/ w2 a3 p0 n" V# I) w8 E; E1 MForced                                   : No% H& J( m; f3 j, Q1 ]
Menu1 K4 U: @) r" A+ B5 S) x
00:00:00.000                             : en:Chapter 01
! {+ t# J' {* s2 ?00:03:55.026                             : en:Chapter 02
8 F% L& r+ c) _3 u4 p' J4 ~. u00:08:53.241                             : en:Chapter 03
; Y! `: Q0 h& b% F1 w00:15:14.247                             : en:Chapter 04
3 |9 s% u9 s2 `8 r- [00:20:46.662                             : en:Chapter 05
% x5 S+ V3 I  v$ S: I00:24:47.695                             : en:Chapter 06
; @3 P5 Z! ]% t2 K/ S2 T5 u: g00:30:06.263                             : en:Chapter 07& t8 d& M! n$ s1 B8 A# |
00:36:01.284                             : en:Chapter 083 k2 W; D8 a2 r- X
00:40:44.901                             : en:Chapter 09" Y: e& N( v  Y# S
00:44:14.694                             : en:Chapter 10
, c* V% K3 b1 D% L/ j! d) |2 F00:50:30.069                             : en:Chapter 11( J  p/ k7 y, w- ^! |  X: o4 p
00:55:13.393                             : en:Chapter 121 J, ~" `& r6 ?9 _
01:01:37.360                             : en:Chapter 135 p6 Z' G" b7 K; B0 ^. L
01:08:05.206                             : en:Chapter 14# D- ~3 J; d2 H4 ~& z. Q
01:13:02.378                             : en:Chapter 15+ R9 u- z, s" E" o' b
01:22:04.586                             : en:Chapter 16
- P1 b8 i1 v: q6 S' i2 t# \6 q6 ?. p, M$ T( v4 V  s
Survive.the.Night.2020.1080p.BluRaycd.x264-YOL0W
, t- X# J0 G' f% W; c1 v
; @( t' U$ P' U' g2 f/ RDate........: 2020/07/12" m0 T) u" o5 q9 Y% A3 T
Source......: BluRay/ n) R* d! C% N, X5 t
Runtime.....: 01:29:14.4000 ?" w0 n/ P, M
$ m, k- U/ z4 u/ ~  A) N* n# ?8 B2 z
Video.......: x264 @ CRF 16.2
9 a  P4 N. l1 X/ EResolution..: 1920x960 2.000* o! j+ q7 l% J; k1 m
Bitrate.....: 19643 Kb/s
* G9 F$ [) E6 b) sFPS.........: 23.976% l+ F/ K* L- X( W1 L7 Q9 c9 p
Source......: 36202 Kb/s& T( A1 ~% \+ x" h

. ~4 @0 h7 e: bAudio.......: English DTS-HD MA 5.1
3 F9 m* L4 w# |: iSubtitles...: English Spanish Portuguese" a( ^* W  H' V& ~/ f5 n1 W6 _3 ?
Size........: 14882 MB4 u" `) j$ x) A, l; G  E0 x8 L' a
Link........: https://www.imdb.com/title/tt10303324/
" z: y. L& i! \/ V9 l2 `4 M) @' F" ^Note........:
4 k: W4 P) i9 k6 k/ x, V9 A
游客,查看本帖隐藏内容请回复 | 加入VIP贵宾组可免积分免回复下载 立即了解 | 还不是会员:点击获取邀请码 Invitation Code

本版积分规则

小黑屋|Archiver|蓝光电影资源网

GMT+8, 2020-8-9 14:12

快速回复 返回顶部 返回列表