BluRayCD Forum

 找回密码
 立即注册【分享大片】

QQ登录

只需一步,快速开始

查看: 8|回复: 0
收起左侧

[动作战争] 长夜危机/恶夜救援/长夜/开源 Survive The Night 2020 720p BluRaycd x264 DTS-FGT 4.37GB & 5.40GB

[复制链接]

3721

主题

4090

帖子

3万

积分

Post Share

金币
6771 枚
体力
6153 点

卓越贡献勋章

mvods 发表于 2020-7-31 19:41:52 | 显示全部楼层 |阅读模式
01.jpg ) [1 G9 P0 I- y# H1 `

, x. G! k* y6 ?+ p8 w4 y4 Q◎译  名 长夜危机/恶夜救援(台)/长夜/开源
( p; u: ?9 w/ V3 r◎片  名 Survive the Night / Open Source / The Long Night
* z) n# y% Y  L8 G& v% w( J◎年  代 2020
! i" n  L5 r- v5 m! h" U2 |( h+ u9 A◎产  地 美国# ^6 [. c, t# ?4 _
◎类  别 动作/惊悚3 ^  N7 r9 g# T5 j* e
◎语  言 英语, e- Z2 Y$ [+ n% x' u
◎上映日期 2020-05-22(美国); T, k" ^4 @1 h+ N, A$ L
◎IMDb评分  5.0/10 from 4,957 users8 R3 o" \9 k" o
◎IMDb链接  https://www.imdb.com/title/tt10303324
8 t0 C9 C5 @+ h% C0 H# C' L* G◎豆瓣评分 3.8/10 from 426 users
5 P6 T, v8 }8 g5 W: {◎豆瓣链接 https://movie.douban.com/subject/33440170/
; X) P6 ~: l# E" X  R, Z. ]◎片  长 1 h 29 min2 T( c) _5 I: V& o% c2 P
◎导  演 马特·伊斯坎达里 Matt Eskandari
: a5 W3 d) Z7 {$ t2 o" y; ?◎编  剧 Doug Wolfe
% S1 n4 A: j% R* I7 t◎主  演 布鲁斯·威利斯 Bruce Willis
' ^: s# T5 y8 b" X& @& w# A/ {       查德·迈克尔·墨瑞 Chad Michael Murray
6 ]( K6 h5 |% N  ^. b. J( W% B       丽迪雅·赫尔 Lydia Hull
0 c2 I) K0 O* ~4 t       泰勒·乔恩·奥尔森 Tyler Jon Olson5 H! [0 v- G5 ~5 P! [, h/ o
       谢伊·巴克纳 Shea Buckner
* Y2 n& E  j: [- e       Jessica Abrams
! d0 W+ F% _, s' p       Ravare Elise Rupert
3 n; n( U2 T5 i+ Q: D       Natalie DiDonato2 |9 [3 l7 v, u* s; ~6 q7 E9 M
       Sara Lynn Herman6 j: n* x+ l* n+ o6 W% R
       Charlie Alvarado
$ Q. ]) N) u  c7 @       Riley Wolfe Rach
7 D% u6 N4 P* V7 {6 w. N       Jef Holbrook9 G5 T' p2 M2 V  u. L
. q* ?! O5 m1 I: c
◎标  签 布鲁斯·威利斯 | 动作 | 惊悚 | 美国电影 | 烂片 | 美国 | 2020 | 电影& ^& z3 A; y& c$ b, d

, `: H5 v. d* f& m* q" z  ~' l◎简  介  
) i# e7 x5 j* V, J# U3 R+ @+ y" n& i+ R1 Q& r
  布鲁斯·威利斯将主演马特·伊斯坎达里([深水区])执导的动作惊悚片[长夜](The Long Night,暂译)。影片讲述两个冷血罪犯闯入一个市井医生家中,为其中一个因抢劫失败身负重伤的罪犯治疗。然而这位医生并不具备治疗罪犯伤情的医学技能,医生该如何保护他的家人呢?影片将于6月3日佐治亚州哥伦布开机。3 a# M8 T. l" j
Video
, _! I& P+ g$ V/ wID                                       : 1
$ k* m+ W6 q+ wFormat                                   : AVC7 U2 A; z5 d0 m8 K% ~3 V3 I
Format/Info                              : Advanced Video Codec
, v& i; [6 [/ y, M2 Y) I" [; L* yFormat profile                           : High@L4.1
  e$ F- X% O  q% Z1 B: KFormat settings                          : CABAC / 4 Ref Frames- @8 Z, N" |! N2 E. O
Format settings, CABAC                   : Yes0 ~, n9 ~+ H' x4 B9 g
Format settings, Reference frames        : 4 frames$ n5 Q2 {$ @3 ?4 {- R
Codec ID                                 : V_MPEG4/ISO/AVC& Q6 v1 Q$ T" y" n
Duration                                 : 1 h 29 min! U* s5 }9 I$ A3 }
Bit rate                                 : 5 500 kb/s4 W1 G* ^5 G* Q7 B" G6 p
Width                                    : 1 280 pixels4 B; i7 r3 u2 [5 L* c3 h
Height                                   : 640 pixels
, {) w2 l  o0 L; f/ S) G- x$ G0 LDisplay aspect ratio                     : 2.000
2 }" f: a" ]2 e# O7 SFrame rate mode                          : Constant
. m; ~3 C; G; z& @' gFrame rate                               : 23.976 (24000/1001/37687) FPS
3 Z; i- v: b- _: |- b! i/ `7 zColor space                              : YUV
/ v6 h5 ?9 W: z7 [. BChroma subsampling                       : 4:2:0
( o8 a- |  J* R9 o* e6 k/ u8 O" g4 j/ CBit depth                                : 8 bits" T# v) k3 z. A  u/ e+ h: e
Scan type                                : Progressive
7 S# A- \! B# `& ?6 {9 Q! oBits/(Pixel*Frame)                       : 0.280' U. U* k% \/ t
Stream size                              : 3.43 GiB (78%)# s) a8 I3 ], v0 c2 z" Z" J( y
Title                                    : Survive.The.Night.2020.720p.BluRayCD.x264.DTS-FGT" ?% ]% N4 u+ b9 G2 v. ]; O
Writing library                          : x264 core 148 r2795M aaa9aa8! J  J9 c  V. T
Encoding settings                        : cabac=1 / ref=4 / deblock=1:-2:-2 / analyse=0x3:0x113 / me=umh / subme=9 / psy=1 / psy_rd=1.00:0.15 / mixed_ref=1 / me_range=16 / chroma_me=1 / trellis=2 / 8x8dct=1 / cqm=0 / deadzone=21,11 / fast_pskip=1 / chroma_qp_offset=-3 / threads=72 / lookahead_threads=3 / sliced_threads=0 / nr=0 / decimate=1 / interlaced=0 / bluray_compat=0 / constrained_intra=0 / bframes=3 / b_pyramid=2 / b_adapt=1 / b_bias=0 / direct=3 / weightb=1 / open_gop=0 / weightp=2 / keyint=250 / keyint_min=25 / scenecut=40 / intra_refresh=0 / rc_lookahead=50 / rc=2pass / mbtree=1 / bitrate=5500 / ratetol=1.0 / qcomp=0.60 / qpmin=0 / qpmax=69 / qpstep=4 / cplxblur=20.0 / qblur=0.5 / vbv_maxrate=31250 / vbv_bufsize=31250 / nal_hrd=none / filler=0 / ip_ratio=1.40 / aq=1:1.00/ c1 ]  k  u! P4 A) V
Language                                 : English
3 E; x$ ]0 B: \Default                                  : Yes
& M8 b5 X% ^2 FForced                                   : No
5 U) O( j4 A% ~- A
, {7 {/ v1 Z* t$ s, }' xAudio
4 n  c+ U7 }( `$ T( a- CID                                       : 2
7 O8 w9 G- l" M! EFormat                                   : DTS9 r, P% R0 b: B- Q. ^: M# K; @
Format/Info                              : Digital Theater Systems) Y/ Z! [4 K  `- g
Codec ID                                 : A_DTS
+ Q: _9 j: e/ k0 ~Duration                                 : 1 h 29 min8 P( a6 g: p+ n$ x( M' w
Bit rate mode                            : Constant
. J/ Y$ A* O6 ^$ U; x4 eBit rate                                 : 1 509 kb/s
6 \* z0 ^' [* ]. O  ]3 d$ ?" vChannel(s)                               : 6 channels
& f) Z* p" j& {) Q4 uChannel layout                           : C L R Ls Rs LFE
: O; S6 u% e: G8 S' NSampling rate                            : 48.0 kHz
0 s" S. `7 U( b% h, H* aFrame rate                               : 93.750 FPS (512 SPF)$ R, q( Y/ z9 \5 B
Bit depth                                : 24 bits2 a. Z. p! f  a! r' \" b5 e4 j; G
Compression mode                         : Lossy+ A6 k  [; @6 w) y2 z
Stream size                              : 963 MiB (22%)$ J6 z  K* ^+ @: s5 T' P
Title                                    : Survive.The.Night.2020.720p.BluRaycd.x264.DTS-FGT
+ z* K1 y! c" \6 Z6 F' w- zLanguage                                 : English7 i9 }- Y, c6 \% q$ U9 v
Default                                  : Yes
5 B, A) U7 e6 L  M. e7 XForced                                   : No
; |1 E& C% E! U7 k
! G: n4 s" ~" T) k9 e6 w' D( [Text* q$ q+ V$ a3 e4 H- q
ID                                       : 3, Q$ K8 V/ T  O& d# d* O
Format                                   : UTF-85 C3 H) O+ x; O2 X# S
Codec ID                                 : S_TEXT/UTF8
+ y0 O  Y+ ]  H6 a) o' PCodec ID/Info                            : UTF-8 Plain Text
- a! M+ l* r$ }. R) P9 B" L! t. LDuration                                 : 1 h 22 min5 v& C( k6 ^& S- P% P) g8 i2 @
Bit rate                                 : 33 b/s
7 W+ O% ^3 e7 Z2 ?Count of elements                        : 814
. I8 N) B  Z- `! TStream size                              : 20.6 KiB (0%)0 q; O2 |4 u  C: g* F0 `
Language                                 : English
! H% ^# C5 b6 n9 g% ~* vDefault                                  : Yes# e% z" A6 W1 k6 a, O: ^9 Y
Forced                                   : No
0 z+ p2 t- A1 `& D/ Y! ?" Z8 z) p* V' w- s# _# J- c
Menu
$ C/ f7 w/ B# w/ |2 a+ M' y9 \00:00:00.000                             : en:Chapter 1" g; A; |' x' t6 `' N  O
00:03:55.026                             : en:Chapter 2& U$ R" P6 b3 j. w8 ^7 F
00:08:53.241                             : en:Chapter 3
( Z' v4 v$ l1 v) H5 \# p00:15:14.247                             : en:Chapter 46 o1 B) {4 m3 g+ z) a
00:20:46.662                             : en:Chapter 5  {. \/ h2 u2 Y. x9 g* O% C+ V
00:24:47.695                             : en:Chapter 6
% F* o  b" J( j! h" m4 ~" M& d00:30:06.263                             : en:Chapter 7  P& p# R4 v2 Z! T
00:36:01.284                             : en:Chapter 8- a: ?* O: L+ o7 \$ E* k$ t0 Y
00:40:44.901                             : en:Chapter 98 n7 k4 h' s2 L3 ^3 C
00:44:14.694                             : en:Chapter 10. _) T4 K1 ?; g# J( E/ O( N( H
00:50:30.069                             : en:Chapter 117 d' N; C  J% C1 g
00:55:13.393                             : en:Chapter 12  z8 }- S% H. v% m* }  {4 ~6 E
01:01:37.360                             : en:Chapter 13
6 F' I* v& K9 V, m01:08:05.206                             : en:Chapter 14* T' N# V/ b' v* o
01:13:02.378                             : en:Chapter 154 Q3 D  J( I/ S: ]7 e. y, l; l
01:22:04.586                             : en:Chapter 16
Video* V) A" K. Q* v3 c! V4 ]$ D
ID                                       : 1/ ~! H# T: Y2 T1 L9 Q' d
Format                                   : AVC7 ^5 C4 V; A6 @" \' O* h* A0 Z
Format/Info                              : Advanced Video Codec3 G: ]+ A) Y2 }7 ]: H4 `6 Y
Format profile                           : High@L4.1
0 Y# ?! M! W+ P% N! yFormat settings                          : CABAC / 8 Ref Frames
- F! N0 I- J5 }+ J- `Format settings, CABAC                   : Yes
6 r! J* o! A) t8 P4 ZFormat settings, Reference frames        : 8 frames3 \: t0 I$ h, w) q
Codec ID                                 : V_MPEG4/ISO/AVC
, A# J  o1 z# d  s0 V5 jDuration                                 : 1 h 29 min
8 E# W  v4 b4 c- X: [Bit rate                                 : 7 985 kb/s
  `, |( b: i! j5 A) yWidth                                    : 1 280 pixels  F. S7 h, q6 `& H- p
Height                                   : 640 pixels
" m' n# @  C- m3 o* ?4 aDisplay aspect ratio                     : 2.0008 h6 k7 J1 O$ D2 H0 h8 y" }$ e
Frame rate mode                          : Constant. e+ x; t" S  e4 e( C+ R# y
Frame rate                               : 23.976 (24000/1001/37687) FPS4 {! V. r6 O% R
Color space                              : YUV; ^( i# _1 M& |1 R. o
Chroma subsampling                       : 4:2:0
2 G0 x: [9 X! m0 ?2 |1 ]Bit depth                                : 8 bits1 C$ d! q4 ?- Q+ A  z8 b
Scan type                                : Progressive  G3 A2 O; O9 i+ U/ O$ T) x5 ^
Bits/(Pixel*Frame)                       : 0.407! |4 v4 }1 }; R' d7 R
Stream size                              : 4.98 GiB (92%)" P; p# M- ]; Q& @9 q# M% d
Writing library                          : x264 core 161 r3015 4c2aafd
, k5 R2 N7 i/ L# `, }Encoding settings                        : cabac=1 / ref=8 / deblock=1:-3:-3 / analyse=0x3:0x133 / me=umh / subme=9 / psy=1 / psy_rd=1.00:0.00 / mixed_ref=1 / me_range=24 / chroma_me=1 / trellis=2 / 8x8dct=1 / cqm=0 / deadzone=21,11 / fast_pskip=0 / chroma_qp_offset=-2 / threads=20 / lookahead_threads=1 / sliced_threads=0 / nr=0 / decimate=1 / interlaced=0 / bluray_compat=0 / constrained_intra=0 / bframes=3 / b_pyramid=2 / b_adapt=2 / b_bias=0 / direct=3 / weightb=1 / open_gop=0 / weightp=2 / keyint=250 / keyint_min=23 / scenecut=40 / intra_refresh=0 / rc=crf / mbtree=0 / crf=16.3 / qcomp=0.60 / qpmin=0 / qpmax=69 / qpstep=4 / ip_ratio=1.40 / pb_ratio=1.30 / aq=3:0.80
% z2 M- u2 B/ d8 r% vDefault                                  : Yes
1 b2 g: Y# G. W! d4 u  z  p6 dForced                                   : No
6 Z0 C! l9 }+ n0 @. [2 j* aColor range                              : Limited
7 P: `4 f0 W5 y& {9 \1 gMatrix coefficients                      : BT.709
! k+ ^5 g, j. O: o9 bAudio
; p4 u- y/ N$ f- o% T: pID                                       : 2! Y7 t. w; Z. n6 ^7 C) K" r- _
Format                                   : AC-34 z  Z$ w+ C! n: }' t; H+ `% ]( ]7 P
Format/Info                              : Audio Coding 3" B& b! i1 P$ m
Commercial name                          : Dolby Digital
" Y* Z* `( F. X/ P+ kCodec ID                                 : A_AC3; S7 x' s8 O" {, g5 z/ q, b0 M+ a6 J( I
Duration                                 : 1 h 29 min, [; b* V1 F! L: p! l; o
Bit rate mode                            : Constant
$ _) z) M/ ]$ `! eBit rate                                 : 640 kb/s4 j: j& S; o: }4 X9 G7 @
Channel(s)                               : 6 channels0 G9 m  [5 \6 @' q- X( A* C
Channel layout                           : L R C LFE Ls Rs
5 V) C. G/ ^  j% T$ `) E* RSampling rate                            : 48.0 kHz
  b0 A  _7 w- {2 ]3 u9 D/ t# qFrame rate                               : 31.250 FPS (1536 SPF)& }+ z6 O+ g( r8 V) y
Bit depth                                : 16 bits. @# |* Q. h6 a9 o
Compression mode                         : Lossy: K* S5 b# J2 A$ I7 X: l( E
Stream size                              : 409 MiB (7%)
8 O$ ^# R7 e# ~+ h, ATitle                                    : English9 I! d9 f5 Z- F5 P( f, i! H
Language                                 : English3 ]( I1 x! `+ O4 N4 _6 l9 ^6 ^
Service kind                             : Complete Main
/ y' P$ F/ T/ iDefault                                  : Yes
1 c& @6 Z" M- z, W2 |6 ?Forced                                   : No7 }5 k6 v# s$ Y2 U
Text #1+ V. b+ y2 |" d% F$ g
ID                                       : 3
4 `0 |' ]) Q5 v6 x; _Format                                   : PGS
8 W/ h# m1 L7 i+ n4 XMuxing mode                              : zlib
2 i" m' f8 Z8 h  f3 d" l0 oCodec ID                                 : S_HDMV/PGS+ F9 B* e7 n' c  d
Codec ID/Info                            : Picture based subtitle format used on BDs/HD-DVDs+ e: R! \! x: f/ R6 ^! k
Duration                                 : 1 h 22 min
8 \% O/ C# R, T( a5 W) eBit rate                                 : 24.7 kb/s
& {7 A+ B0 J% J, g3 I7 a  PCount of elements                        : 1942
+ E4 |' g8 u5 R0 z. m1 m1 t' lStream size                              : 14.6 MiB (0%)
$ |5 y  N4 r# ]" WLanguage                                 : English
4 G; g* f, `0 `* M+ @4 I: ]Default                                  : No. C7 `( ?* z, S6 b/ T
Forced                                   : No" N' {( Y2 j9 a* d
Text #2  F" E. V& b6 F1 D9 _! o
ID                                       : 4
5 }+ T" o; n9 g7 S5 S& y/ ]) U) Z* i. l- tFormat                                   : PGS
8 T& }* q+ x& L! KMuxing mode                              : zlib- N7 Q& \) X+ n+ N
Codec ID                                 : S_HDMV/PGS
+ k7 x" x; i$ u) {2 g0 J2 @' SCodec ID/Info                            : Picture based subtitle format used on BDs/HD-DVDs
- U$ m/ m* O  CDuration                                 : 1 h 27 min
2 y, t( Z. Z/ Y8 lBit rate                                 : 20.2 kb/s
: v" _, Z, e$ o7 \1 W8 w4 {# QCount of elements                        : 1814- J6 N6 R3 U$ ?3 S* k) f
Stream size                              : 12.6 MiB (0%)
6 [: `; l9 k- ^( _Language                                 : Spanish# e+ ~6 Q' B! T- }8 @) I; ^) l; W" I
Default                                  : No) @- M, N. Q. v. i5 U7 z4 [
Forced                                   : No9 J9 T4 R% }0 r% _$ X
Text #3
* m" ?3 y3 a3 o( K: Z! mID                                       : 5% M9 k% j7 k5 A5 I, H( b! C) M
Format                                   : PGS4 U. t& w% Q# l/ ^
Muxing mode                              : zlib
* |7 a: R! V) ~) @/ LCodec ID                                 : S_HDMV/PGS9 s& |. c# a6 B* S* U. h
Codec ID/Info                            : Picture based subtitle format used on BDs/HD-DVDs" k2 D1 a: N% a
Duration                                 : 1 h 27 min
4 L( X9 p6 G  D3 E, y8 f: f' P& W- yBit rate                                 : 20.9 kb/s
" I- e0 u' k3 ]( k& ?- uCount of elements                        : 1814) g! }" E, k  V7 w0 n) c" H4 K+ @
Stream size                              : 13.1 MiB (0%)) A/ }% c6 n5 h& o8 u
Language                                 : Portuguese7 J$ Z: `) q! ~# T& |# j' ^
Default                                  : No6 ?% o9 Y0 c  D. @' j5 |" ]
Forced                                   : No! }" }& Z  `, R9 G2 |
Menu
# |. m/ L' m, S% ]% J7 i5 E00:00:00.000                             : en:Chapter 01
* f# ~$ V9 K8 e00:03:55.026                             : en:Chapter 02; i  ~. C5 D$ W# N8 q" r& {; Z
00:08:53.241                             : en:Chapter 038 P- k! l3 j) r( A
00:15:14.247                             : en:Chapter 041 w! W, `( e8 E3 l  Q/ d7 ^
00:20:46.662                             : en:Chapter 05( t, r$ [5 W) }' p, [7 _
00:24:47.695                             : en:Chapter 06% K  R- k) e. G! Z4 Z* J+ V+ l" H
00:30:06.263                             : en:Chapter 076 p% n3 t; ]: Q
00:36:01.284                             : en:Chapter 08
9 R8 U9 L! H- N5 X; L00:40:44.901                             : en:Chapter 09( d" W9 Z( ^& R  R" m9 q
00:44:14.694                             : en:Chapter 10
* W' W8 a' _2 R* K7 F; y7 _6 O00:50:30.069                             : en:Chapter 11
( i. W" p: p% ^& F3 R00:55:13.393                             : en:Chapter 12
+ f# F$ m& U8 O. x0 d01:01:37.360                             : en:Chapter 13
/ b: s2 v- o3 I  A# h+ E% n2 o01:08:05.206                             : en:Chapter 14$ u7 D6 e6 v& b6 C- t0 d
01:13:02.378                             : en:Chapter 156 k; t' a: A5 W  H
01:22:04.586                             : en:Chapter 168 g# M. G  n' ]  F' E! _) z: T

( v$ a6 W) Z3 j9 B% @, w3 V9 C2 XSurvive.the.Night.2020.720p.BluRaycd.x264-YOL0W* v+ `: \( K' ]" N
, y2 ^/ _- S) n
Date........: 2020/07/122 F% q: y; ]7 i4 A5 u
Source......: BluRay+ _/ z- U& B# G
Runtime.....: 01:29:14.432. V" J- g* y. Z" e

; N( ?+ Z: T5 R. o! z! GVideo.......: x264 @ CRF 16.3
) N9 a" L4 b, v9 d( z3 fResolution..: 1280x640 2.000
" B3 I; w- D% T+ D4 p$ XBitrate.....: 7984 Kb/s
$ @8 ^: D* M% N0 jFPS.........: 23.9765 n/ z5 H. Z1 u- S% m, e
Source......: 36202 Kb/s2 _: V3 |# E8 |8 A8 g$ I* N. U
5 `5 l9 d1 s* o4 r! k
Audio.......: English AC3 5.1 640 kb/s
2 R" h8 a% g/ o0 \Subtitles...: English Spanish Portuguese
$ U4 K9 I% C7 }9 GSize........: 5524 MB
6 V5 L6 ^8 n: I( H* xLink........: https://www.imdb.com/title/tt10303324/
( w2 {; t+ j, o6 |. b% U$ D+ M; vNote........:

  f. r* d4 ~, E# o: |) n: e# I
游客,查看本帖隐藏内容请回复 | 加入VIP贵宾组可免积分免回复下载 立即了解 | 还不是会员:点击获取邀请码 Invitation Code

本版积分规则

小黑屋|Archiver|蓝光电影资源网

GMT+8, 2020-8-9 13:48

快速回复 返回顶部 返回列表