BluRayCD Forum

 找回密码
 立即注册【分享大片】

QQ登录

只需一步,快速开始

查看: 12|回复: 0
收起左侧

[剧情悬疑] 三色堇 Moffie 2019 1080p BluRaycd x264-SPOOKS 13.16GB

[复制链接]

3721

主题

4090

帖子

3万

积分

Post Share

金币
6771 枚
体力
6153 点

卓越贡献勋章

mvods 发表于 2020-7-31 19:59:47 | 显示全部楼层 |阅读模式

2 b1 b4 V& u, R0 H2 e7 A3 B1 h) Z# o0 c* M9 Y
◎译  名 三色堇
- @; @1 p. u9 U6 x3 B3 }' k◎片  名 Moffie / Moffie / Pansy
* n0 l4 M% ~$ }; o◎年  代 2019+ F- w5 d' [! H7 J
◎产  地 南非/英国) `# g( w8 G9 n1 x+ c$ L' M; h
◎类  别 剧情/同性* a3 m4 E6 t9 f8 _
◎语  言 南非语/英语
9 l6 G( g0 p& v7 V$ b( P◎上映日期 2019-09-04(威尼斯电影节)2 L$ G" S% F: U% \5 K  R; A9 g; h
◎IMDb评分  7.2/10 from 503 users
3 Q2 Z  p. l* _6 O◎IMDb链接  https://www.imdb.com/title/tt10699362/
! v3 }, v2 |  c. Q! {% a0 v◎豆瓣评分 6.5/10 from 182 users
! C$ P% r+ u+ Z0 W◎豆瓣链接 https://movie.douban.com/subject/34679952/
+ V7 U- g+ N0 w. V- W◎片  长 1 h 43 min
3 b0 C& F3 \. S  k( m◎导  演 奥利弗·赫曼纽斯 Oliver Hermanus
) f5 D' Y5 I+ S5 K6 k4 u, C◎编  剧 奥利弗·赫曼纽斯 Oliver Hermanus 1 X3 g& @1 [$ U$ |# E
       Jack Sidey4 w2 V- N+ x% T  t/ V4 `
◎主  演 Kai Luke Brummer# B6 L8 i+ Y$ }6 ?( D
       Ryan de Villiers
! J9 a6 T  ~( x' ^/ h$ ~6 N       Matthew Vey
/ U" b6 l3 `5 D8 B" X; G       Stefan Vermaak5 d( s9 t9 l) \; `
       Hilton Pelser
7 @/ K8 J4 t5 a4 V$ J5 L       Wynand Ferreira4 X. u  t( L/ G& T5 h/ M$ w
       Hendrik Nieuwoudt
: A$ I) E* @! A7 p: @0 a       Shaun Chad Smit
/ p7 {8 k0 B& {& p8 d5 ^1 H5 ^+ Q       Rikus Terblanche
7 Q5 g* _* B  B( s2 @2 Y" G" V       Matt Ashwell
6 m: @% x7 }) _$ `5 J3 B1 D       Ludwig Baxter% s3 `% L4 [& ^3 U9 g" `! s
       Philippa Berrington-Blew8 {2 B  a' e& f' s9 B) @) y
       Dijan Botha& }9 x& n& ]' `% O: r
       Mitchell Christy
  J! V/ V9 F, }       Jan Combrink7 J* `3 o$ f3 ]* ]; `% {. b* h( E
       马克·埃尔德金 Mark Elderkin' V' ~' Z& H4 J% [8 ?) h0 N

$ T- T/ p  f1 C, C1 c/ s% \◎标  签 南非 | 同性 | 英国 | 2019 | LGBT | 剧情 | 南非电影 | 威尼斯电影节+ y! W7 G+ X) ^& N* |
- @- X' ]( [- ]# N7 K, `: i* J) ]
◎简  介  % ^! b; w) T; m' x( x
/ s% f1 V6 ]+ x
  在南非,Moffie是对同性恋者的贬义词,片中,男主尼克16岁时去南非服兵役。从小就与众不同的他,在军营中发现了自己的秘密。% V: Q+ y4 V3 {0 U
  在同性恋就是犯罪的国度,一旦做出选择,就无法回头。封闭的军营伴随着暴力、种族歧视、男人至上的理念,如三色堇般美丽的爱恋,要如何安放?
* J# A' v& h! ?5 |( o% e9 E5 e/ T% v) Z) I6 h' U* a9 f
  Nicholas has long known he is different, that there is something shameful and unacceptable in him that must stay hidden, denied even. But South Africa's minority government are embroiled in conflict at the Angolian border and all white young men over 16 must serve two years of compulsory military service to defend the Apartheid regime and its culture of toxic racist machismo. The 'black danger' is the real and present threat; what is wrong with Nicholas and others like him can be rooted out, treated and cured like a cancer. But just when fear pushes Nicholas to accept unspeakable horrors in the hopes of staying invisible, a tender relationship with another recruit becomes as dangerous for them both as any enemy fire.
% D! f2 m/ h# |/ t( o. U, w- `5 A  C0 c; d" f0 W: H
◎获奖情况  ! c3 S4 {1 Z/ ~# z: y% ]
2 }3 u; \$ \# r5 ]  b0 |2 p
  第76届威尼斯电影节(2019)0 v2 T7 }6 f2 I+ ^$ F
  地平线单元奖 最佳影片(提名) 奥利弗·赫曼纽斯
$ v0 ]6 x% k- N/ u, ^
. `7 i2 z1 J$ j4 o4 A3 w  第22届英国独立电影奖(2019). U2 P! F! M8 }  j$ h
  最佳导演(提名) 奥利弗·赫曼纽斯5 d; f# t1 Q3 `$ q
  制片突破(提名)
1 l9 Y( k$ R9 L! F# E2 @  最佳摄影(提名)1 t0 W  _, ^/ c. c4 F/ x
Video
: m6 B* D: _; k, ^; L/ f6 m' l8 \ID                                       : 1$ l. c: O7 Z- j/ F0 L! u! g
Format                                   : AVC. R! N9 A3 b8 F9 l8 A. Y( ?: q
Format/Info                              : Advanced Video Codec
1 J4 N4 E3 F7 S6 cFormat profile                           : High@L4.1
8 X* ^! _  Q$ v) q: Z2 \& u. JFormat settings                          : CABAC / 4 Ref Frames! W0 i0 i! `5 q7 B+ q2 l+ H
Format settings, CABAC                   : Yes
7 |" v& v. |( }% H- @/ z3 I9 mFormat settings, Reference frames        : 4 frames
3 }- P) N" y* B9 wCodec ID                                 : V_MPEG4/ISO/AVC
/ Z" n. L( O0 _. K9 [9 e+ M  i; @Duration                                 : 1 h 43 min! {, Y" _" [+ ^: B1 M, n" R2 v& a. V
Bit rate                                 : 16.3 Mb/s0 K3 U' _. R& A4 U
Width                                    : 1 596 pixels
( N) k# q5 Z' w7 GHeight                                   : 1 080 pixels
! G8 j, ]4 n5 k  {; ADisplay aspect ratio                     : 3:2
: s! Q. J! A0 OFrame rate mode                          : Constant, E+ n6 w/ j9 m) d% u
Frame rate                               : 24.000 FPS4 X2 V8 n0 G& a7 l# e2 Y
Color space                              : YUV
+ Y' Y6 Y& y# J5 N" [. SChroma subsampling                       : 4:2:0
3 m! _3 |; _" B. ?4 a+ A; kBit depth                                : 8 bits% U2 R% [0 y8 @8 V, }
Scan type                                : Progressive4 _% d3 x/ A+ M0 h. e/ o
Bits/(Pixel*Frame)                       : 0.394* Q/ B0 S& d* e, C' ^
Stream size                              : 11.8 GiB (90%)
( a  j/ B# p# }2 gWriting library                          : x264 core 161 r3018 db0d417
  F- S9 x) Z4 a6 g% |$ I. j# _Encoding settings                        : cabac=1 / ref=4 / deblock=1:-3:-3 / analyse=0x3:0x133 / me=umh / subme=10 / psy=1 / psy_rd=1.20:0.00 / mixed_ref=1 / me_range=24 / chroma_me=1 / trellis=2 / 8x8dct=1 / cqm=0 / deadzone=21,11 / fast_pskip=0 / chroma_qp_offset=-2 / threads=24 / lookahead_threads=4 / sliced_threads=0 / nr=0 / decimate=0 / interlaced=0 / bluray_compat=0 / constrained_intra=0 / bframes=8 / b_pyramid=2 / b_adapt=2 / b_bias=0 / direct=3 / weightb=1 / open_gop=0 / weightp=2 / keyint=250 / keyint_min=24 / scenecut=40 / intra_refresh=0 / rc=crf / mbtree=0 / crf=18.0 / qcomp=0.60 / qpmin=0 / qpmax=69 / qpstep=4 / ip_ratio=1.40 / pb_ratio=1.30 / aq=3:0.908 S6 Y+ P, }$ N# h
Default                                  : Yes, f  j8 p9 A1 M' v  k6 w# @
Forced                                   : No( Z7 m$ T5 i8 t9 d8 H' s
Color range                              : Limited5 X& g( j2 ?3 I  O) L2 \& L: |
Matrix coefficients                      : BT.709/ P( _: @6 k, ^2 O! u- u
Audio
' f: p" T% d$ A! v( G! G* G- IID                                       : 2
& W" L- |' t9 F& ?Format                                   : DTS XLL9 W" l+ a/ K3 l0 y  R
Format/Info                              : Digital Theater Systems3 E) T5 R  p" w9 r
Commercial name                          : DTS-HD Master Audio$ A. s+ ^/ Q% j# |- ^" @( a
Codec ID                                 : A_DTS
9 l2 g7 D4 ?8 F7 uDuration                                 : 1 h 43 min
) _+ V$ D. y: n$ YBit rate mode                            : Variable
4 }; G: \2 Q2 ~" iBit rate                                 : 1 839 kb/s* K* Y+ q0 t& M4 X3 N
Channel(s)                               : 6 channels
) [7 [* t! v- M. k; ^% `! T+ x, YChannel layout                           : C L R Ls Rs LFE$ s8 [3 E* B3 ]$ S* s2 g3 e; @/ C
Sampling rate                            : 48.0 kHz; A5 V1 P- b& K; l% q- {
Frame rate                               : 93.750 FPS (512 SPF)
- Y0 f) F+ Q: }Bit depth                                : 16 bits
2 m# e& ^) O! u$ B0 UCompression mode                         : Lossless& a* h9 o! Q3 s1 [( t: K& |
Stream size                              : 1.34 GiB (10%)4 j) u# U3 V/ }+ n9 d+ y
Language                                 : English! u+ y1 h0 M$ E" X* n
Default                                  : Yes6 [2 e. ^) L# T8 E6 Q# E
Forced                                   : No  T7 k" l# V7 A3 S1 d
Menu- S" ~$ B7 T. O" Q/ i
00:00:00.000                             : en:Chapter 01
. M5 `$ n# q7 ~# t" r; t00:06:22.542                             : en:Chapter 02
" l# J& w& b, G. q0 H# H% ?7 `00:13:27.875                             : en:Chapter 032 @" [& C$ @2 T' r% Q
00:18:18.167                             : en:Chapter 04
$ _5 N* K) u, s$ k6 F) Z8 t00:25:32.833                             : en:Chapter 05
7 ?  L# q8 c4 S7 w  m00:33:15.625                             : en:Chapter 06+ G# l9 Q" K. r! X' `
00:52:02.000                             : en:Chapter 07
+ \% o- N, Q! L. z, @# i1 @01:03:48.292                             : en:Chapter 089 O/ ^3 V/ T8 O: C3 G0 R/ k/ Z
01:11:54.583                             : en:Chapter 09, s6 M& O& }* s4 E2 u7 O5 ~% o
01:20:41.500                             : en:Chapter 10
1 A! Q/ I5 t+ e' k01:31:35.958                             : en:Chapter 11
: l, g3 {2 w; o01:40:15.333                             : en:Chapter 12  o' F5 Q& l) H/ J* N

* |) Y0 x1 S9 j1 p9 q& `7 I; Y: @) WMoffie.2019.1080p.BluRayCD.x264-SPOOKS
: o1 i1 u9 O& _
8 W' h/ |& p) SIMDB...........: https://www.imdb.com/title/tt10699362' T' j! r+ [5 |! c. k0 }  m: L

5 ?3 v# `( a' V# a7 h+ R4 W8 qDuration.......: 1 h 43 min
8 X% \. d. t6 e0 NVideo..........: x264 @ CRF 18 (16282 Kbps)
2 a/ p1 Z$ m/ |" Y, V5 t* j1 bSource.........: 28468 Kbps
* O4 J/ E; K5 }2 J" ]  M  TFrame Rate.....: 24 fps
4 G! e$ _% q- w9 I: A' l( W6 mResolution.....: 1596x1080* Q5 k" {, D( v& U$ ]& k
Audio..........: English 5.1ch DTS-HD MA @ 1839 Kbps- Q+ l2 K4 t+ o' D& \
Subtitles......: None4 K/ ?/ H6 S5 u
Size...........: 13.2 GB
3 ^) c1 e' U$ T! X
游客,查看本帖隐藏内容请回复 | 加入VIP贵宾组可免积分免回复下载 立即了解 | 还不是会员:点击获取邀请码 Invitation Code

本版积分规则

小黑屋|Archiver|蓝光电影资源网

GMT+8, 2020-8-9 13:25

快速回复 返回顶部 返回列表