BluRayCD Forum

 找回密码
 立即注册【分享大片】

QQ登录

只需一步,快速开始

查看: 10|回复: 0
收起左侧

[剧情悬疑] 三色堇 Moffie 2019 720p BluRaycd x264-SPOOKS 6.05GB

[复制链接]

3721

主题

4090

帖子

3万

积分

Post Share

金币
6771 枚
体力
6153 点

卓越贡献勋章

mvods 发表于 2020-7-31 20:04:34 | 显示全部楼层 |阅读模式
01.jpg $ H& x# q* M$ H. P, _# o" i# n

$ I" d- T+ r8 B! _* |1 W2 f◎译  名 三色堇
0 |0 f( |8 C6 c! o4 V◎片  名 Moffie / Moffie / Pansy8 u/ q; k* K  W
◎年  代 20192 A0 w2 E  I5 ^" A
◎产  地 南非/英国" O+ q* O: V: H2 c! S1 v
◎类  别 剧情/同性
% a" v- z6 x' L: Q9 `◎语  言 南非语/英语! q' W3 X" W# q$ r) b  ?3 T0 [& B
◎上映日期 2019-09-04(威尼斯电影节)
1 S6 I5 k2 a( X, Y1 ~◎IMDb评分  7.2/10 from 503 users6 S3 e9 S- j( p1 c' ~/ D
◎IMDb链接  https://www.imdb.com/title/tt10699362/
4 |) d8 u3 y& Y  T) W% ~2 @◎豆瓣评分 6.5/10 from 182 users7 }/ e4 X6 V6 `) n, E" r- T
◎豆瓣链接 https://movie.douban.com/subject/34679952/0 C* _+ F/ A' O$ y: s
◎片  长 1 h 43 min
1 W/ S+ R' n# Q/ Z9 \" D◎导  演 奥利弗·赫曼纽斯 Oliver Hermanus
; o- i6 @/ q6 v" e! o◎编  剧 奥利弗·赫曼纽斯 Oliver Hermanus 7 }( Q5 k0 d' i1 }( S5 |
       Jack Sidey
. h' V9 l4 q2 H+ k7 K$ I% w4 o◎主  演 Kai Luke Brummer/ ]7 y* g: Q1 ]1 Z$ M+ c, D5 O1 R# h
       Ryan de Villiers
% n# l2 [/ J  [( x       Matthew Vey
4 R2 a; ^- m1 q  b5 _1 c2 d1 ~( e       Stefan Vermaak
. X* M- u, \0 @8 }% r5 @" N# z       Hilton Pelser6 K3 @  F( r7 x' k8 r
       Wynand Ferreira
; U/ E& j8 q+ A( b( R0 D! N2 h       Hendrik Nieuwoudt
) i( D9 o; r) Z: C  a0 B       Shaun Chad Smit+ X% T/ H( j; g/ I* T
       Rikus Terblanche
& }  e: @$ |! D; d4 x( K4 Q8 S       Matt Ashwell/ O% g  }9 u5 O, ^9 [: v
       Ludwig Baxter! |; l/ o2 i5 N
       Philippa Berrington-Blew
6 H7 S5 e6 B- C) f* h& Z  Q& K       Dijan Botha  X8 _" m2 v7 h, @; Y
       Mitchell Christy: b$ A5 n# o! ?( L  ~: i
       Jan Combrink, Z* ~3 V/ M0 o1 B* B% {/ G
       马克·埃尔德金 Mark Elderkin
. n7 H& B" W. o: t% W8 X
2 g5 C! A+ q' ]* c, b7 X◎标  签 南非 | 同性 | 英国 | 2019 | LGBT | 剧情 | 南非电影 | 威尼斯电影节
! ^+ m2 r7 k+ e$ r3 J, K4 J+ c. ~; a6 `/ b( }" w
◎简  介  
6 X) c) u% V( B8 o/ J' {% v- t2 u& L; Z4 `. P1 U
  在南非,Moffie是对同性恋者的贬义词,片中,男主尼克16岁时去南非服兵役。从小就与众不同的他,在军营中发现了自己的秘密。/ E6 u- C+ L- u5 \
  在同性恋就是犯罪的国度,一旦做出选择,就无法回头。封闭的军营伴随着暴力、种族歧视、男人至上的理念,如三色堇般美丽的爱恋,要如何安放?" L! o* O2 l' V9 H* _6 M, ^
  M- q% v* i6 A3 P" V) {9 j  Y0 j+ G
◎获奖情况  
" ?# M/ C9 Z- p. A
! b! \3 ^8 w) {$ Z) c  第76届威尼斯电影节(2019). h+ i0 [+ v) f2 N* f$ |
  地平线单元奖 最佳影片(提名) 奥利弗·赫曼纽斯& q1 I- ^# D+ t! f; J" N9 K
' [& j7 l+ y. X. U4 c
  第22届英国独立电影奖(2019)" s1 c  ^; ~9 J) ?  V- u1 o
  最佳导演(提名) 奥利弗·赫曼纽斯
+ W0 f$ B& S9 X9 b  制片突破(提名)" `( l$ G. G% o1 [  s4 {* m. A7 Y
  最佳摄影(提名), W) x7 b3 F" W
Video
" C& E$ h& ]* a8 P6 }* [0 R& ~ID                                       : 13 n& w5 q6 f. W# b; S* k
Format                                   : AVC
( K* x+ W. k0 HFormat/Info                              : Advanced Video Codec; l- p, e  u6 a  t9 t* Y
Format profile                           : High@L4.1- z0 j+ I& K" S! N7 r
Format settings                          : CABAC / 10 Ref Frames- s* ^+ w2 Q. z6 f4 V
Format settings, CABAC                   : Yes
5 {( H, |" |; u3 i  g. }Format settings, Reference frames        : 10 frames9 M. E# q9 [1 r2 b
Codec ID                                 : V_MPEG4/ISO/AVC
! M* g8 |9 h/ z2 P( x% Y3 oDuration                                 : 1 h 43 min
! s2 `, F2 Q3 YBit rate                                 : 7 688 kb/s
9 O- U" ?+ b  o2 O4 j7 hWidth                                    : 1 064 pixels
  v, c, v, ?9 p5 e5 s8 L. d+ OHeight                                   : 720 pixels
4 {; u* j; x4 QDisplay aspect ratio                     : 3:2
3 g! P0 h' V9 Q+ q3 \Frame rate mode                          : Constant" q" y0 U. P4 v- G! p/ p" p
Frame rate                               : 24.000 FPS; a4 Y+ ]- Q. G& t
Color space                              : YUV' b4 G& Q5 I/ I7 u' C/ t: @
Chroma subsampling                       : 4:2:0
( X/ i9 |/ F9 A( `! g4 e; ^Bit depth                                : 8 bits3 N2 S1 p& [5 M* `  R8 g5 D9 L
Scan type                                : Progressive
3 \( m% O; L, hBits/(Pixel*Frame)                       : 0.418
5 K" t1 Y$ V3 zStream size                              : 5.58 GiB (92%)
0 Z+ @7 s% S8 n: QWriting library                          : x264 core 161 r3018 db0d4177 i+ T0 H& G. [
Encoding settings                        : cabac=1 / ref=10 / deblock=1:-3:-3 / analyse=0x3:0x133 / me=umh / subme=10 / psy=1 / psy_rd=1.20:0.00 / mixed_ref=1 / me_range=24 / chroma_me=1 / trellis=2 / 8x8dct=1 / cqm=0 / deadzone=21,11 / fast_pskip=0 / chroma_qp_offset=-2 / threads=22 / lookahead_threads=3 / sliced_threads=0 / nr=0 / decimate=0 / interlaced=0 / bluray_compat=0 / constrained_intra=0 / bframes=8 / b_pyramid=2 / b_adapt=2 / b_bias=0 / direct=3 / weightb=1 / open_gop=0 / weightp=2 / keyint=250 / keyint_min=24 / scenecut=40 / intra_refresh=0 / rc=crf / mbtree=0 / crf=16.5 / qcomp=0.60 / qpmin=0 / qpmax=69 / qpstep=4 / ip_ratio=1.40 / pb_ratio=1.30 / aq=3:0.90
$ ~2 h! |6 _5 y) N2 CDefault                                  : Yes
$ ^; M; h! c  i( y6 aForced                                   : No
& z2 P' ~# l5 ?+ E( J5 M% \: eColor range                              : Limited  \& o  t9 J, w2 h3 R
Matrix coefficients                      : BT.709# p! D5 K* E! z$ j, r( O) g/ j4 h
Audio5 p' ~7 i  {9 U' j
ID                                       : 2! U3 n. }/ x+ J$ H# e; a7 Z1 F
Format                                   : AC-3& {0 L1 }/ ^/ e$ v& T
Format/Info                              : Audio Coding 3
& T; I+ L0 ^5 |. ICommercial name                          : Dolby Digital
% G$ ?$ w- }% ?" KCodec ID                                 : A_AC3" I" b' F  O- U, R4 z
Duration                                 : 1 h 43 min+ l9 [5 E3 x- }$ R& u" G* x3 u( M7 ~
Bit rate mode                            : Constant
! X2 R5 c' E! j7 f  b) m+ g$ pBit rate                                 : 640 kb/s
( k8 n( |* M$ O2 }. FChannel(s)                               : 6 channels
. k# ^% {% [& W8 BChannel layout                           : L R C LFE Ls Rs
2 f8 x  Y# p$ _# I* DSampling rate                            : 48.0 kHz
1 b, \* W, l' C5 ?- C6 KFrame rate                               : 31.250 FPS (1536 SPF)
$ t( y- g& v+ _7 n% Y( w* P2 uBit depth                                : 16 bits
7 p( L1 n0 [2 z* O9 Q3 P4 TCompression mode                         : Lossy
% Z0 N4 @& |* D5 YStream size                              : 476 MiB (8%)& c/ [' ?: J" f1 H  ^
Language                                 : English
0 _6 F6 s9 q! D5 Z/ }) CService kind                             : Complete Main- h. H# F, \0 V7 _1 `0 \; ?
Default                                  : Yes0 z2 o5 ^8 f% ~/ B; }
Forced                                   : No
+ @1 M) ^( V) E" K( EMenu0 O1 z; E3 [( ^
00:00:00.000                             : en:Chapter 011 |' s- N% G5 A8 L& f  Z
00:06:22.542                             : en:Chapter 02
* S! g* d) a: P00:13:27.875                             : en:Chapter 035 p/ A1 A! u3 p' e. c% \- T
00:18:18.167                             : en:Chapter 04
% b: H! v% w' H9 h% P& b+ r+ _# Y' i00:25:32.833                             : en:Chapter 05! R  U0 D& n- p  h% D
00:33:15.625                             : en:Chapter 06+ B4 T* {/ I) }$ V8 ~
00:52:02.000                             : en:Chapter 07
' ]. x# ~% I! b4 m. G" P7 T- y/ C* A01:03:48.292                             : en:Chapter 08
* t* a6 `4 R) b8 E. L! c0 ~" }01:11:54.583                             : en:Chapter 09
( f1 ]$ `+ o0 u- v. ]01:20:41.500                             : en:Chapter 10
& C6 F/ [0 f2 X! X( V0 k01:31:35.958                             : en:Chapter 11
5 k  f* ~! ]- W! [4 q) C4 y01:40:15.333                             : en:Chapter 12% R$ @3 Q9 x  a- \" d( ?

$ H7 O) c( A+ u' n' @1 fMoffie.2019.720p.BluRayCD.x264-SPOOKS
9 v6 P- w9 v9 B3 S
1 S) l4 @9 b: C$ z. }$ ?/ G) |# h7 @IMDB...........: https://www.imdb.com/title/tt10699362! y3 c6 _! B2 ^3 S; b
+ j& h; a6 m' v7 J: V" q
Duration.......: 1 h 43 min
1 K5 @" A6 v+ _, l, CVideo..........: x264 @ CRF 16.5 (7688 Kbps)/ _0 h9 ~; O5 u4 _* l
Source.........: 28468 Kbps$ N6 V- h6 m$ A4 I4 Z' n
Frame Rate.....: 24 fps
  S' ]) {  @. I7 y( V; HResolution.....: 1064x7205 L, E. E' m4 M, l: y; U8 K5 A1 u* b
Audio..........: English 5.1ch AC-3 @ 640 Kbps8 ]  L# w3 r, U& q
Subtitles......: None
! t) W5 M. k, ~* B/ tSize...........: 6.1 GB

& c6 G  l& y  O$ q! k. u% V
游客,查看本帖隐藏内容请回复 | 加入VIP贵宾组可免积分免回复下载 立即了解 | 还不是会员:点击获取邀请码 Invitation Code

本版积分规则

小黑屋|Archiver|蓝光电影资源网

GMT+8, 2020-8-9 13:59

快速回复 返回顶部 返回列表