BluRayCD Forum

 找回密码
 立即注册【分享大片】

QQ登录

只需一步,快速开始

查看: 28|回复: 2
收起左侧

[蓝光原盘] 臆想魔友 [REMUX无损版] Z 2019 1080p BluRaycd REMUX AVC DTS-HD MA 5.1-FGT 13.11GB

[复制链接]

7777

主题

7971

帖子

6万

积分

Forum Moderator

金币
10563 枚
体力
9607 点

卓越贡献勋章

24小时 发表于 2020-9-7 21:22:33 | 显示全部楼层 |阅读模式
01.jpg
3 e& s1 g$ T" R. \+ h2 Z7 U* b2 C! a* H# |0 ?9 k8 {4 e
◎译  名 臆想魔友
, X1 {$ D' w, s8 [◎片  名 Z
1 t1 o5 p6 m0 _( J/ O  P8 D8 g3 F, H  W◎年  代 2019
" {% `/ ]* K- Q% {◎产  地 加拿大
. z2 ^: u/ \# i) B$ r3 `◎类  别 惊悚/恐怖
; t9 U+ r) ^, h◎语  言 英语. ?) Q  A" H9 a3 U, C3 C# t
◎上映日期 2019-12-25(美国)& @# B9 R- g0 w5 {6 W
◎IMDb评分  5.6/10 from 2,085 users) H+ o  l. E7 Z1 @( \
◎IMDb链接  https://www.imdb.com/title/tt8995218/; {$ ~9 f& @7 m2 T* f  b
◎豆瓣评分 0/10 from 0 users; w0 T/ O& q3 J' d
◎豆瓣链接 https://movie.douban.com/subject/30488222/
: G3 [/ c5 b# i0 i$ ~/ l* x◎文件格式 x264 + DTS5 Q9 d- j, u3 W3 l
◎视频尺寸 1920 x 10807 h3 t: m5 s1 ]- ]
◎文件大小 1DVD 13.11 GiB; c+ m1 h, E5 x% N' N6 D
◎片  长 1 h 23 min6 ]) H7 Y8 R* m3 |
◎导  演 Brandon Christensen  \* @  f: `' I- f/ H) i
◎编  剧 Brandon Christensen
0 ?- J* v, Z5 e) r* c2 ^9 q) O       柯林·米尼汉 Colin Minihan
. P1 b9 _# L( u- K& u◎主  演 基冈·康纳·特雷西 Keegan Connor Tracy
" v& C6 F+ g: F3 C) D       杰特·克莱恩 Jett Klyne: E! T/ z9 A6 e1 `1 G+ F
       肖恩·罗格森 Sean Rogerson# j9 \5 S( Q( ~. q. q- R

) k# y7 V2 j1 A+ g) u' O: f◎简  介  
! |- C! W7 j# K, s2 K, g, C5 {
* S3 h7 \  E( ^2 `1 N$ J0 T  一个家庭发现自己被他们八岁儿子想象中的朋友吓坏了。* s( _, Z2 _5 [9 T3 u
  A family find themselves terrorized by their eight-year-old son's imaginary friend.
2 b( F8 R1 Y+ {
Video1 K; c- G$ [- `2 C9 t9 p
ID                                       : 1: t6 X7 x5 c8 A% P* a( V% x
ID in the original source medium         : 4113 (0x1011)
5 d$ V5 b6 C1 l9 }Format                                   : AVC
, R2 y* t: j# ?, t% ^. BFormat/Info                              : Advanced Video Codec, K" W: L  ]7 I( |$ k
Format profile                           : High@L4.1! q. Z  E" h- l+ `
Format settings                          : CABAC / 4 Ref Frames
  V+ x1 t; E; _Format settings, CABAC                   : Yes( M& A( Q7 G+ u. |9 S+ O
Format settings, Reference frames        : 4 frames
% r, k/ ]3 T  i8 `8 |/ x/ Z( s* s8 ZCodec ID                                 : V_MPEG4/ISO/AVC
9 n3 A3 Z, V2 E/ VDuration                                 : 1 h 23 min* [& d- l  l& I9 p
Bit rate mode                            : Variable
/ y6 m7 ^2 P& z. XBit rate                                 : 20.8 Mb/s# I3 D* r/ X; w
Maximum bit rate                         : 36.0 Mb/s
2 G1 s/ T! Q0 s7 |* ^; x  [Width                                    : 1 920 pixels
, |# f5 D6 \2 a$ V; lHeight                                   : 1 080 pixels3 n1 K0 L6 B5 I$ @$ J1 {
Display aspect ratio                     : 16:9
8 f0 S; z8 g  \/ H8 S% e( W% I! `2 hFrame rate mode                          : Constant
, S9 g9 B' J9 U; j, W7 mFrame rate                               : 23.976 (24000/1001/37687) FPS
; a8 r2 L: T9 o* Q/ ~6 I$ JColor space                              : YUV
. x$ c& n7 h9 x5 k6 _; yChroma subsampling                       : 4:2:0
  q3 x9 a  w* F5 I3 J+ U, ]. k: vBit depth                                : 8 bits$ U+ c+ U1 I* q. m- j
Scan type                                : Progressive4 c8 ]5 j% Q- v9 J( r- X5 c
Bits/(Pixel*Frame)                       : 0.418
* Q' A8 H( @3 b4 D9 S( FStream size                              : 12.1 GiB (92%)
) d# [7 j% v8 w5 i. m- vTitle                                    : Z.2019.1080p.BluRayCD.REMUX.AVC.DTS-HD.MA.5.1-FGT
3 j. m4 h2 t5 z5 l+ YLanguage                                 : English
7 c5 }! r2 n3 U6 g7 n- p$ LDefault                                  : No1 }8 m  n' L7 q& e
Forced                                   : No5 G0 o  C0 C8 \5 _1 Z
Original source medium                   : Blu-ray
8 t% Q* Y( {1 c
1 Y* v" m7 f: W8 O6 y' |3 cAudio+ e) ]# S( }$ a3 T
ID                                       : 2
3 {$ E8 H# f. N9 ~6 JID in the original source medium         : 4352 (0x1100)
9 T& N% g4 d; h7 iFormat                                   : DTS XLL
1 Z% m+ h# |( |3 AFormat/Info                              : Digital Theater Systems0 c( f8 U2 Y; S$ m4 z, c* f, k% d$ |
Commercial name                          : DTS-HD Master Audio
3 V8 O: S4 R& k  o" ACodec ID                                 : A_DTS/ @& f' p) P+ Y% D0 G. ]
Duration                                 : 1 h 23 min
/ s6 ^" G- K( I& R  u3 ^  uBit rate mode                            : Variable+ X' X" o9 C3 ^4 M0 |1 g( D3 w
Bit rate                                 : 1 767 kb/s
: C" x9 S8 Q% j- j" i7 _- x' t: O2 R* GChannel(s)                               : 6 channels
) @5 \# X0 _4 K( v- B2 uChannel layout                           : C L R Ls Rs LFE( X, u: f3 j; R$ x; o: t4 @3 x0 W
Sampling rate                            : 48.0 kHz
* W- J) S6 f# n* C  a9 uFrame rate                               : 93.750 FPS (512 SPF)
) j, r0 E' \3 w' Q0 V" XBit depth                                : 24 bits
* F6 S- i5 O) `0 b& cCompression mode                         : Lossless
0 `) J* R* l: \+ DStream size                              : 1.03 GiB (8%)" L6 W* ^5 l* i  C
Title                                    : Z.2019.1080p.BluRaycd.REMUX.AVC.DTS-HD.MA.5.1-FGT( H  h7 O1 N$ p6 k! h4 e
Language                                 : English
4 d  X& M# O+ TDefault                                  : Yes% T7 O& x4 X  c# I- H2 ~; c+ t
Forced                                   : No
7 K- M# y" X" x* _6 y- oOriginal source medium                   : Blu-ray; `% |: s% H, x# {1 k2 C

1 j6 [. j9 k6 L& I/ g3 N1 }Text #1
! r! n0 r! _( M2 s# hID                                       : 3
8 ]( ?9 L) H0 c' \) K' V4 U0 RFormat                                   : UTF-8# F, T) c$ D3 ~5 t9 O
Codec ID                                 : S_TEXT/UTF8; s* g3 I2 f6 P! F! p5 d
Codec ID/Info                            : UTF-8 Plain Text) p# I3 g0 q, ]7 `  o0 t
Duration                                 : 1 h 20 min1 X, C9 _0 Y0 w/ H2 B
Bit rate                                 : 31 b/s* U& P$ d. u& E% G
Count of elements                        : 912
" {0 C1 v* _, cStream size                              : 18.7 KiB (0%)
7 j5 T3 i& ^  N" W* Q" JTitle                                    : English-SRT
* o' D/ O2 ~0 c3 Y% [( W7 {* Z5 BLanguage                                 : English
7 y: \( J% X/ M6 `Default                                  : Yes( |9 d8 F* b8 `9 ]
Forced                                   : No" C' ~9 e# i6 X# L# t
8 y" e- H2 g/ G4 R; l" z4 g# M
Text #2" I7 ]. @+ R! m
ID                                       : 4$ @! v* m# i3 m" x/ P0 r, _
ID in the original source medium         : 4608 (0x1200)) s! l! w. b( G0 o
Format                                   : PGS4 G5 ?% p2 S$ v7 F/ r% B5 ]' J
Muxing mode                              : zlib
- @* c& Z2 o6 Z3 w2 wCodec ID                                 : S_HDMV/PGS& M/ ?2 @6 r% A3 y
Codec ID/Info                            : Picture based subtitle format used on BDs/HD-DVDs9 V" l  l2 f+ F" B" U
Duration                                 : 1 h 23 min
8 q3 [; _; r+ t0 j/ H3 ?3 NBit rate                                 : 18.0 kb/s
6 B# v) S0 H% T% l8 B! l# MCount of elements                        : 2524
( A$ s- L  b% O5 d* l& [. S2 uStream size                              : 10.7 MiB (0%)
. U9 w  P" T; y: U0 N1 LTitle                                    : English-PGS, y+ o1 e5 Y* U9 B
Language                                 : English
7 q3 ~; h7 @' i/ o. V/ I0 dDefault                                  : No
8 o0 e- ^/ C6 w* S7 [  ^8 pForced                                   : No
6 V! D1 l$ H* F8 n& l$ V$ Z. XOriginal source medium                   : Blu-ray7 m9 N0 {5 B! v) Q

9 |+ g& [+ N5 H# HText #3
- i& I% Q/ \  fID                                       : 56 G9 T7 r6 Q$ X( w( y( B( u
ID in the original source medium         : 4609 (0x1201)- x! I" A9 H) r3 s  E" W
Format                                   : PGS' M% ^4 L* m% t3 n: L: Y. L. ^
Muxing mode                              : zlib: x/ X8 ]1 J) n8 z8 H. t
Codec ID                                 : S_HDMV/PGS
3 U6 ^. j. r+ w  k: tCodec ID/Info                            : Picture based subtitle format used on BDs/HD-DVDs  i, C& _' G' t$ G0 X
Duration                                 : 1 h 18 min. A) a+ b+ |6 ?
Bit rate                                 : 12.4 kb/s
: `+ [) W3 J% eCount of elements                        : 1544& `$ [+ _) S3 o9 q+ T
Stream size                              : 6.96 MiB (0%)) u) B+ i. V. m( z! R/ t% M  I
Title                                    : Spanish-PGS8 q, q  k6 }3 }# B& \
Language                                 : Spanish) \% @0 X& A- o4 A
Default                                  : No
+ R4 W6 Q  K7 _8 l' z/ IForced                                   : No
1 X2 T/ Y8 O" C) C& F% C+ AOriginal source medium                   : Blu-ray
/ G) a7 C* A& `7 M1 }6 {6 D% N* m. C+ P/ \- p6 ~* U* `
Menu
/ {2 b  _- g& |/ k/ \00:00:00.000                             : en:Chapter 012 r7 `* M  o  a
00:13:24.637                             : en:Chapter 02
% Q" f1 a! [7 `/ {- f1 F% U+ R00:24:32.762                             : en:Chapter 03# [+ x- p0 [4 z( K5 L6 m' d
00:36:11.752                             : en:Chapter 04
) w6 Y* _; X3 b9 m/ v00:50:40.245                             : en:Chapter 05
2 z! `3 r7 s; c7 R01:00:55.860                             : en:Chapter 06
: r' p+ F. F2 B01:13:23.774                             : en:Chapter 07! E8 L% y5 t3 @6 k0 e9 _; ]
01:20:03.632                             : en:Chapter 08
/ j7 o% L% Y+ L1 U( I
游客,查看本帖隐藏内容请回复 | 加入VIP贵宾组可免积分免回复下载 了解详情 | 还不是会员:点击获取邀请码 Invitation Code

611

主题

2010

帖子

1万

积分

VIP advanced

金币
1774 枚
体力
4576 点

公主勋章卓越贡献勋章

21cn 发表于 2020-9-7 21:39:57 | 显示全部楼层
Bluraycd又有新电影发布了,激动中……!
( x' C/ B/ }/ G, o2 HIn fact, I have always felt that the landlord of good taste! Ha ha!
6 [& D9 b; [+ ~) M, }6 ]8 m

64

主题

1506

帖子

5493

积分

Sponsor

金币
308 枚
体力
2082 点
lanpanshuma 发表于 2020-9-8 09:51:28 | 显示全部楼层
楼主发贴辛苦了,I*老*虎*U!
' y1 e4 q; B/ i8 U  MBlu-ray Film Forum is now my home!. w8 C3 U2 q4 T: N) _
该会员没有 ...

本版积分规则

小黑屋|Archiver|蓝光电影资源网

GMT+8, 2020-10-29 04:02

快速回复 返回顶部 返回列表