BluRayCD Forum

 找回密码
 立即注册【分享大片】

QQ登录

只需一步,快速开始

查看: 9|回复: 0
收起左侧

[科幻恐怖] 臆想魔友 Z 2019 1080p BluRaycd x264 DTS-HD MA 5.1-FGT 7.72GB & 7.56GB

[复制链接]

3897

主题

4271

帖子

3万

积分

Post Share

金币
7316 枚
体力
6584 点

卓越贡献勋章

mvods 发表于 2020-9-8 20:51:20 | 显示全部楼层 |阅读模式

  k- g$ K1 k; F* B7 z, Y2 L( Z* z2 y* s( @
◎译  名 臆想魔友
9 Y+ z: `2 B2 [8 H◎片  名 Z
' v1 a- g. k* C: H◎年  代 2019% ~2 D8 x! g4 g) e) |( Y
◎产  地 加拿大# M0 P! L0 D" N$ S  Y+ R' y# B
◎类  别 惊悚/恐怖) h4 ~! o4 w! f1 c
◎语  言 英语
$ J" O5 _0 x& E, T◎上映日期 2019-12-25(美国)% v6 I* O4 }/ m/ J5 h5 L+ V
◎IMDb评分  5.6/10 from 2,126 users1 W  w. j. H# F8 \& |
◎IMDb链接  https://www.imdb.com/title/tt8995218/: c9 l! C9 k) p0 d1 C; _0 P
◎豆瓣评分 0/10 from 0 users
1 y/ D# u( K4 C! s* O◎豆瓣链接 https://movie.douban.com/subject/30488222/
/ I5 P  Y& D- j3 A# b6 h/ A, y' P7 n◎片  长 1 h 23 min1 Z# z& c3 S0 ~  g6 ?. Y
◎导  演 Brandon Christensen
/ M; X7 c( R6 \◎编  剧 Brandon Christensen 1 V  k# L$ F* d. S0 @6 X4 [- g
       柯林·米尼汉 Colin Minihan: w& h! R' g1 v2 V
◎主  演 基冈·康纳·特雷西 Keegan Connor Tracy
+ M& v, J: u0 t4 a       杰特·克莱恩 Jett Klyne
. E3 Y4 V( I/ A1 b& Q       肖恩·罗格森 Sean Rogerson
* p( e+ b+ r& P7 I; s, M4 j5 Y, l8 y" C3 t7 ~
◎简  介  ( H5 L7 n4 V2 Q2 c9 `
& t7 V9 ?  q2 ]  k
  一个家庭发现自己被他们八岁儿子想象中的朋友吓坏了。% D0 \2 w- i  r( O# o
  A family find themselves terrorized by their eight-year-old son's imaginary friend.- R+ [4 s$ O+ B1 _8 f
Video
9 ]3 f' v. ?4 r1 o& Z! ^3 D5 F  kID                                       : 1/ R& d- w2 r9 |* a7 ?
Format                                   : AVC' \$ G% q/ |: ^1 d# |1 D' H+ [( X6 s
Format/Info                              : Advanced Video Codec
. o( k5 _) k. o6 ~% M# DFormat profile                           : High@L4.15 s- K+ a" U4 P- T/ T
Format settings                          : CABAC / 4 Ref Frames4 B6 Q7 i" f+ P" D  I% n
Format settings, CABAC                   : Yes
3 V1 v7 h1 r; ?4 c! H- gFormat settings, Reference frames        : 4 frames$ j& ]$ J$ }8 J* c! B1 `2 R& R' O
Codec ID                                 : V_MPEG4/ISO/AVC
& O9 I) r3 b2 Y* l$ k0 ~3 SDuration                                 : 1 h 23 min; E7 T: b* N" s5 M
Bit rate                                 : 11.5 Mb/s3 p, m/ I3 j0 I  R0 \8 o$ A: S
Width                                    : 1 920 pixels  c7 y' M1 A4 [0 H  E% h5 c, {
Height                                   : 816 pixels6 O; c! Y% Z+ ?" i" f" @5 Z; S
Display aspect ratio                     : 2.35:1/ c' \% d( S5 D
Frame rate mode                          : Constant
( f* }0 b) X7 p. @& VFrame rate                               : 23.976 (24000/1001/37687) FPS1 g# `% t! {% I5 ]* |; j
Color space                              : YUV
  m1 i! W% r5 y/ {. e! [Chroma subsampling                       : 4:2:0
8 k3 c7 [/ c2 @4 J" _Bit depth                                : 8 bits
# o2 J: B. H% OScan type                                : Progressive5 u& e5 p; K2 D/ ^+ E  s
Bits/(Pixel*Frame)                       : 0.3060 w$ F; f1 j* ]1 j- ]1 j
Stream size                              : 6.68 GiB (87%)
; G. O  Y. O5 T- a2 E/ [- c/ ETitle                                    : Z.2019.1080p.BluRayCD.x264.DTS-HD.MA.5.1-FGT9 z" s8 B4 f: ?4 B  g
Writing library                          : x264 core 148 r2748 97eaef2; I7 V6 o( V; ~6 @2 a! A1 S( e
Encoding settings                        : cabac=1 / ref=4 / deblock=1:-2:-2 / analyse=0x3:0x113 / me=umh / subme=9 / psy=1 / psy_rd=1.00:0.15 / mixed_ref=1 / me_range=16 / chroma_me=1 / trellis=2 / 8x8dct=1 / cqm=0 / deadzone=21,11 / fast_pskip=1 / chroma_qp_offset=-3 / threads=72 / lookahead_threads=3 / sliced_threads=0 / nr=0 / decimate=1 / interlaced=0 / bluray_compat=0 / constrained_intra=0 / bframes=3 / b_pyramid=2 / b_adapt=1 / b_bias=0 / direct=3 / weightb=1 / open_gop=0 / weightp=2 / keyint=250 / keyint_min=25 / scenecut=40 / intra_refresh=0 / rc_lookahead=50 / rc=2pass / mbtree=1 / bitrate=11500 / ratetol=1.0 / qcomp=0.60 / qpmin=0 / qpmax=69 / qpstep=4 / cplxblur=20.0 / qblur=0.5 / vbv_maxrate=31250 / vbv_bufsize=31250 / nal_hrd=none / filler=0 / ip_ratio=1.40 / aq=1:1.00# h( w/ f4 J8 O& o% \$ |
Language                                 : English/ s' @& }, }( p$ X, H
Default                                  : Yes0 i$ N1 Q" ^+ E4 @
Forced                                   : No( t9 t# U4 ?) P: J5 F! W1 s

* R/ U2 v1 K' N8 i2 l" mAudio9 m" m  m, G% v( d* h
ID                                       : 2
0 H; F+ o7 m' v. UID in the original source medium         : 4352 (0x1100)  q. y! m+ e' ^/ v, [% y
Format                                   : DTS XLL% U! c) J; i, k) [; d* g; O
Format/Info                              : Digital Theater Systems
# c( S5 z' I0 d: e- j5 ^Commercial name                          : DTS-HD Master Audio: M$ T3 N! Y+ x5 Q3 p" S
Codec ID                                 : A_DTS
, a8 f$ v$ V# C9 }& sDuration                                 : 1 h 23 min
2 V: d8 S  J) F: b% M# iBit rate mode                            : Variable  z9 m4 p. v* Z$ ^6 h1 Y' m
Bit rate                                 : 1 767 kb/s
6 F" {" S8 c7 n0 [3 wChannel(s)                               : 6 channels( R- f% k# n% L
Channel layout                           : C L R Ls Rs LFE1 `- W* m8 q7 k2 h, k; m
Sampling rate                            : 48.0 kHz- S5 E& l" W; j' s: ]0 G
Frame rate                               : 93.750 FPS (512 SPF)
  W) n6 X, F. _. N; l0 bBit depth                                : 24 bits, [, Z* h: A1 t; f) Y" `
Compression mode                         : Lossless
- I! f) Z! c" U0 CStream size                              : 1.03 GiB (13%)7 e0 I; m) p# ^8 y, f
Title                                    : Z.2019.1080p.BluRaycd.x264.DTS-HD.MA.5.1-FGT1 x6 ~7 Y# ~# |
Language                                 : English9 \, j( W* z, `# R; Y5 g
Default                                  : Yes
" I& t0 D8 u8 o% qForced                                   : No
: z" J( E+ [0 M1 J* m. bOriginal source medium                   : Blu-ray: S3 `3 K" I' I& _. [
8 y( c4 h- }" n( [3 \( b
Text #1: q2 n6 a% T3 _& k- r9 F0 @* E
ID                                       : 3
4 B* T: e! D" s$ `Format                                   : UTF-8
) |1 u" x. g1 D) TCodec ID                                 : S_TEXT/UTF8
7 W- u; F* `1 vCodec ID/Info                            : UTF-8 Plain Text
% @) r- {1 g' S' EDuration                                 : 1 h 20 min
' ~; r- S1 k$ y# W& vBit rate                                 : 31 b/s
& m" _/ i' D0 i3 v6 q0 S9 n& F# b9 T' oCount of elements                        : 9122 {. n: c5 T* z# D
Stream size                              : 18.7 KiB (0%)( }( p  q- W9 P9 H  r' ~1 [
Title                                    : English-SRT
) j8 l7 W8 M- A4 N+ M8 ^Language                                 : English
3 W! K2 [/ T; B; q4 CDefault                                  : Yes, {( J# `# X( R/ w2 I; Y
Forced                                   : No, _, ]# G2 D. |& Z& y

/ t1 d# ?, P4 ~4 [! u1 DText #2
/ _2 X6 q! Q" p5 IID                                       : 4' u2 n/ t2 d! P9 p3 d8 ]: c
ID in the original source medium         : 4608 (0x1200)
1 C3 D5 E4 g5 CFormat                                   : PGS
$ q0 q+ r  H. v" C- C8 C! UMuxing mode                              : zlib
0 O. b7 n+ @& xCodec ID                                 : S_HDMV/PGS7 \3 A/ I$ ?' ~/ e  L
Codec ID/Info                            : Picture based subtitle format used on BDs/HD-DVDs
: w5 J& a7 `2 B, T- \Duration                                 : 1 h 23 min0 U" e- L) q' K$ p$ f/ b
Bit rate                                 : 18.0 kb/s
. B+ |- c! |1 ]3 f( _# iCount of elements                        : 2524
+ p* y$ P+ o, RStream size                              : 10.7 MiB (0%)
6 P6 n2 ~2 [2 }6 E: l+ _. pTitle                                    : English-PGS$ _; `  k: M3 ~" g, b
Language                                 : English
( w' s( Z5 X8 t9 o0 @2 @- b! }" GDefault                                  : No' Q* t4 S" u; s, A, j7 O5 K: v
Forced                                   : No2 M/ P, m: F! E; ^5 Q
Original source medium                   : Blu-ray0 K- A8 h$ h5 ^6 H0 E  p

/ ^; E- N: t$ z* M5 ]" O& |Text #3
+ W% N+ v) o) gID                                       : 52 ]+ c. A7 Z7 r) r0 c4 A" e& O
ID in the original source medium         : 4609 (0x1201)! |5 M! n/ X5 v' C! O. x) ]
Format                                   : PGS
0 y1 H" i; ]( D( sMuxing mode                              : zlib" ^' _! Y/ B1 b
Codec ID                                 : S_HDMV/PGS* X  G' }; [+ N( y; M4 a
Codec ID/Info                            : Picture based subtitle format used on BDs/HD-DVDs2 v% r5 ]1 ^" x; |" u( [7 l
Duration                                 : 1 h 18 min9 H2 P1 y8 X8 e+ L
Bit rate                                 : 12.4 kb/s
; q" x, D& ], \6 f1 ZCount of elements                        : 15442 R; C( C! q3 Q. S# b/ f
Stream size                              : 6.96 MiB (0%)4 C9 g0 n2 ?# y
Title                                    : Spanish-PGS: m7 g# |0 _) ~8 N# p* ~: I
Language                                 : Spanish
- u. t" R# q, X* X' EDefault                                  : No
7 z0 O8 W% ]) lForced                                   : No0 W- h4 z+ p% E& p6 a
Original source medium                   : Blu-ray
% |# W, _3 f/ g$ E3 q+ n! r! C) E
) M+ {2 |! @) a' KMenu
9 J4 c( d, V- l% v" Y8 R* H00:00:00.000                             : en:Chapter 01$ N: ?; E* w, f' ]0 V2 N
00:13:24.637                             : en:Chapter 02
8 [  e  \* E0 r00:24:32.762                             : en:Chapter 03' i2 T# X- [. Y$ _. s8 }: f4 _
00:36:11.752                             : en:Chapter 041 m6 ?: g, Y& s% }% V2 \
00:50:40.245                             : en:Chapter 053 w6 }6 w* O. m0 ~+ i
01:00:55.860                             : en:Chapter 06
* [0 N$ H1 k- V8 s6 [/ y01:13:23.774                             : en:Chapter 070 u0 V; `& Z2 a
01:20:03.632                             : en:Chapter 08

' n( ?7 X+ h- u% l% k( a0 M& C  y- c/ E
游客,查看本帖隐藏内容请回复 | 加入VIP贵宾组可免积分免回复下载 了解详情 | 还不是会员:点击获取邀请码 Invitation Code

本版积分规则

小黑屋|Archiver|蓝光电影资源网

GMT+8, 2020-10-29 04:46

快速回复 返回顶部 返回列表