BluRayCD Forum

 找回密码
 立即注册【分享大片】

QQ登录

只需一步,快速开始

查看: 14|回复: 1
收起左侧

[剧情悬疑] 传输失败 Lost Transmissions 2019 1080p BluRaycd x264 DTS-HD MA 5.1-FGT 10.53GB & 13.15GB

[复制链接]

3897

主题

4271

帖子

3万

积分

Post Share

金币
7316 枚
体力
6584 点

卓越贡献勋章

mvods 发表于 2020-9-8 21:21:52 | 显示全部楼层 |阅读模式
5 Y# a( U8 }4 }
+ i, ]2 P; V% M" A) F& c
◎译  名 传输失败
4 e+ O* Q- x4 D3 K  D- o2 Z! X◎片  名 Lost Transmissions* i2 L9 \8 P; R" V  l6 Z
◎年  代 2019# _8 \# L! {1 O% }
◎产  地 美国9 c4 l% |8 Y$ s$ ?4 l
◎类  别 剧情
: ~2 c" _4 R( A) P& v: {# E2 U◎语  言 英语
5 x1 a3 h) O. r2 D8 `6 y3 C3 H◎上映日期 2019-04-28(翠贝卡电影节)
. ~: w1 o; U& j◎IMDb评分  5.0/10 from 567 users
7 p  W% y6 i' I◎IMDb链接  https://www.imdb.com/title/tt6744360/2 H" T; l) t- E0 g5 P, }
◎豆瓣评分 5.5/10 from 330 users8 _0 e- I- }: O; E# F8 ~
◎豆瓣链接 https://movie.douban.com/subject/27019767/
4 v" K2 C0 f: [1 q! O8 U% U( l◎片  长 1 h 43 min! t" `0 ?! i/ y) h$ G
◎导  演 凯瑟琳·奥布莱恩 Katharine O'Brien: k9 u4 c0 ]' `& ?% K' Y
◎编  剧 凯瑟琳·奥布莱恩 Katharine O'Brien: m1 n9 A; j5 h: X2 F, x1 w
◎主  演 朱诺·坦普尔 Juno Temple' d& v* D2 \$ ^! s
       亚历珊德拉·达达里奥 Alexandra Daddario
1 M9 _- w, I" q& Z- p& ]& c+ _       西蒙·佩吉 Simon Pegg1 p4 q3 k: h/ r5 L7 L  M
       罗姗娜·阿奎特 Rosanna Arquette
4 }* h8 `$ |; ]3 r' t& X       布丽娅·维纳特 Bria Vinaite7 {, \( |0 V8 E, A4 p6 S
       冈本多绪 Tao Okamoto7 @* n5 x& m& I% T
       罗伯特·舒瓦兹曼 Robert Schwartzman8 F0 m# Q7 Y' N2 m) V
       丽贝卡·哈泽伍德 Rebecca Hazlewood
. c5 N5 T7 z) q  Q6 q  C7 Y       格兰特·哈维 Grant Harvey
3 c) m2 a- N+ |2 o6 |! D. I( G" _       杰米·哈里斯 Jamie Harris$ ]- Z  C, ]: `# Y
       丹尼·拉米雷斯 Danny Ramirez
6 l) ~5 Y. ^4 f( O# L       格温德琳·穆兰巴 Gwendolyn Mulamba
0 A- J! F* Q: f3 C) ]; y& `6 Y       雅各布·罗博 Jacob Loeb
$ {- Y( l% _0 R
6 R+ F0 E' J3 l+ K& X$ D0 m" j! _◎标  签 美国 | 剧情 | 2019 | 西蒙·佩吉 | 美国电影 | siff | SimonPegg | 电影
: o. ?/ ~- q! \* x' U  p. D
$ x" S, }. t' ^3 y4 w7 E$ N' W/ w◎简  介  # v& }' e# y3 C" y
3 h7 y/ Y" b, k6 c2 c  S7 ^9 m! H
  在一个聚会上,作曲人汉娜遇到了西奥。后者是一个著名制片人,诙谐有趣。但是当两人的友谊和联合创作开始升温时,西奥开始性情大变。汉娜很快了解到,他患有精神分裂症,一停药就会陷入妄想,开始出现各种各样的幻觉。西奥的情况越来越糟,他开始远离洛杉矶的音乐圈。这时,汉娜仍然不离不弃,决心阻止西奥抛弃他的事业和人生。她一面在洛杉矶四处追寻西奥,想让他前去治疗,一面应对美国漏洞百出的医疗体系。与此同时,她还要兼顾自己的事业,为一个冉冉升起的流行歌手创作新的热门单曲。
; z) U7 A1 D, I! h5 T% A( ^" H
; ?0 N/ F+ v7 o9 w) D+ F" h8 v  When an acclaimed music producer goes off his medication for schizophrenia, his friends chase him though the LA music scene to help commit him to a psychiatric hospital, revealing the troubling inadequacies of our mental health care system.: @- @, `  E! |- l
Video
/ u" S2 c8 L' z) eID                                       : 1
$ }. C% F  q4 K5 N' b) w2 j. LFormat                                   : AVC$ _6 j' ?# o9 M! B
Format/Info                              : Advanced Video Codec. e; ~: e  ], b* z. z+ a
Format profile                           : High@L4.1
1 Y; \; }1 a/ R/ O8 S4 G+ tFormat settings                          : CABAC / 4 Ref Frames1 b4 S+ P6 L+ Q% e
Format settings, CABAC                   : Yes7 U7 O# r: Q: P7 B
Format settings, Reference frames        : 4 frames: T6 P1 D( F* c% s! [
Codec ID                                 : V_MPEG4/ISO/AVC; |- u1 f9 Y/ r' K0 e8 B6 _) M9 J
Duration                                 : 1 h 43 min. |3 P, R1 j, k) o- G2 y) H
Bit rate                                 : 11.5 Mb/s4 g  O7 y1 i$ N2 b5 j: `4 [
Width                                    : 1 800 pixels
7 d+ I% v( C& T& ?5 ~Height                                   : 1 080 pixels( v5 e2 x0 r) p; I
Display aspect ratio                     : 5:3
6 u2 E" C$ V& X$ a. ^5 \9 w( I$ hFrame rate mode                          : Constant, R: t9 Q! }- Z: c5 T: R$ P
Frame rate                               : 23.976 (24000/1001/37687) FPS
* Z* b0 a1 n* ^+ ?# y% Y: PColor space                              : YUV8 b" Z) D- n/ m$ @( w, p
Chroma subsampling                       : 4:2:0
; l, t% t& ~3 \Bit depth                                : 8 bits4 H( a% ?- @7 G. k+ c
Scan type                                : Progressive6 C# q: @* b  ~! V, M5 B
Bits/(Pixel*Frame)                       : 0.247
) z# D$ D- w. ^9 h# O5 rStream size                              : 8.29 GiB (79%)
1 R- J- T/ G/ l' vTitle                                    : Lost.Transmissions.2019.1080p.BluRayCD.x264.DTS-HD.MA.5.1-FGT
0 ~7 S. m: Y& n- f7 |8 e8 |0 Z8 H) KWriting library                          : x264 core 148 r2795M aaa9aa8$ J5 v9 Y# V$ X' b* x
Encoding settings                        : cabac=1 / ref=4 / deblock=1:-2:-2 / analyse=0x3:0x113 / me=umh / subme=9 / psy=1 / psy_rd=1.00:0.15 / mixed_ref=1 / me_range=16 / chroma_me=1 / trellis=2 / 8x8dct=1 / cqm=0 / deadzone=21,11 / fast_pskip=1 / chroma_qp_offset=-3 / threads=72 / lookahead_threads=3 / sliced_threads=0 / nr=0 / decimate=1 / interlaced=0 / bluray_compat=0 / constrained_intra=0 / bframes=3 / b_pyramid=2 / b_adapt=1 / b_bias=0 / direct=3 / weightb=1 / open_gop=0 / weightp=2 / keyint=250 / keyint_min=25 / scenecut=40 / intra_refresh=0 / rc_lookahead=50 / rc=2pass / mbtree=1 / bitrate=11500 / ratetol=1.0 / qcomp=0.60 / qpmin=0 / qpmax=69 / qpstep=4 / cplxblur=20.0 / qblur=0.5 / vbv_maxrate=31250 / vbv_bufsize=31250 / nal_hrd=none / filler=0 / ip_ratio=1.40 / aq=1:1.00
0 @& Q6 x* L1 C; k/ H/ p" @" XLanguage                                 : English
, x. J; \0 p. U9 w4 DDefault                                  : Yes
" N4 N8 k- U  G' yForced                                   : No( x4 E: M# x- s8 f* ]5 E: h# k  b9 [
. P6 ?, o/ y' T  H8 P# w
Audio
7 p  X$ Q; g$ D+ @% U4 pID                                       : 2# w2 g% b  r1 W! L9 D. r: L7 t
Format                                   : DTS XLL; c, |- U" H7 b/ B1 V2 \1 L" ?6 k
Format/Info                              : Digital Theater Systems
, L% x. G, p- s! S( I; c2 NCommercial name                          : DTS-HD Master Audio
0 t( H/ r/ [# K+ l- cCodec ID                                 : A_DTS& x# o6 Z" L# ?& [3 H* S$ }$ _
Duration                                 : 1 h 43 min- q6 c+ H; P- `3 _2 L* b5 |
Bit rate mode                            : Variable
0 V0 f! f! V! V  G9 s- Y8 ~' _. JBit rate                                 : 3 087 kb/s& J8 V% ]- W# T* V3 I$ V( L# z  @  _
Channel(s)                               : 6 channels
: t) h6 F6 q% L- [Channel layout                           : C L R Ls Rs LFE
. ]9 K1 ?& B! P4 rSampling rate                            : 48.0 kHz0 n+ O, H6 I$ l4 T' F7 O' W
Frame rate                               : 93.750 FPS (512 SPF)  n; n# }3 r6 d: I* x
Bit depth                                : 24 bits. o. L  i1 a! G5 ]! e7 s
Compression mode                         : Lossless8 M# s9 o" T+ R* f3 }+ y' [  {
Stream size                              : 2.23 GiB (21%)% C6 w3 d/ C3 K3 T* s9 Y( f4 m6 F$ k5 m
Title                                    : Lost.Transmissions.2019.1080p.BluRaycd.x264.DTS-HD.MA.5.1-FGT; b8 d2 s+ p9 `& x) v9 [# n
Language                                 : English9 w" o" ~, f9 U; h# R# [) l
Default                                  : Yes
" B$ L! ?) L% |6 e$ wForced                                   : No) L  h. I6 ^" q' `9 y! X
+ g9 n. n) t2 H* c/ j
Text #1- [; Q- u7 I2 B
ID                                       : 34 f$ c% P7 c5 S# ?) @- n, y
Format                                   : UTF-8
+ }) V+ D+ ]2 W. V6 [9 E$ N. a4 aCodec ID                                 : S_TEXT/UTF87 f  B! M+ ^/ d
Codec ID/Info                            : UTF-8 Plain Text
9 m) k, s* ~. w9 Z' Q% i5 cDuration                                 : 1 h 41 min  @  B& M* y8 l& @, J% _
Bit rate                                 : 61 b/s! s$ m7 A: Q4 R6 @* A8 g( C% t
Count of elements                        : 1439
  _+ F5 O* a  ^Stream size                              : 45.5 KiB (0%)8 Q8 v+ Y0 R2 R* C% P
Title                                    : English-SRT
' Y  v8 D# c; ?& }Language                                 : English6 P6 K( [0 l+ K$ a! ]3 p/ L
Default                                  : Yes
% n! J6 X, W/ n$ s. a1 P; A6 v' KForced                                   : No$ y. Z3 F6 X" b! p( d

' x5 d1 @# z& b) [$ F1 O% RText #2
4 _0 J# r8 {6 E# MID                                       : 42 u7 _. p8 P2 s( M
Format                                   : PGS  ~4 l; J8 V  a0 P
Muxing mode                              : zlib
* v# m0 Q; V% f* _' R1 D+ ~Codec ID                                 : S_HDMV/PGS/ R! b. R: ]' e. u4 Q5 Y5 w- X
Codec ID/Info                            : Picture based subtitle format used on BDs/HD-DVDs1 w; `6 @) W- Y3 ~
Duration                                 : 1 h 41 min- J: [+ f! l. n
Bit rate                                 : 37.2 kb/s
' U9 R0 E, r9 B+ e7 c( I% l, {' C& x+ WCount of elements                        : 3094* p! a. `; }& X- y* z( g
Stream size                              : 27.0 MiB (0%)
4 J0 y/ l! \  h+ y8 _2 a, ], U7 m3 FTitle                                    : English-PGS! _7 w5 `- U7 f$ h) W( B" ?! g  g
Language                                 : English
! Y3 V; h/ Z" M+ FDefault                                  : No
; E" e2 k" f& x& L( v% s# S; KForced                                   : No
/ d! K% H6 V5 f9 k
, v- L1 N2 ^7 @/ u2 y) c8 IMenu
  Y2 E+ d- z* L5 V. |. r* l00:00:00.000                             : en:Chapter 01
, J, R/ j+ P$ U! ?; A00:12:25.203                             : en:Chapter 02" \2 B- ^; G+ k- |6 k7 [4 L) O
00:20:31.147                             : en:Chapter 03
* I- G1 k2 k1 D/ u$ p5 d00:32:26.403                             : en:Chapter 04
1 o9 H. I7 u0 Z: e1 M2 t- Z5 u0 B00:43:48.292                             : en:Chapter 05/ A) h" p! d4 F" Q9 T* N" A
00:55:42.756                             : en:Chapter 06; A1 b5 a8 c9 I) {
01:03:00.986                             : en:Chapter 078 l# W, ^' i4 a- _- q
01:11:23.154                             : en:Chapter 08
2 j; c3 Y! I3 r8 M01:19:26.387                             : en:Chapter 09
# f' S' e8 [9 Y% @- Z* L% O/ U01:30:57.702                             : en:Chapter 10
1 q- B% [! S+ {5 E) {: ?/ C6 L  h01:37:52.241                             : en:Chapter 11
Video2 q) Z( K5 j' c& e
ID                                       : 1
2 C  L3 w& X& [2 q7 q1 d- S+ bFormat                                   : AVC
; l* ~2 n7 r: @, O3 N4 c! zFormat/Info                              : Advanced Video Codec! u5 G# u2 H) Q4 u8 K* F
Format profile                           : High@L4.17 E/ V6 Q/ i  _1 @6 j" l! ^
Format settings                          : CABAC / 4 Ref Frames
7 v& f8 Y3 R! b! Q( ~! U1 {Format settings, CABAC                   : Yes
  ^6 e4 k$ ~* V8 J' u- FFormat settings, Reference frames        : 4 frames
7 i& V% o( Q  TCodec ID                                 : V_MPEG4/ISO/AVC
! @- ^& w* Y2 I: W% j2 Z8 t. gDuration                                 : 1 h 43 min: x) E$ G/ d  k6 {" D
Bit rate                                 : 15.1 Mb/s2 T3 q6 l: `& `2 \3 e( y
Width                                    : 1 800 pixels* n& ]0 T2 C  r: y# t1 b  M! B6 f
Height                                   : 1 080 pixels7 {9 q6 w% W4 `% A" R& m
Display aspect ratio                     : 5:38 b- K+ b& l( L! n; I2 c" R
Frame rate mode                          : Constant2 y& @: e7 \* n  d
Frame rate                               : 23.976 (24000/1001/37687) FPS
  {# e* M* f% `1 U6 AColor space                              : YUV4 L% q1 f3 {8 u* C! S
Chroma subsampling                       : 4:2:0$ p* h& g; I" V  p! j
Bit depth                                : 8 bits
1 Z( r7 t4 }1 f7 E$ [8 IScan type                                : Progressive7 J: ~4 C, S9 \9 d+ Y8 [/ g% e& `
Bits/(Pixel*Frame)                       : 0.324; J# U2 z/ m1 v0 Q! J
Stream size                              : 10.9 GiB (83%)7 K5 _! o; Q7 \9 J5 B* z+ D6 b
Writing library                          : x264 core 160 r3009 4c9b076
; f: B: d8 I9 H) v$ Q7 K9 M; ^( D% GEncoding settings                        : cabac=1 / ref=4 / deblock=1:-3:-3 / analyse=0x3:0x133 / me=umh / subme=9 / psy=1 / psy_rd=1.00:0.00 / mixed_ref=1 / me_range=32 / chroma_me=1 / trellis=2 / 8x8dct=1 / cqm=0 / deadzone=21,11 / fast_pskip=0 / chroma_qp_offset=-2 / threads=34 / lookahead_threads=5 / sliced_threads=0 / nr=0 / decimate=0 / interlaced=0 / bluray_compat=0 / constrained_intra=0 / bframes=9 / b_pyramid=2 / b_adapt=2 / b_bias=0 / direct=3 / weightb=1 / open_gop=0 / weightp=2 / keyint=250 / keyint_min=23 / scenecut=40 / intra_refresh=0 / rc=crf / mbtree=0 / crf=17.5 / qcomp=0.60 / qpmin=0 / qpmax=69 / qpstep=4 / ip_ratio=1.40 / pb_ratio=1.30 / aq=3:0.70
8 k) z. l! |' T/ N% I& s0 zDefault                                  : Yes( |* P* D5 q1 F. B4 z  a9 I0 l6 O
Forced                                   : No* x7 b1 T0 A/ Q
Color range                              : Limited
1 i) W' `4 f5 |& M) a9 IMatrix coefficients                      : BT.709
+ U, Z: J$ |# e% F3 [: r0 I7 r6 @2 C7 r9 M( F- g6 ^
Audio2 f( J$ ^( p/ _- e$ D, [! n
ID                                       : 2
7 K8 F4 d3 |4 H$ e% O  F5 PFormat                                   : DTS XLL  ^1 n0 u4 n; _1 t# S
Format/Info                              : Digital Theater Systems" q. G" M+ C( I/ v$ y: i" O
Commercial name                          : DTS-HD Master Audio
# C, X3 `* z& Y, ICodec ID                                 : A_DTS
1 G1 V" l5 f5 j1 y3 _, E' ~; sDuration                                 : 1 h 43 min0 C$ ^  b" P% h( @$ O
Bit rate mode                            : Variable4 f9 M+ P5 z1 m* g: c
Bit rate                                 : 3 087 kb/s7 v! V2 Y+ v2 L
Channel(s)                               : 6 channels% w& A; T, B6 N1 Z
Channel layout                           : C L R Ls Rs LFE& A$ b9 @' m, V6 ~. j4 b4 i, S
Sampling rate                            : 48.0 kHz, J* j1 o, @" g  E
Frame rate                               : 93.750 FPS (512 SPF)9 g8 ^6 ^/ ~0 z. a+ n  J; Q  `
Bit depth                                : 24 bits6 J, E' E0 G2 c: z" H; T* w2 m
Compression mode                         : Lossless' c# F/ r7 k% Y- g7 c
Stream size                              : 2.23 GiB (17%)
9 M$ a% G3 b0 H; f/ z6 h. [, ATitle                                    : English7 U  c8 m& D# F( t4 Z
Language                                 : English, P. w6 L% ~: F/ K) ]
Default                                  : No) A, B& E) w& g& _" X( [
Forced                                   : No/ t6 `1 a2 p; u' ?
1 U* [) @/ H- [& }
Text4 G0 A) L/ G1 k% S+ U* y3 G
ID                                       : 3+ n% e. B( G% I
Format                                   : PGS6 z% o1 X# j2 r1 Z- S
Muxing mode                              : zlib
9 h5 H9 C6 V% J% J. r3 C9 uCodec ID                                 : S_HDMV/PGS' j+ C( O+ T# h
Codec ID/Info                            : Picture based subtitle format used on BDs/HD-DVDs
% s- O6 i+ b5 S5 N7 aDuration                                 : 1 h 41 min7 [- o( j* q4 m6 D- W( V
Bit rate                                 : 37.2 kb/s) }' P- @7 J: r- e7 J" |
Count of elements                        : 3094
" r% d- T: T/ @9 u" `5 \9 [6 mStream size                              : 27.0 MiB (0%)
6 N: _- t0 S! x4 T0 b- @Title                                    : English SDH2 w: m8 u) i: g. F  ?
Language                                 : English; c# U- ]4 h* _$ b$ B
Default                                  : No
" B7 a2 k* F5 gForced                                   : No
( y1 l7 G4 }: A  z
. Y# ?8 Y: x# {% n! pMenu$ d- c' Z/ e) l" `" n9 s
00:00:00.000                             : en:Chapter 01. x5 E3 y* H' }6 j! P$ m
00:12:25.203                             : en:Chapter 02) y5 ~8 j8 I7 V5 F1 ~
00:20:31.147                             : en:Chapter 03) p( y% {/ `& t9 B* A& H
00:32:26.403                             : en:Chapter 04
3 q" @( v0 }2 o  m" W0 n00:43:48.292                             : en:Chapter 05
4 A  _1 R2 t1 w- i* ?/ {00:55:42.756                             : en:Chapter 06
9 v- ]+ V1 Q4 W0 p0 H9 E3 [01:03:00.986                             : en:Chapter 07  k; ?& h1 r" s# F
01:11:23.154                             : en:Chapter 08
) M1 w1 X; M, g4 R9 g( @4 S5 I01:19:26.387                             : en:Chapter 09
9 S+ ~( p4 }4 L$ N# ~( U01:30:57.702                             : en:Chapter 10, v' Q5 e* H; b+ S, h
01:37:52.241                             : en:Chapter 11
7 G* d, X' R/ F. j; s4 z4 q0 M- r. v
Lost.Transmissions.2019.1080p.BluRaycd.x264-LATENCY8 ?7 m* g( q3 [* p

9 a5 ?1 S7 Y+ z  G; i. {imdb  : https://www.imdb.com/title/tt6744360/
9 ]' d4 V  ?4 h# w' a- M' Q7 i: _$ I$ C# z! {, X
video :1800x1080 @ 15124kb/s - crf: 17.56 Q$ Y& X  t& @- X5 j
source: 26590kb/s. B0 n  \) g/ e
%-age :56.88%
' D: h$ G8 ~9 W7 b6 Naudio :English DTS-HD MA 3087kb/s
. `  F3 f! L: ?9 F9 Psubs  :English SDH (PGS)- O. L7 e' f2 Z! m
time  :1 h 43 min
$ K( u- E/ m+ Y! d8 N$ osize  :13.1GB$ o' i8 N; t$ W) U
notes :3 y/ q3 d0 S* P. ]6 G
NFO by LATENCY (v.1.0)
( N5 p# O7 ?1 I' i% j* h9 K: S
游客,查看本帖隐藏内容请回复 | 加入VIP贵宾组可免积分免回复下载 了解详情 | 还不是会员:点击获取邀请码 Invitation Code

0

主题

194

帖子

1034

积分

Sponsor

金币
157 枚
体力
502 点
2475017 发表于 2020-9-12 16:31:32 | 显示全部楼层
多謝師兄分享% ?! d& W& Y5 O3 a  a! [
该会员没有 ...

本版积分规则

小黑屋|Archiver|蓝光电影资源网

GMT+8, 2020-10-29 12:37

快速回复 返回顶部 返回列表