BluRayCD Forum

 找回密码
 立即注册【分享大片】

QQ登录

只需一步,快速开始

查看: 47|回复: 0
收起左侧

[剧情悬疑] 传输失败 Lost Transmissions 2019 720p BluRaycd x264-LATENCY 5.57GB

[复制链接]

3897

主题

4271

帖子

3万

积分

Post Share

金币
7316 枚
体力
6584 点

卓越贡献勋章

mvods 发表于 2020-9-8 21:27:03 | 显示全部楼层 |阅读模式
01.jpg # A8 U% ]# U+ n4 z- u

- o6 `% L5 `* v  u◎译  名 传输失败
, N: J, \% \. Q# z) [1 N; a/ o◎片  名 Lost Transmissions
( `( ?$ t1 [! ]  Z. _! f◎年  代 2019
2 Z# h7 e6 `; Z% p' y! C# I8 A◎产  地 美国
: C8 [. K( q- m◎类  别 剧情
7 h0 C7 `. T, b4 o$ A# b7 a6 @◎语  言 英语$ i  J0 X* Y( J
◎上映日期 2019-04-28(翠贝卡电影节)
% D1 ?! `, ]4 h" \◎IMDb评分  5.0/10 from 567 users
* a9 M" t4 n. ~◎IMDb链接  https://www.imdb.com/title/tt6744360/- ~) B6 w4 e- N
◎豆瓣评分 5.5/10 from 330 users
; Y) q& Q, m" Y" I9 x0 U' e1 f◎豆瓣链接 https://movie.douban.com/subject/27019767/
1 g8 O- P; ?3 M3 V/ a* q" b◎片  长 1 h 43 min: k$ D  ^' F+ D, b, O& p/ A
◎导  演 凯瑟琳·奥布莱恩 Katharine O'Brien
( g! H, }; I% v◎编  剧 凯瑟琳·奥布莱恩 Katharine O'Brien
4 c) V6 |- |2 Z. D2 a$ W9 _; Z◎主  演 朱诺·坦普尔 Juno Temple# R' T( Y  O. o# I" t$ n
       亚历珊德拉·达达里奥 Alexandra Daddario
0 s$ j# y; K& H" h       西蒙·佩吉 Simon Pegg2 o5 W! p! j, `" n$ C' q, V
       罗姗娜·阿奎特 Rosanna Arquette
0 J* i  X" z( K       布丽娅·维纳特 Bria Vinaite6 W% R7 C" P0 ]2 n
       冈本多绪 Tao Okamoto
/ {) y. X6 g: H2 S       罗伯特·舒瓦兹曼 Robert Schwartzman
/ ~- Q4 y1 V" E0 o       丽贝卡·哈泽伍德 Rebecca Hazlewood! K( Z4 W3 Q4 J
       格兰特·哈维 Grant Harvey
: a" _* Z/ V0 g2 Z       杰米·哈里斯 Jamie Harris
, {/ d( h& m: u$ L7 u2 Z3 W       丹尼·拉米雷斯 Danny Ramirez
  ]# ?, U! B. s% {3 y! [       格温德琳·穆兰巴 Gwendolyn Mulamba7 \/ ^4 a4 H; S& [& i' ^; V- {
       雅各布·罗博 Jacob Loeb/ M! i; j/ q/ b: }2 ]1 D+ D+ h
+ |- p# H9 I: p$ n% ~5 H, C/ _% M8 L( f
◎标  签 美国 | 剧情 | 2019 | 西蒙·佩吉 | 美国电影 | siff | SimonPegg | 电影
6 k1 A) H% g4 M1 X3 Z( w
: t' h* ^5 F+ a3 A8 b) g5 W◎简  介  
; t2 g9 f5 ^* f! y; L- h
9 ^! S: d( j3 M$ W/ D; `7 P5 ]4 N4 z  在一个聚会上,作曲人汉娜遇到了西奥。后者是一个著名制片人,诙谐有趣。但是当两人的友谊和联合创作开始升温时,西奥开始性情大变。汉娜很快了解到,他患有精神分裂症,一停药就会陷入妄想,开始出现各种各样的幻觉。西奥的情况越来越糟,他开始远离洛杉矶的音乐圈。这时,汉娜仍然不离不弃,决心阻止西奥抛弃他的事业和人生。她一面在洛杉矶四处追寻西奥,想让他前去治疗,一面应对美国漏洞百出的医疗体系。与此同时,她还要兼顾自己的事业,为一个冉冉升起的流行歌手创作新的热门单曲。: O; c- r( V8 B1 V

6 b6 |! b9 {2 ~0 p0 A4 z$ h  When an acclaimed music producer goes off his medication for schizophrenia, his friends chase him though the LA music scene to help commit him to a psychiatric hospital, revealing the troubling inadequacies of our mental health care system.; H2 H* ]: p4 b& O: L* |$ P1 a
Video
" z2 o$ l/ D. c' KID                                       : 1; M7 {( z% v2 g5 U: [$ t
Format                                   : AVC" G2 r! V1 d4 g4 x+ o
Format/Info                              : Advanced Video Codec
7 M, ]' S; W: t# |. EFormat profile                           : High@L4.1
/ v. @  P8 \) ^2 H/ V( wFormat settings                          : CABAC / 8 Ref Frames
  U' C4 @) H/ N  \# Q6 CFormat settings, CABAC                   : Yes
, r8 P7 A& I; @/ {/ D' B/ k6 q% OFormat settings, Reference frames        : 8 frames. K; g3 T% L8 c# x( G2 d; S6 k
Codec ID                                 : V_MPEG4/ISO/AVC; j* q5 n9 i4 |) Z
Duration                                 : 1 h 43 min
# {  Q7 l0 S7 p9 w7 ?Bit rate                                 : 7 062 kb/s. B: Q1 s7 A0 X8 k
Width                                    : 1 200 pixels+ W) e3 E4 K6 C* E. z: a
Height                                   : 720 pixels
3 _( g2 T  ~7 N+ L( i* a" zDisplay aspect ratio                     : 5:3
9 d, K  Z9 P! l: Z0 F, _% \Frame rate mode                          : Constant( ?% o' ]9 J& X8 [
Frame rate                               : 23.976 (24000/1001/37687) FPS
$ ?4 v: T$ W% @0 ]Color space                              : YUV
5 r" B& l- O( X+ [. d# q; [  mChroma subsampling                       : 4:2:0  F9 a- F+ M' h8 F$ K- X8 Q
Bit depth                                : 8 bits
* K. w$ c4 o5 v4 D! kScan type                                : Progressive8 k4 G) E! {) j
Bits/(Pixel*Frame)                       : 0.341
% O" z' m, ]% G8 hStream size                              : 5.09 GiB (91%)
4 z9 u) u. V/ W* rWriting library                          : x264 core 160 r3009 4c9b076
) W/ K) w1 T/ N3 g" ~9 F& TEncoding settings                        : cabac=1 / ref=8 / deblock=1:-3:-3 / analyse=0x3:0x133 / me=umh / subme=9 / psy=1 / psy_rd=1.00:0.00 / mixed_ref=1 / me_range=32 / chroma_me=1 / trellis=2 / 8x8dct=1 / cqm=0 / deadzone=21,11 / fast_pskip=0 / chroma_qp_offset=-2 / threads=22 / lookahead_threads=3 / sliced_threads=0 / nr=0 / decimate=0 / interlaced=0 / bluray_compat=0 / constrained_intra=0 / bframes=9 / b_pyramid=2 / b_adapt=2 / b_bias=0 / direct=3 / weightb=1 / open_gop=0 / weightp=2 / keyint=250 / keyint_min=23 / scenecut=40 / intra_refresh=0 / rc=crf / mbtree=0 / crf=16.5 / qcomp=0.60 / qpmin=0 / qpmax=69 / qpstep=4 / ip_ratio=1.40 / pb_ratio=1.30 / aq=3:0.70
+ Z) m. G- R4 n( B3 Z. rDefault                                  : Yes
9 Q" h$ b1 e+ ~% X( n$ Q( mForced                                   : No3 ?# r0 j6 m" `7 L
Color range                              : Limited
$ {- w1 ^- w! B8 yMatrix coefficients                      : BT.7091 H* Q  n+ u/ N' ]: q+ X

3 n) P7 M% J3 FAudio& y9 W$ Q$ c; |& T+ c- r! L
ID                                       : 2
  Q2 h, x  `$ N3 B, MFormat                                   : AC-32 E8 Z% F" w4 a; t8 H* a, F
Format/Info                              : Audio Coding 3
  Z/ O: u% [; D9 ?% O1 VCommercial name                          : Dolby Digital
9 @8 ]$ e) c0 O: Z8 z( m( OCodec ID                                 : A_AC3# G' Z. S7 x. V; h+ P
Duration                                 : 1 h 43 min# `% l, q7 X  e% x0 J  w) l
Bit rate mode                            : Constant$ X% _6 x6 ~6 X# Z" a- ]0 I
Bit rate                                 : 640 kb/s
: y2 o4 r! B6 F& r) F! P, TChannel(s)                               : 6 channels
/ h2 C! P; c- N5 B- g6 w. CChannel layout                           : L R C LFE Ls Rs# J1 ~9 u$ S3 n5 ]  j4 }; K$ }
Sampling rate                            : 48.0 kHz1 S5 I5 I. G# [+ K* ^& U3 I7 A
Frame rate                               : 31.250 FPS (1536 SPF)" r4 H3 w7 c: z6 C
Bit depth                                : 16 bits
1 j0 F& ~+ k0 a7 jCompression mode                         : Lossy8 q- s2 R/ H0 C
Stream size                              : 473 MiB (8%)0 i9 b* h; }' d) m9 C& t  v' r* E% C
Title                                    : English1 l* _/ }5 O8 w; T$ i8 p$ a
Language                                 : English) k7 r: O. ~- W+ f6 q% {! d
Service kind                             : Complete Main
$ y9 b  z, C& i( N+ c; s$ l7 b, I  dDefault                                  : No$ J0 N2 B% b( w5 D7 _
Forced                                   : No) R( @# k* O$ ]7 c7 s" ]

$ ?+ A8 ~) Y  x4 X! b9 P9 e0 u, n( zText
' ?( I; ]6 T0 J' g* yID                                       : 3" b* x( N; Q( O- [
Format                                   : PGS
9 @- K" @9 c" \9 c# e" v; h: x2 ^Muxing mode                              : zlib) O' V7 q/ e4 l; p
Codec ID                                 : S_HDMV/PGS+ }9 E% G6 |) P1 K% w" C# [1 C( ~
Codec ID/Info                            : Picture based subtitle format used on BDs/HD-DVDs
) K& D" t2 {6 x4 v1 n+ ]Duration                                 : 1 h 41 min. M) O$ h. n+ B. z$ ~: Z
Bit rate                                 : 37.2 kb/s4 S2 l* S0 r6 r! j* [3 C  n/ u: V
Count of elements                        : 3094
8 N1 h$ W% m( \0 R' F9 CStream size                              : 27.0 MiB (0%)* m: H. Q5 E. ]0 W0 G- m; E( U
Title                                    : English SDH* v$ I, _6 O+ w( z3 f  u
Language                                 : English
7 X1 |: i2 z! nDefault                                  : No
. B6 q% t5 ^" B% Y- ]Forced                                   : No5 m# E+ G3 g( K& A( A# y

9 Y; f5 a. Z  t) A! DMenu
0 n9 L# V! Y+ ~. F; ]00:00:00.000                             : en:Chapter 01
) o% ]7 n) I  K/ ?00:12:25.203                             : en:Chapter 02$ E! l  g: r7 P. W  h. m
00:20:31.147                             : en:Chapter 03
4 Q* U2 ~5 o& M) w0 U* E. ^* |* [$ ?! f00:32:26.403                             : en:Chapter 04
, B7 R7 I7 P. C1 j1 w* a  s7 f$ Q. I00:43:48.292                             : en:Chapter 05
, h; J) W2 y' U/ [0 L00:55:42.756                             : en:Chapter 06. ?/ G4 m% F4 Q' k
01:03:00.986                             : en:Chapter 07. Z! W' I  Y. U+ W/ E1 E
01:11:23.154                             : en:Chapter 080 N  t" M' q" L# ]/ `* `- M% N
01:19:26.387                             : en:Chapter 09( n- n' A6 P8 M; h6 F/ _
01:30:57.702                             : en:Chapter 10
- g4 c- O) {- R01:37:52.241                             : en:Chapter 11
' a* ]9 J3 y" G$ y
* E* B5 ?$ U% j. CLost.Transmissions.2019.720p.BluRayCD.x264-LATENCY
# s# ]4 O, [3 m6 C5 m) q2 ?0 r5 J8 D4 x& k
imdb  : https://www.imdb.com/title/tt0116601/8 b6 \8 N+ ^% c5 {# N6 y

* s* E: G+ F1 Kvideo :1200x720 @ 7061kb/s - crf: 16.5; k4 l2 C4 z7 H! K* Z
source: 26590kb/s$ s. s+ `+ ?4 W; L9 F8 C
%-age :26.56%
0 c0 L: d% y* U' l) Y1 xaudio :English AC-3 640kb/s
/ B1 h; X3 y8 f1 u% b9 h; dsubs  :English SDH (PGS)) u  s0 @% D$ {8 ]7 [0 D% F; c
time  :1 h 43 min4 V% ^: z) b% q9 J5 F2 m) S
size  :5.57GB
  E# i% O, p/ I2 Z/ ~notes :+ L0 A# j) X8 d2 U2 d, Y/ K" Q) c( n
6 @5 o7 G9 W2 B2 Q6 l
NFO by LATENCY (v.1.0)

% [" o0 }4 O  G: W1 E4 A% V
游客,查看本帖隐藏内容请回复 | 加入VIP贵宾组可免积分免回复下载 了解详情 | 还不是会员:点击获取邀请码 Invitation Code

本版积分规则

小黑屋|Archiver|蓝光电影资源网

GMT+8, 2020-10-29 03:32

快速回复 返回顶部 返回列表