BluRayCD Forum

 找回密码
 立即注册【分享大片】

QQ登录

只需一步,快速开始

查看: 8|回复: 0
收起左侧

[科幻恐怖] 午夜之后/别的东西 After Midnight 2019 1080p BluRaycd x264 DTS-FGT 7.56GB & 11.76GB

[复制链接]

3897

主题

4271

帖子

3万

积分

Post Share

金币
7316 枚
体力
6584 点

卓越贡献勋章

mvods 发表于 2020-9-9 20:53:39 | 显示全部楼层 |阅读模式
) u0 t& i- O# L, q1 p) ^, _4 f7 s
) Q( c$ i# @6 x8 h* T# j  Q& \
◎译  名 午夜之后/别的东西
8 c; M6 Y2 I- D3 A) a+ @8 Y+ T◎片  名 After Midnight / Something Else
- ^1 j! w$ w9 O; }- Q4 [" a◎年  代 2019  D1 `+ k/ ], w8 o
◎产  地 美国; p: C" R, p: l1 z( V+ G- c  L
◎类  别 恐怖
5 _- }$ g3 O# g0 j/ l◎语  言 英语: j0 i8 [  m& Q0 }' ]& m; M
◎上映日期 2019-04-26(Tribeca Film Festival)9 e- U9 u* p5 I1 E3 U5 p/ |
◎IMDb评分  5.3/10 from 2,102 users
( c8 j* w8 Z' e7 W4 v' u' I◎IMDb链接  https://www.imdb.com/title/tt8358220// w2 c& y+ t* r
◎豆瓣评分 4.0/10 from 151 users2 F3 K* e$ c" H# R; v
◎豆瓣链接 https://movie.douban.com/subject/33427061// X; Q$ I; J, b& [+ D. E
◎片  长 1 h 23 min, z3 K! m" X9 P
◎导  演 杰瑞米·加德奈 Jeremy Gardner
# E1 I2 z' T5 v5 V       Christian Stella
( ?& B9 }, p: o1 [& w8 _1 p% r◎编  剧 杰瑞米·加德奈 Jeremy Gardner! g. j& ]  W9 y( n, D+ r: M) t
◎主  演 杰瑞米·加德奈 Jeremy Gardner: [& ?" k9 k6 M/ u7 X% |' G
       布瑞亚·格兰特 Brea Grant
$ b0 R' t& B' \" c/ e2 I7 z1 `       亨利·泽布罗夫斯基 Henry Zebrowski* s# H( _% b! O4 m
       贾斯汀·本森 Justin Benson  |4 z% _' A  S  u- b
       Ashley Song
  l0 U3 V4 W$ a& X. Y2 D# C& N       Nicola Masciotra
/ O# T. ]7 T2 H) G  ]/ _  c       Taylor Zaudtke
6 L. l; v3 G5 o' u# U" ^       Keith Arbuthnot  r$ Q% L- q. ^% R6 G9 f
9 K! W; v7 h& i* z! H0 }; x
◎标  签 恐怖 | 美国电影 | 美国 | 2019 | 惊悚 | 黑色幽默 | 贾斯汀·本森 | 病毒僵尸类变异生物集锦4 C5 U+ Q& G# z$ M

, K9 r- i8 X1 `2 n# W* \" l◎简  介  ! g; t' b, I: K6 N
3 X, d6 U: z% I" [7 q  o. z% g
  当他长期受苦的女友突然消失,留下一张神秘的纸条作为她唯一的解释时,汉克舒适的生活和他的理智开始崩溃。然后,从他家周围的树林里,一些可怕的东西开始试图闯入。
& \' |; ]& E: Z
7 I) p7 T" a; C% [. a$ B& `7 u  When his long suffering girlfriend disappears suddenly, leaving a cryptic note as her only explanation, Hank's comfortable life and his sanity begin to crack. Then, from the woods surrounding his house, something terrible starts trying to break in.
. O' l+ U6 l; B" i9 E
Video5 X! T3 J, Y; b2 b4 y
ID                                       : 1
  f  p. c$ p1 X+ BFormat                                   : AVC* a6 c( \, C+ O
Format/Info                              : Advanced Video Codec% g0 X6 M5 K+ m, P8 B7 j5 p7 o
Format profile                           : High@L4.17 K2 S$ ~7 {$ Y5 j) B& Y
Format settings                          : CABAC / 4 Ref Frames
- Q' S( t) j9 m1 g1 @% \* SFormat settings, CABAC                   : Yes
7 x5 r! @& L) d' s* X  nFormat settings, Reference frames        : 4 frames$ m+ Z  {% I7 t5 {( s
Codec ID                                 : V_MPEG4/ISO/AVC2 U6 {" g4 ^4 N
Duration                                 : 1 h 23 min
/ ~6 ?( R  H# e3 G; {3 YBit rate                                 : 11.5 Mb/s
1 o7 X7 {( v2 f, f/ _( e! @4 rWidth                                    : 1 920 pixels, X! S9 v) l  f: f' v: B+ y
Height                                   : 804 pixels
% r7 X8 p* F* R; WDisplay aspect ratio                     : 2.40:1
0 b( [0 h- [# N% P9 ^; Q+ n; vFrame rate mode                          : Constant
8 c9 v) S8 m, V, D, W+ H- Q- {9 K2 s$ Z( OFrame rate                               : 23.976 (24000/1001/37687) FPS
0 ?5 E, ^% ]4 K% Q  t- S9 LColor space                              : YUV7 Z- |% v; z5 g, }" I1 B
Chroma subsampling                       : 4:2:0" [/ m/ {  N" T, X4 m
Bit depth                                : 8 bits: ]* _6 O7 l9 u. e3 N- Q
Scan type                                : Progressive
: l( Q0 K3 c$ J2 ~6 A2 ^9 m' s9 ZBits/(Pixel*Frame)                       : 0.311; G0 @+ Y: |: M8 ?" `4 s" f) ^/ Q
Stream size                              : 6.68 GiB (88%)
8 y7 V: l) v3 I, C4 J7 ]Writing library                          : x264 core 148 r2795M aaa9aa8% x9 @1 k  [7 {4 c
Encoding settings                        : cabac=1 / ref=4 / deblock=1:-2:-2 / analyse=0x3:0x113 / me=umh / subme=9 / psy=1 / psy_rd=1.00:0.15 / mixed_ref=1 / me_range=16 / chroma_me=1 / trellis=2 / 8x8dct=1 / cqm=0 / deadzone=21,11 / fast_pskip=1 / chroma_qp_offset=-3 / threads=24 / lookahead_threads=3 / sliced_threads=0 / nr=0 / decimate=1 / interlaced=0 / bluray_compat=0 / constrained_intra=0 / bframes=3 / b_pyramid=2 / b_adapt=1 / b_bias=0 / direct=3 / weightb=1 / open_gop=0 / weightp=2 / keyint=250 / keyint_min=25 / scenecut=40 / intra_refresh=0 / rc_lookahead=50 / rc=2pass / mbtree=1 / bitrate=11500 / ratetol=1.0 / qcomp=0.60 / qpmin=0 / qpmax=69 / qpstep=4 / cplxblur=20.0 / qblur=0.5 / vbv_maxrate=31250 / vbv_bufsize=31250 / nal_hrd=none / filler=0 / ip_ratio=1.40 / aq=1:1.00
# I3 @. N& i# ]0 tLanguage                                 : English
; K. l% u! V# B* [  m. c) b5 KDefault                                  : Yes
+ L3 g, k  u5 w2 ?5 SForced                                   : No
1 z3 O3 X* ^" c3 d3 W; k  x/ t5 V% j
# M4 x/ B; l  d3 X! pAudio# U# C5 G* \1 p$ G& E6 p
ID                                       : 2( P5 y' o5 z* `5 Y1 ^& C# w; x
Format                                   : DTS
6 W7 m1 K0 F# C& R" {Format/Info                              : Digital Theater Systems
/ U) q# Q9 c  c4 I3 \/ SCodec ID                                 : A_DTS; T' ]% C* |4 E# u, D1 H
Duration                                 : 1 h 23 min4 ?8 c+ n1 y8 x
Bit rate mode                            : Constant# p6 t& p& ?8 ~4 T, }
Bit rate                                 : 1 509 kb/s, K4 ]8 W/ a( v8 _/ g+ K2 c0 o' O+ B
Channel(s)                               : 6 channels
( G5 c3 s! |3 p6 yChannel layout                           : C L R Ls Rs LFE
, j; ~1 v; z5 DSampling rate                            : 48.0 kHz
: |( H- e4 G7 s! t& `Frame rate                               : 93.750 FPS (512 SPF)) ]- M- I3 ]; k! E1 R
Bit depth                                : 16 bits  }8 Y# q1 d, i) T5 W$ x, J
Compression mode                         : Lossy
6 J7 c, v1 b" ^( |- yStream size                              : 899 MiB (12%)% {' [/ c5 G- @1 L1 z1 X+ J% N
Language                                 : English
3 o/ h, |0 C1 Z2 BDefault                                  : Yes/ J  _1 Y+ w! r; a! `8 ]' V
Forced                                   : No
" ]; x% E7 a- u1 O3 O  p$ P
7 S- h* |- [* D; [) i1 O+ b1 eText7 S1 L# y. z1 d
ID                                       : 3
( S% F+ _. i) ^2 Y* Z: E3 B; nFormat                                   : UTF-8
2 P8 O& D% M# `$ s/ i. dCodec ID                                 : S_TEXT/UTF8
3 l7 c; }( Q" }Codec ID/Info                            : UTF-8 Plain Text- S% @$ b) w7 X8 y3 {
Duration                                 : 1 h 22 min
  m" R' M& l9 W6 d" vBit rate                                 : 54 b/s- q: k' m  a& v
Count of elements                        : 1014/ Y7 @7 F/ S8 F. f7 \
Stream size                              : 33.0 KiB (0%)
. t4 x" S3 z' ~) G5 e& @4 V+ w. LLanguage                                 : English2 e0 l& R3 u- [% p
Default                                  : Yes5 N5 O8 L$ A5 k- q  _. ]
Forced                                   : No
Video
9 @0 h- S. @0 r) |! B8 N2 qID                                       : 1
4 a+ \) [9 G+ G! Y2 ?7 {4 U# MFormat                                   : AVC
/ Y6 d7 Z" @& r2 `Format/Info                              : Advanced Video Codec. [) p3 i; \, e$ v$ p
Format profile                           : High@L4.1
: b2 o1 W) ?! m& [Format settings                          : CABAC / 5 Ref Frames# }4 _) \$ n  b+ N1 e0 F
Format settings, CABAC                   : Yes
6 A, b! A2 @$ c7 {$ oFormat settings, Reference frames        : 5 frames, z& ~* G& C- J) X2 P  ^) g
Codec ID                                 : V_MPEG4/ISO/AVC
' f  T6 b& Q% L0 bDuration                                 : 1 h 23 min
+ k7 C, O! N* Z9 I& y% z9 TBit rate                                 : 16.5 Mb/s
+ c! I8 N# e, }6 M; a8 |Width                                    : 1 920 pixels
" M% }8 ~1 z) FHeight                                   : 804 pixels
) T5 k) q" g4 V. x* ?Display aspect ratio                     : 2.40:1
, \: c" }/ O% @7 d- O& p2 RFrame rate mode                          : Constant
2 T# B; O9 A  sFrame rate                               : 23.976 (24000/1001/37687) FPS
  ^9 ]" X; e( c% f* O9 GColor space                              : YUV
* j7 _: Y, ^- [0 KChroma subsampling                       : 4:2:0
' O9 h' ^: N, bBit depth                                : 8 bits
2 G& t* T# G0 b' SScan type                                : Progressive- K/ R, s: I, B6 F3 ?5 [& F
Bits/(Pixel*Frame)                       : 0.445
5 M: K8 z! c' b% \/ Z7 BStream size                              : 9.61 GiB (82%)1 N" f+ T0 ]) I: J6 {) Q% Z1 k
Writing library                          : x264 core 160 r3000 33f9e148 z4 u, P' F4 J) z4 V4 t  n
Encoding settings                        : cabac=1 / ref=5 / deblock=1:-3:-3 / analyse=0x3:0x133 / me=umh / subme=10 / psy=1 / psy_rd=1.20:0.00 / mixed_ref=1 / me_range=24 / chroma_me=1 / trellis=2 / 8x8dct=1 / cqm=0 / deadzone=21,11 / fast_pskip=0 / chroma_qp_offset=-2 / threads=24 / lookahead_threads=4 / sliced_threads=0 / nr=0 / decimate=0 / interlaced=0 / bluray_compat=0 / constrained_intra=0 / bframes=8 / b_pyramid=2 / b_adapt=2 / b_bias=0 / direct=3 / weightb=1 / open_gop=0 / weightp=2 / keyint=250 / keyint_min=23 / scenecut=40 / intra_refresh=0 / rc=crf / mbtree=0 / crf=16.0 / qcomp=0.60 / qpmin=0 / qpmax=69 / qpstep=4 / ip_ratio=1.40 / pb_ratio=1.30 / aq=3:0.90, b  o/ z4 N- |% a9 c) P
Default                                  : Yes
* d! K+ a7 D* G0 j2 f6 q) f( {1 KForced                                   : No
1 X/ L; T! O5 {) g( G9 _Color range                              : Limited
# I: P9 ]: X% g4 wMatrix coefficients                      : BT.709
. V1 w2 }) M5 u9 q3 `. s* M( i/ g% }Audio #19 }# H7 `. v, G' s1 D* a
ID                                       : 2
6 p' c& ]0 W( P( @0 ?2 gFormat                                   : DTS XLL
* j) s% v7 Y% u7 q# ^2 lFormat/Info                              : Digital Theater Systems
* t7 c6 U4 R3 d5 j! gCommercial name                          : DTS-HD Master Audio
& L# s' [  ^) XCodec ID                                 : A_DTS" C' s' a8 Y5 l9 _+ e! U
Duration                                 : 1 h 23 min- ~+ H4 a" V8 Q  c- U  L
Bit rate mode                            : Variable* f- T2 A7 T# U' g
Bit rate                                 : 3 571 kb/s8 n# M# i; i+ o1 M3 q% B
Channel(s)                               : 6 channels. K5 G+ R; J% j- g" G
Channel layout                           : C L R Ls Rs LFE/ W; E: h' k" C; G# n
Sampling rate                            : 48.0 kHz
9 H) ~" m) T; i/ B/ e5 fFrame rate                               : 93.750 FPS (512 SPF)
9 Z# h7 H$ F. `- K3 d7 @Bit depth                                : 24 bits
0 X# N3 k  i: U5 \# Z" d$ LCompression mode                         : Lossless* O5 I+ o" c. ]# R% O8 R
Stream size                              : 2.08 GiB (18%)& h% M! j9 y( c8 @
Language                                 : English' k3 Y% ?5 o6 n3 r
Default                                  : Yes1 _& v3 X7 m+ K5 S: L3 g3 K
Forced                                   : No8 v* ]2 s' U& r# M" b$ D. {3 Z& i
Audio #2/ H  V6 y" F1 t( R7 s
ID                                       : 3
& l  q" i- X8 p: k* T! b3 kFormat                                   : AAC LC; T$ ~1 F% o" d! ?0 M$ j
Format/Info                              : Advanced Audio Codec Low Complexity8 @/ D: n7 Y! Q# }  Y* @) x( Q9 i0 @, v
Codec ID                                 : A_AAC-2
0 s* G2 x  l, e) K3 E4 r5 L  tDuration                                 : 1 h 23 min
* S  m$ m2 q& h' ABit rate                                 : 115 kb/s% o7 E. u4 W) v( C% u9 C
Channel(s)                               : 2 channels
2 @* ?; e5 I4 P8 oChannel layout                           : L R
! I0 c. b* V7 f/ A+ q0 ISampling rate                            : 48.0 kHz6 ?3 u, R4 R0 C+ Z
Frame rate                               : 46.875 FPS (1024 SPF)
! d( o, q: v' Z' ~- CCompression mode                         : Lossy1 X: I% {: n' n
Delay relative to video                  : 20 ms8 A% w9 v7 A3 ]/ Q- q
Stream size                              : 68.6 MiB (1%)
! c+ {! H; y4 Q" f: ]# HTitle                                    : Commentary2 a# R- L; I0 j! P* D! J
Language                                 : English! G6 k- P: E& T- m  y. s
Default                                  : No
2 J' Z5 o+ W: p, h! n2 y9 WForced                                   : No
, R8 @3 w! x" y( x2 Q: ^& D" r5 HText% J4 r8 ^) @8 }; w7 V
ID                                       : 4
# D+ Q% v3 L$ ?Format                                   : PGS
$ M# u2 Q5 L' U! G: P/ ]9 g& rMuxing mode                              : zlib
* j+ ~2 i, a! vCodec ID                                 : S_HDMV/PGS
0 B' Y2 h/ u, e7 r0 s, RCodec ID/Info                            : Picture based subtitle format used on BDs/HD-DVDs
& e; m9 R( t" v& ~/ EDuration                                 : 1 h 22 min
4 d; Q5 C( Y, c/ i& q7 T% Z; t7 cBit rate                                 : 30.6 kb/s
4 N/ k3 T8 M% w0 I, yCount of elements                        : 2030" M1 H2 v, @- s0 k1 M
Stream size                              : 18.0 MiB (0%)/ I1 P  n1 N! B- n
Language                                 : English+ w! G* T3 ^% t( Z  z! u. r
Default                                  : No
0 ^* W- S4 H- F+ [2 R4 yForced                                   : No. o# T1 G1 e$ `' v
Menu
6 N- W1 W# a2 i. Z+ ]- q8 x  z00:00:00.000                             : en:Chapter 019 f) y& j1 f! C' ^4 l* h8 q
00:07:28.073                             : en:Chapter 025 Y9 M+ @3 A' ?: v7 l; l
00:12:56.234                             : en:Chapter 038 a2 W# L  ^  ?* O* k
00:20:23.514                             : en:Chapter 04- q/ Z1 M$ U8 f, f3 [% N8 |
00:26:56.865                             : en:Chapter 05
; M& L1 F  }& h4 F# o" ~$ s! K! C00:33:33.595                             : en:Chapter 069 r" ?/ Y5 e! V( Y
00:40:03.943                             : en:Chapter 074 W6 ?  K1 o) O
00:45:48.204                             : en:Chapter 08
  {$ @6 L- o- |  C$ Y00:51:15.531                             : en:Chapter 09* H4 O5 X7 x' w1 ]/ c- _9 S
01:06:04.961                             : en:Chapter 10
" z) u& E6 A8 {4 |01:14:16.535                             : en:Chapter 11
, D0 h7 s) a! b; O7 }- k/ D01:18:37.087                             : en:Chapter 12  h$ r* b- ~% K, V6 b9 t' U

$ }& g" Z1 }4 \1 t9 yAfter.Midnight.2019.1080p.BluRayCD.x264-SPOOKS# n( F: a( n/ I5 K5 P" m5 O

; k3 ^! T% D" j& D7 o1 FIMDB...........: https://www.imdb.com/title/tt8358220; U5 `1 Y$ s  F& F

- [* i# |: s: I; ?' s  Z" dDuration.......: 1 h 23 min
' K: T. z# n, L3 ?4 g% y5 x6 aVideo..........: x264 @ CRF 16 (16479 Kbps)/ v$ g; ~5 h) b8 y
Source.........: 33299 Kbps
8 z+ O/ d; P8 W1 z2 n6 V3 UFrame Rate.....: 23.976 fps" J+ j% E1 G8 O
Resolution.....: 1920x804/ W" Y  [. N5 p# `: I
Audio..........: English 5.1ch DTS-HD MA @ 3571 Kbps5 J, b0 d* y2 [6 {
Subtitles......: English' ~4 u# H7 X$ U8 n" P$ |6 b
Size...........: 11.8 GB
# F" {( d' v5 B* v$ @% w: Q3 d
游客,查看本帖隐藏内容请回复 | 加入VIP贵宾组可免积分免回复下载 了解详情 | 还不是会员:点击获取邀请码 Invitation Code

本版积分规则

小黑屋|Archiver|蓝光电影资源网

GMT+8, 2020-10-29 12:40

快速回复 返回顶部 返回列表