BluRayCD Forum

 找回密码
 立即注册【分享大片】

QQ登录

只需一步,快速开始

查看: 18|回复: 0
收起左侧

[科幻恐怖] 午夜之后/别的东西 After Midnight 2019 720p BluRaycd x264-SPOOKS 3.77GB

[复制链接]

3897

主题

4271

帖子

3万

积分

Post Share

金币
7316 枚
体力
6584 点

卓越贡献勋章

mvods 发表于 2020-9-9 20:58:51 | 显示全部楼层 |阅读模式
01.jpg
  r1 H# t2 L6 D$ n1 H, w
8 [% v' E6 z) T◎译  名 午夜之后/别的东西, `8 a) o% W# y# t4 k% z" M
◎片  名 After Midnight / Something Else " Z1 J8 v2 c2 Z
◎年  代 2019
: w1 Z) F5 ?3 D, w1 v7 x5 w9 b; B9 }◎产  地 美国
' L( a9 n6 W; G◎类  别 恐怖
  b/ m: ^8 B# c  Q◎语  言 英语; t: s% I. |. X8 S3 l
◎上映日期 2019-04-26(Tribeca Film Festival)% R! B, u& f/ b% t+ L& [) S% M; [
◎IMDb评分  5.3/10 from 2,102 users  y5 I; R1 M0 ]* p4 c
◎IMDb链接  https://www.imdb.com/title/tt8358220// V! E# C* H4 y* l( L& q
◎豆瓣评分 4.0/10 from 151 users& w' Q# G* M1 Q
◎豆瓣链接 https://movie.douban.com/subject/33427061/
$ c% y7 l2 {  F7 Y# i5 ]◎片  长 1 h 23 min
% p: k4 F( k/ E  i- F◎导  演 杰瑞米·加德奈 Jeremy Gardner8 a6 H5 P- q, g1 k; H
       Christian Stella$ G; N6 V3 x7 j' [* g2 P
◎编  剧 杰瑞米·加德奈 Jeremy Gardner
- U! V& P) C3 J7 {0 R◎主  演 杰瑞米·加德奈 Jeremy Gardner
6 G: ?8 P& G8 ]5 E# i       布瑞亚·格兰特 Brea Grant0 p7 m  y/ m1 M7 ^; h; s! ^0 ~8 h' d
       亨利·泽布罗夫斯基 Henry Zebrowski
$ R* k+ n0 I8 z# [: j* h& H       贾斯汀·本森 Justin Benson
  G/ f* I5 \/ d: y& R       Ashley Song3 ^0 J) ?& R* I4 c
       Nicola Masciotra
; @% `1 Q3 F. J2 p6 w       Taylor Zaudtke8 l& F; a& b/ r* E6 y, q
       Keith Arbuthnot1 y, B+ \, Q$ W! R& X! y" w: u
) z2 \1 `+ Y3 i1 \/ _7 N
◎标  签 恐怖 | 美国电影 | 美国 | 2019 | 惊悚 | 黑色幽默 | 贾斯汀·本森 | 病毒僵尸类变异生物集锦
) Y! X# x" J% t# o; e0 T+ `  y0 ^
! P8 R' i, ]7 H# T5 O5 h9 Z" k◎简  介  
5 P4 ]7 S" h0 I) f# C. K. [
* v5 _8 S& z4 X' N6 ~+ a  当他长期受苦的女友突然消失,留下一张神秘的纸条作为她唯一的解释时,汉克舒适的生活和他的理智开始崩溃。然后,从他家周围的树林里,一些可怕的东西开始试图闯入。7 B* I* y* i: t4 c* z7 m

6 v. }- [4 R3 h+ F- n  When his long suffering girlfriend disappears suddenly, leaving a cryptic note as her only explanation, Hank's comfortable life and his sanity begin to crack. Then, from the woods surrounding his house, something terrible starts trying to break in.
- A. @4 W+ e' g1 j. h7 D
Video
& p- h. _$ I+ X0 x! dID                                       : 1
/ |4 r+ c" g( y. l4 k4 O  M# a/ @Format                                   : AVC: ~3 m5 D: `9 b. a# _+ e
Format/Info                              : Advanced Video Codec
6 S, ~" t' a6 F( F% r+ rFormat profile                           : High@L4.1
3 `9 t  }, \* c1 }4 e0 v: G) V7 yFormat settings                          : CABAC / 12 Ref Frames
& Y# N: Y  {8 ?9 r; P' eFormat settings, CABAC                   : Yes
& v) q8 K8 o& l1 F  b1 X1 W4 fFormat settings, Reference frames        : 12 frames2 e! b0 D2 t, ^8 i( Q- y
Codec ID                                 : V_MPEG4/ISO/AVC
" I* p) L5 }- w& Y- sDuration                                 : 1 h 23 min
  k" R. V" G; z8 n  ?; ~Bit rate                                 : 5 698 kb/s
$ S3 S6 J6 Y9 P; S0 Z% ~5 JWidth                                    : 1 280 pixels
- g* Y, T/ s  |8 p2 ?( B* e4 sHeight                                   : 536 pixels/ S& T' w$ h& q& m+ W8 Z  j
Display aspect ratio                     : 2.40:15 m9 i; Y: j2 V3 s% ]" |
Frame rate mode                          : Constant
" D8 q3 I7 ]4 O/ p  V! HFrame rate                               : 23.976 (24000/1001/37687) FPS1 @0 i4 H$ X6 K& E' Z
Color space                              : YUV5 |  x( Z* ^% ?, m" V$ R
Chroma subsampling                       : 4:2:0' T" Z/ @( x7 @
Bit depth                                : 8 bits7 ]- O, h$ g, A
Scan type                                : Progressive& \/ q! Z% F4 s0 B1 b! H$ P! Z
Bits/(Pixel*Frame)                       : 0.346
; {. @/ M& _. _% [' ~- L. K& UStream size                              : 3.32 GiB (88%)) i6 z2 r. V+ ~- p* x' g, V0 o- ?
Writing library                          : x264 core 160 r3000 33f9e14: Q8 g- T. _4 P& j2 L# z: p. Z
Encoding settings                        : cabac=1 / ref=12 / deblock=1:-3:-3 / analyse=0x3:0x133 / me=umh / subme=10 / psy=1 / psy_rd=1.20:0.00 / mixed_ref=1 / me_range=24 / chroma_me=1 / trellis=2 / 8x8dct=1 / cqm=0 / deadzone=21,11 / fast_pskip=0 / chroma_qp_offset=-2 / threads=17 / lookahead_threads=2 / sliced_threads=0 / nr=0 / decimate=0 / interlaced=0 / bluray_compat=0 / constrained_intra=0 / bframes=8 / b_pyramid=2 / b_adapt=2 / b_bias=0 / direct=3 / weightb=1 / open_gop=0 / weightp=2 / keyint=250 / keyint_min=23 / scenecut=40 / intra_refresh=0 / rc=crf / mbtree=0 / crf=16.0 / qcomp=0.60 / qpmin=0 / qpmax=69 / qpstep=4 / ip_ratio=1.40 / pb_ratio=1.30 / aq=3:0.90
: E* c: N6 _2 ~4 kDefault                                  : Yes
, h7 J2 x0 v% @2 j8 DForced                                   : No$ I3 F/ ^: D5 }9 `+ R6 i( r) e$ h+ ^
Color range                              : Limited
7 b! N) P+ _5 o0 a* \  ]! u( F5 IMatrix coefficients                      : BT.709" ^& L' \! `& Q) z$ z8 S
Audio #16 B" R: X% `+ s1 B( i
ID                                       : 2, H/ Y) P! _5 L( E+ x; a6 U5 x
Format                                   : AC-3# c6 V4 f6 z& |( g. f3 ], L
Format/Info                              : Audio Coding 3) w& `% @, ]  J) H1 f
Commercial name                          : Dolby Digital: m! j% w, J! B' a3 X( [0 e  f4 Y
Codec ID                                 : A_AC35 l0 X7 D0 M4 U
Duration                                 : 1 h 23 min
4 o! D& a% U- C0 u' }1 p, GBit rate mode                            : Constant
& _0 ?/ b% T1 L) z: A1 m- `+ F2 v5 kBit rate                                 : 640 kb/s
9 N7 d% |2 n  n8 z! b$ \2 TChannel(s)                               : 6 channels
( c8 S2 ?' G) [0 ^9 k* X5 V2 vChannel layout                           : L R C LFE Ls Rs
  f% e1 Z/ \) cSampling rate                            : 48.0 kHz
. ], X$ {4 |, MFrame rate                               : 31.250 FPS (1536 SPF)
: T% q# S. X9 M# @! zBit depth                                : 16 bits% K+ G/ |+ M( ?5 t
Compression mode                         : Lossy; @8 G; K9 C% k
Stream size                              : 382 MiB (10%)" g' `& g& _& t2 A1 i1 z/ c
Language                                 : English
6 u: M# M) w! NService kind                             : Complete Main- q! e1 t- W2 a. y' K, y. u& M% I. A8 z
Default                                  : Yes; L' k, z4 ^# F
Forced                                   : No
9 b3 s  H1 a' R: d# @$ Y# y/ jAudio #2
1 C' W* n7 Z! d2 mID                                       : 3
1 C/ i+ z& s4 \6 I1 SFormat                                   : AAC LC
; _5 g9 J% ~, ?1 |% rFormat/Info                              : Advanced Audio Codec Low Complexity
& x& {) ^  T! o& P/ O; h7 |Codec ID                                 : A_AAC-2
5 G. H6 g7 G8 t, n8 o! \+ aDuration                                 : 1 h 23 min+ \0 k  z2 B- Q6 r5 ~5 @: X
Bit rate                                 : 115 kb/s; j  N2 e# l" V) ?" K
Channel(s)                               : 2 channels
; |  j' E& ]5 O0 ?: q7 m. j% lChannel layout                           : L R
% ~; J: r) X8 [" c( v9 @- {; OSampling rate                            : 48.0 kHz/ u& ~0 Y) I( |- w; D& q  c
Frame rate                               : 46.875 FPS (1024 SPF)
; a; O. E) J# @. xCompression mode                         : Lossy
5 u3 ?0 x4 n+ g& \Delay relative to video                  : 20 ms) U$ C& B% d$ X8 r  x/ \# ^
Stream size                              : 68.6 MiB (2%)/ D: E4 }9 R1 ?7 D0 T" r2 D
Title                                    : Commentary* s; b  {* Y/ F
Language                                 : English# ?3 a6 m0 w5 M
Default                                  : No
, x+ F1 s$ [5 w) Y- S: i9 Q% H( wForced                                   : No+ ~! e, p+ M7 h6 l5 d
Text
; S0 v; C# X: z+ a+ uID                                       : 4
/ Y7 D+ g" n! [9 G2 Q+ IFormat                                   : PGS0 E0 X+ [. Y  C$ u
Muxing mode                              : zlib
3 d/ ?9 h3 {! r. S: J: z1 b: ACodec ID                                 : S_HDMV/PGS
) l) w* c! F4 O( {$ j( oCodec ID/Info                            : Picture based subtitle format used on BDs/HD-DVDs
* h4 i, Z9 {. h4 c  {5 s$ {4 z) }0 sDuration                                 : 1 h 22 min: W! a; J- x* X3 {( B3 ~. x
Bit rate                                 : 30.6 kb/s2 D3 a: Y8 B6 k* [. C. [/ u* Z
Count of elements                        : 2030
2 u/ ?2 O/ {3 NStream size                              : 18.0 MiB (0%)
, w: l8 m3 H% G' a$ [Language                                 : English
$ i4 Y' R  _% X- j! x" s+ jDefault                                  : No
) L6 Q# ?; j0 k, oForced                                   : No7 A+ b5 ]0 z0 o9 O4 ^5 l! o5 y; a
Menu$ w: _+ d7 ~9 D' v& s1 |# s
00:00:00.000                             : en:Chapter 01
, H; Z# d$ u* Y" @5 P' A00:07:28.073                             : en:Chapter 02, D' F: a: F& N; d: i0 B
00:12:56.234                             : en:Chapter 03
' |, X; Y4 W1 i. T00:20:23.514                             : en:Chapter 04; y  S; H) R6 ~- M5 t
00:26:56.865                             : en:Chapter 05
5 v  y$ L* O1 g9 P4 p00:33:33.595                             : en:Chapter 06/ ]. H* A. Z4 ?- h
00:40:03.943                             : en:Chapter 07; H( ]. {: F4 `1 ]$ H+ l
00:45:48.204                             : en:Chapter 087 N. V9 o' b4 H, J9 o& `( e3 @" Z
00:51:15.531                             : en:Chapter 093 t* Z/ I/ j* Z5 }8 {( u
01:06:04.961                             : en:Chapter 100 x! }2 E. k+ B
01:14:16.535                             : en:Chapter 11
$ M3 F; f3 T& @) }3 a; U01:18:37.087                             : en:Chapter 12
7 t* @; t% J* E
8 d8 |. m6 g  I2 ]1 RAfter.Midnight.2019.720p.BluRayCD.x264-SPOOKS2 N9 }; \$ D( u7 R' Y  R! i

  y8 _' G2 [# W: U8 `/ wIMDB...........: https://www.imdb.com/title/tt8358220$ q1 Y% t+ h) O( m8 D

( t; N4 u' P- x7 H. @: P- A3 i  KDuration.......: 1 h 23 min7 K2 b+ e! M( N+ C: p0 z( Y
Video..........: x264 @ CRF 16 (5698 Kbps)
# {" w6 u$ \! h& ISource.........: 33299 Kbps
9 @$ H6 r$ k  a  I: j" z9 vFrame Rate.....: 23.976 fps7 q! T8 J/ u2 e$ n
Resolution.....: 1280x536
# I; O- }$ c8 X" v# A8 k1 WAudio..........: English 5.1ch AC-3 @ 640 Kbps- a) _+ M% \# r: Z
Subtitles......: English' ^% G1 d% C6 r# S" R2 y& z
Size...........: 3.8 GB
7 W( C* @: j% t2 N9 }% q* c
游客,查看本帖隐藏内容请回复 | 加入VIP贵宾组可免积分免回复下载 了解详情 | 还不是会员:点击获取邀请码 Invitation Code

本版积分规则

小黑屋|Archiver|蓝光电影资源网

GMT+8, 2020-10-29 12:15

快速回复 返回顶部 返回列表