BluRayCD Forum

 找回密码
 立即注册【分享大片】

QQ登录

只需一步,快速开始

查看: 26|回复: 1
收起左侧

[喜剧爱情] 两性之争 The Battle Of The Sexes 1960 1080p BluRaycd x264 DTS-FGT 7.63GB & 12.70GB

[复制链接]

3897

主题

4271

帖子

3万

积分

Post Share

金币
7316 枚
体力
6584 点

卓越贡献勋章

mvods 发表于 2020-9-12 08:43:09 | 显示全部楼层 |阅读模式

7 l( n! N1 o% X7 e6 m+ i2 J& a
  m9 q6 G% |3 W◎译  名 两性之争
/ a' M7 ?! ?# w8 v# c◎片  名 The Battle of the Sexes/ ]' x) z. ~! S6 B2 D: J6 @
◎年  代 1960
; e7 c' \9 U: e0 u◎产  地 英国8 H; s9 I1 _8 Y+ u4 Q5 q4 P1 [
◎类  别 喜剧9 ?# S- H5 F8 I
◎语  言 英语/ ^1 p% X8 Y) v+ Y; P
◎上映日期 1960-02-25(英国)
3 v. Y0 p5 F# i* t: a+ L) }◎IMDb评分  6.7/10 from 1,191 users
: N/ n7 R0 R5 g2 W: l% W6 r- h' \2 y◎IMDb链接  https://www.imdb.com/title/tt0052607/
- @3 @( b7 ~( C6 j% t- H◎豆瓣评分 0/10 from 0 users
, \2 X6 t$ I# D1 z9 H# ^5 m◎豆瓣链接 https://movie.douban.com/subject/5060377/, U" L/ [" O3 x
◎片  长 1 h 24 min& T3 p" L7 F" O& n% i" d
◎导  演 查尔斯·克莱顿 Charles Crichton5 ~( l4 r8 y) Z6 Z
◎编  剧 詹姆斯·瑟伯 James Thurber
" G6 A$ P7 @- _; Z( \       蒙哈·达尼切夫斯基 Monja Danischewsky- x/ r. d7 t' o! T, ~0 g
◎主  演 彼得·塞勒斯 Peter Sellers4 u2 q' D7 U! a4 {
       罗伯特·莫利 Robert Morley
" a: y" T4 f- g+ d2 J4 K* A       康斯坦茨·卡明斯 Constance Cummings% _. r% ?% @( }. S) n/ y
       Jameson Clark- p5 \+ x' h/ a9 Q+ z6 c7 \
       欧内斯特·塞西杰 Ernest Thesiger  h' g0 b& D" t9 t" z( j; h
       唐纳德·普利森斯 Donald Pleasence9 O+ O, ?! L7 s) h- w& w
       穆特里·凯尔索尔 Moultrie Kelsall
! L$ W+ c. `( ^/ o       麦肯锡·葛雷 Mackenzie Gray) {( O6 S3 @4 X' B0 h/ E
       Roddy McMillan) `% z! [" v% {& R! p4 J
       迈克尔·古德利菲 Michael Goodliffe/ {4 N, P+ z& L+ s- d
       弗雷德·格里菲思 Fred Griffiths
* R4 K) N% p  ~7 F) x) N" g1 [4 p       William Mervyn
5 ^, W% |0 r# A- L       Norman Macowan0 i1 J0 ^% U( h, o3 r2 S
; ?8 e4 j/ c/ }2 H& X- A8 ]
◎标  签 英国电影 | Peter_Sellers | CharlesCrichton | comedy | UK | RobertMorley | PeterSellers | P-Mar-del-PlataA入围主竞赛
! u! Q$ y. M; {0 ~1 E& K* Q, ^+ P( p' _. {* N  V$ g* [
◎简  介  
: P8 r7 I  N' a) q/ F+ p- B0 c& G( P! b' T" i
  安吉拉·巴罗斯(Angela Barrow)是一位来自美国的颇有成就的商业分析师,她试图将已故麦克弗森(MacFherson)的花呢工厂与之同步,动摇了一家仅限男性的公司的基础。
5 r. w+ D5 \* `6 e& K  d( z7 m1 h
  Angela Barrows, an accomplished business analyst from the US, attempts to contemporise the late MacPherson's tweed factory, shaking the very foundation of a men-only company.
% |* X- V1 C5 T! D+ P
/ j2 c% A/ I" @! _' f# s. r  一部经典的英国喜剧改编自詹姆斯·瑟伯的故事,讲述了一位花呢制造商的老年会计制定了一项计划,将公司从美国的收购要约中拯救出来。一位来自美国的效率专家的到来引起了足够的轰动,但当结果是一名女性时,这位老式的数字计算者就宣战了。吃男人的女商人安吉拉·巴罗斯(Angela Barrow)被她的美国公司派往爱丁堡调查出口机会。她在途中遇到了商人罗伯特·麦克弗森(Robert MacFherson),他说服她帮助他的公司进入20世纪。在马丁先生的领导下,员工们有了不同的想法,新旧商业方式之间的斗争爆发了。
$ {0 U& _/ j' m( Q: \0 U. B0 ~& a* {' w5 w5 }1 p0 V  T+ \/ j
  Classic British comedy adapted from a James Thurber story about a tweed manufacturer's elderly accountant who devises a plan to save the company from an American takeover bid. The arrival of an efficiency expert from the States causes enough of a stir but, when it turns out to be a woman, the old-fashioned number cruncher declares war. Man-eating businesswoman, Angela Barrows is sent by her US company to Edinburgh to investigate export opportunities. She meets businessman Robert MacPherson en route and he persuades her to help bring his company into the 20th century. The staff, lead by Mr. Martin, have other ideas and a battle between the old and new business methods breaks out.
- y# d* e# c2 V2 ~' a' o- m' ]
Video
" {4 T3 h8 R7 }" D/ h- mID                                       : 1% u9 V' O4 M$ ?# Z4 a: T) L
Format                                   : AVC
2 |8 \% h4 ]& ^9 Q- QFormat/Info                              : Advanced Video Codec* E! g4 i( @& ?  c/ }
Format profile                           : High@L4.1
0 B# E+ [/ t3 @: ~  AFormat settings                          : CABAC / 4 Ref Frames
% w" x1 }8 b% w6 iFormat settings, CABAC                   : Yes* d; S9 X8 m' T, D: ^* [$ m2 S+ G6 G
Format settings, Reference frames        : 4 frames& q) {# V$ i5 G
Codec ID                                 : V_MPEG4/ISO/AVC
, \+ J% v3 K1 v# u8 R9 C2 ZDuration                                 : 1 h 24 min
2 q  ~0 p. G  p& X1 }3 e! gBit rate                                 : 11.5 Mb/s/ Y1 x6 G& q" A- I) [* a
Width                                    : 1 800 pixels
  y7 Z+ ]0 s7 M2 Y) k+ S& WHeight                                   : 1 080 pixels- z6 @  t( v9 ]: A& M8 s: m5 L
Display aspect ratio                     : 5:3, B+ V4 w0 b2 d9 w8 Y' P' `- k
Frame rate mode                          : Constant1 O# j( i; r, ~6 L
Frame rate                               : 24.000 FPS
/ p/ H5 O& `* A; vColor space                              : YUV
2 `; Z- J2 W0 E! A4 ]! a! `% sChroma subsampling                       : 4:2:0
5 K4 u: e7 k. U- b% K0 I+ O. hBit depth                                : 8 bits
( T0 e2 G  @5 F: ]! I9 l& A/ FScan type                                : Progressive
8 _# A* P3 T; `. s4 ^9 J! uBits/(Pixel*Frame)                       : 0.246
6 o+ W* @! }% r+ I7 w2 ]0 I/ OStream size                              : 6.75 GiB (88%)
4 ]; m# c7 l$ ^4 B& qTitle                                    : The.Battle.Of.The.Sexes.1960.1080p.BluRayCD.x264.DTS-FGT( [/ n# k7 a! M5 n6 |2 M) m
Writing library                          : x264 core 148 r2748 97eaef2! }4 v1 J9 Q5 ~, q' R# A
Encoding settings                        : cabac=1 / ref=4 / deblock=1:-2:-2 / analyse=0x3:0x113 / me=umh / subme=9 / psy=1 / psy_rd=1.00:0.15 / mixed_ref=1 / me_range=16 / chroma_me=1 / trellis=2 / 8x8dct=1 / cqm=0 / deadzone=21,11 / fast_pskip=1 / chroma_qp_offset=-3 / threads=24 / lookahead_threads=3 / sliced_threads=0 / nr=0 / decimate=1 / interlaced=0 / bluray_compat=0 / constrained_intra=0 / bframes=3 / b_pyramid=2 / b_adapt=1 / b_bias=0 / direct=3 / weightb=1 / open_gop=0 / weightp=2 / keyint=250 / keyint_min=25 / scenecut=40 / intra_refresh=0 / rc_lookahead=50 / rc=2pass / mbtree=1 / bitrate=11500 / ratetol=1.0 / qcomp=0.60 / qpmin=0 / qpmax=69 / qpstep=4 / cplxblur=20.0 / qblur=0.5 / vbv_maxrate=31250 / vbv_bufsize=31250 / nal_hrd=none / filler=0 / ip_ratio=1.40 / aq=1:1.00. s2 B- P& B- W2 |/ i+ v
Language                                 : English3 d2 E8 o! [" g9 {* Y
Default                                  : Yes8 N2 k9 I& G- {) L) F
Forced                                   : No
" y6 z( i0 @  ~+ S& |1 Y8 u% _4 S- l, w" f
Audio
' I" S0 o9 }5 t* n- B4 O) qID                                       : 2; ?* t+ g2 t- U* R. u7 \
Format                                   : DTS
7 r+ m8 J3 T2 d) ?* xFormat/Info                              : Digital Theater Systems
/ y8 N0 c, I6 I, lCodec ID                                 : A_DTS* v# i) |- W5 q2 y
Duration                                 : 1 h 24 min; Y! X1 ]. I0 p9 A' p
Bit rate mode                            : Constant9 J9 y- c( D/ u/ X# t  F% p1 a
Bit rate                                 : 1 509 kb/s1 I6 Q. d7 ~% G1 `; z7 I6 B
Channel(s)                               : 2 channels
$ g" m8 C/ u& P4 mChannel layout                           : L R" {$ F: x' G" i, [4 E" w4 Z& p) X
Sampling rate                            : 48.0 kHz. z* Z2 r) ~  i& a' T% Z
Frame rate                               : 93.750 FPS (512 SPF)
8 u2 [4 ^) u$ Y7 t* X5 MBit depth                                : 16 bits
9 \7 l: y* C0 L( X  JCompression mode                         : Lossy0 ^( p0 F; X9 E3 o* m+ Z+ B
Stream size                              : 907 MiB (12%)
6 r, Y5 `- Y7 T) ~; bTitle                                    : The.Battle.Of.The.Sexes.1960.1080p.BluRaycd.x264.DTS-FGT
& K3 Z( h* |. Y; VLanguage                                 : English7 Z$ I5 l; C! {5 n) |% L9 I
Default                                  : Yes
0 S5 U- ~7 |6 ~7 ~$ QForced                                   : No
& D. t, F# o5 m0 L) ]  _& S" i. X; x# U3 U9 A5 x4 ?/ h
Text9 F. Z' {+ d$ Q
ID                                       : 3
' m# @5 T3 a9 v' G$ f5 ]Format                                   : UTF-8
9 o+ I4 C% G0 V3 [Codec ID                                 : S_TEXT/UTF8
- ~# T1 H: U( C( p' ^3 }, ~2 QCodec ID/Info                            : UTF-8 Plain Text
8 e% {8 q4 P8 t1 V  x* {( {Duration                                 : 1 h 22 min( S2 w7 o- Z, c% d2 y$ D: I  q7 c! Q
Bit rate                                 : 84 b/s  t$ c& d; i7 ?* x* N& ~
Count of elements                        : 1358, Q4 r* |% \: w
Stream size                              : 51.0 KiB (0%)6 e- u. e: e: Y" j6 a
Language                                 : English
  X/ s& z; i( c: y$ V& GDefault                                  : Yes- ]9 H1 N5 n# o9 h( G# \) ?
Forced                                   : No
) n- I6 \$ J: ]4 j: p1 [+ T+ u* T8 k: l$ A. R* q/ C
Menu
. ^) @( M7 l3 R1 n00:00:00.000                             : en:Chapter 1# k2 z* @  ?. f
00:06:18.000                             : en:Chapter 28 R) X) }* T+ _8 B" L
00:14:27.417                             : en:Chapter 3
' V5 b! |; P) B8 ~00:20:02.208                             : en:Chapter 4
' F/ Q2 e7 r' r% @% \3 {9 U2 D00:25:26.083                             : en:Chapter 5
( ^: h; G& L6 q/ ?0 L- Z% m: b2 U00:33:59.083                             : en:Chapter 6
7 [" ?) H5 {- i/ P; W00:39:09.583                             : en:Chapter 77 A; v! g; m# L2 W9 N7 \9 a: p+ i* @
00:47:42.375                             : en:Chapter 8$ j! a0 `: _. m6 g; P/ _
00:57:06.667                             : en:Chapter 9
( z* i9 Z" _# I$ j7 n0 L01:02:01.583                             : en:Chapter 10
+ M( L" n; t1 j7 B5 }7 Y01:09:17.208                             : en:Chapter 11
8 t' o/ U& K$ P- @5 |: c) F01:15:17.292                             : en:Chapter 12
Video6 M- Z0 k  ^$ ^+ G' v
ID                                       : 11 i9 V7 \& P" ]. {& Q- c- W4 y
Format                                   : AVC! e3 d  m( l; p6 Q# I" a- T
Format/Info                              : Advanced Video Codec
3 r0 b0 ]+ Y1 _' sFormat profile                           : High@L4.11 R& A$ M$ L5 b' C- C  Y' {+ \
Format settings                          : CABAC / 4 Ref Frames
; r& [$ w' G. W; Q6 ~- L' bFormat settings, CABAC                   : Yes" O  U0 e* T% P2 o* ?
Format settings, Reference frames        : 4 frames
1 ]  o' \6 e$ M/ u# ]. XCodec ID                                 : V_MPEG4/ISO/AVC
- w- G4 R* u6 |7 n- b. c" P6 B- H7 w* xDuration                                 : 1 h 24 min
1 Q$ O8 |5 Q' U/ GBit rate                                 : 21.3 Mb/s: x. d$ {2 K1 N# A. ^" F0 g$ p0 w
Width                                    : 1 800 pixels
$ N& A: N2 B9 r( v' Q3 FHeight                                   : 1 080 pixels
) |. a+ F: T$ k" ~Display aspect ratio                     : 5:3# e& K# U- d6 O$ D8 E: q) Y
Frame rate mode                          : Constant
4 a) f+ I8 ]' A( e# M+ pFrame rate                               : 24.000 FPS
+ s+ G/ s1 h/ B/ SColor space                              : YUV
; J- w% h1 `- p1 Q. i# r0 z- CChroma subsampling                       : 4:2:0
3 L* t2 i. o- M1 F0 N1 t# zBit depth                                : 8 bits
# S+ z/ Z; u* _! I: A0 |" Q6 NScan type                                : Progressive
3 O3 \. j9 w1 i  Z1 DBits/(Pixel*Frame)                       : 0.457
9 D' S& u& X3 L% [5 \1 c% p* PStream size                              : 12.5 GiB (99%), _( R5 m# D2 v1 \' k  v. T4 \
Writing library                          : x264 core 160 r3000 33f9e14
( v5 R# X" _+ z( u) W0 `# PEncoding settings                        : cabac=1 / ref=4 / deblock=1:-3:-3 / analyse=0x3:0x133 / me=umh / subme=10 / psy=1 / psy_rd=1.50:0.15 / mixed_ref=1 / me_range=24 / chroma_me=1 / trellis=2 / 8x8dct=1 / cqm=0 / deadzone=21,11 / fast_pskip=0 / chroma_qp_offset=-3 / threads=24 / lookahead_threads=4 / sliced_threads=0 / nr=0 / decimate=0 / interlaced=0 / bluray_compat=0 / constrained_intra=0 / bframes=8 / b_pyramid=2 / b_adapt=2 / b_bias=0 / direct=3 / weightb=1 / open_gop=0 / weightp=2 / keyint=250 / keyint_min=24 / scenecut=40 / intra_refresh=0 / rc=crf / mbtree=0 / crf=17.5 / qcomp=0.60 / qpmin=0 / qpmax=69 / qpstep=4 / ip_ratio=1.40 / pb_ratio=1.30 / aq=3:0.50
5 G8 T" }0 ^7 }1 \) x- m) y& s. mDefault                                  : Yes
1 S# Y' J. Z4 k# V! fForced                                   : No# B) r) D9 v, X9 g  l/ `; C# @
Color range                              : Limited
! k: ]& F5 X8 P  R- n  QMatrix coefficients                      : BT.709
" ?* t5 J7 \5 J+ f! O/ d; N+ d0 C( W# iAudio
7 Q/ P3 u% Y2 w. c9 C) A  k  k! vID                                       : 2# m& e. j1 R+ s, \2 h8 |" ?- p
Format                                   : FLAC
+ A( N% H4 ?5 ~4 k2 hFormat/Info                              : Free Lossless Audio Codec
' R& V3 W3 d: U% U' BCodec ID                                 : A_FLAC3 o2 P3 v- o* }( g5 T( |% z$ m4 d6 I
Duration                                 : 1 h 24 min
1 B. l, H1 P. R/ T( UBit rate mode                            : Variable' p* p5 t; q6 U) l! E; `! m8 ^
Bit rate                                 : 301 kb/s
% E2 ~1 M2 Y; F# f( s) mChannel(s)                               : 2 channels  y; V8 n% E0 W; D
Channel layout                           : L R
0 E! \' z( T) O( L, {Sampling rate                            : 48.0 kHz; i+ H! q  Q) R$ ?0 ^: U3 f
Frame rate                               : 11.719 FPS (4096 SPF)
, q# h2 m* E. [- LBit depth                                : 16 bits
0 Y5 [  B4 w8 c, r* d6 d& dCompression mode                         : Lossless0 }8 R/ G. b' z# @/ j
Stream size                              : 181 MiB (1%)
  p% G  D$ {1 ^- V! V- \/ d. w& RWriting library                          : libFLAC 1.3.2 (UTC 2017-01-01)8 V1 n+ f% r! r+ ?, \/ b3 f: s5 z, y* ^0 b
Language                                 : English
0 ?% [! ]' f7 H( G. H7 sDefault                                  : Yes
$ W  `2 c, ]$ AForced                                   : No
/ Q2 z0 U. D) Q  ]) O. l& m& N8 b' KText+ h, S& j1 O2 d  |
ID                                       : 3+ j$ n: m# e, m, }5 Z
Format                                   : PGS
8 s3 [) ]' m* p! X: ~" v: m2 qMuxing mode                              : zlib: t+ b7 r' c9 U8 v( C& o$ C, Y
Codec ID                                 : S_HDMV/PGS3 j& U* X4 c' v) v. g3 r) S9 m3 h5 [
Codec ID/Info                            : Picture based subtitle format used on BDs/HD-DVDs! T3 \. L- k. s" ~3 _
Duration                                 : 1 h 22 min. ^* w: E: P$ ^& C. A1 ^; p2 O# |
Bit rate                                 : 53.9 kb/s) g3 q( Z2 t2 j' D. z6 |
Count of elements                        : 28926 P! O' b& o( |9 x2 T
Stream size                              : 31.9 MiB (0%)! ]9 w1 y4 r3 g4 O( _2 b
Language                                 : English
- a) U' T6 b/ R3 E! z' \* S4 {' M& @* WDefault                                  : No" f& ?4 b& x9 e; {5 B
Forced                                   : No( d" w3 E  V7 x4 E1 Z
Menu
: D3 o1 K9 L( O: U) E- B00:00:00.000                             : en:Chapter 01
" y1 l" R. [& i4 L00:06:18.000                             : en:Chapter 027 I4 s/ ^4 M! c2 M# g3 |- ~' w
00:14:27.417                             : en:Chapter 03/ J; l0 ~( {* L. O) x+ B+ `' j& Y# V
00:20:02.208                             : en:Chapter 045 f  w$ t! W  H! H' d  G
00:25:26.083                             : en:Chapter 05- r. }+ x& B( P6 y% V
00:33:59.083                             : en:Chapter 06
: Q% U; C. T5 c/ q00:39:09.583                             : en:Chapter 07  y. D! }1 X; e0 ~1 }( W
00:47:42.375                             : en:Chapter 083 N% U+ h- o) @+ i* W3 ]" w
00:57:06.667                             : en:Chapter 09% e' h/ G; A! D$ R  e
01:02:01.583                             : en:Chapter 10* X" Q5 x7 G* `% g
01:09:17.208                             : en:Chapter 11
& {! b- }* ^2 H# U01:15:17.292                             : en:Chapter 12" V! Q0 y' e; x7 ~" Z% ?$ _

: A3 x7 N! x# z9 P4 ?+ rThe.Battle.of.the.Sexes.1960.1080p.BluRaycd.x264-GHOULS
! u. J1 j1 u( X% y  n( [
6 O- j+ ~8 D5 [/ P0 P  n; v! Q  b: CRating..: 6.7/10 from 1,143 users
2 Y+ `" w9 M# e% u5 V! aGenre...: Comedy
+ k  a3 \& {& _2 s! q5 p* AURL.....: https://www.imdb.com/title/tt0052607$ g1 }& o$ G" n) L; I! R; ]( n# d( O
( D; I" R0 A% I
Duration...: 1 h 24 min
2 W& E8 ]. V/ i8 }! }. LVideo......: x264 @ CRF 17.5 (21318 Kbps)0 ^# T4 Z! \5 s. t
Source.....: 35795 Kbps  J0 ]( D* V: T' ~9 @; C
Language...: English 2ch+ |( Y( p) s, F0 j
Audio......: FLAC 301 Kbps- R) Y' s+ v0 Q5 A- }& |6 i
Resolution.: 1800x1080
8 Q% I  S! Z( ?$ p% ^7 x9 DFrame Rate.: 24 fps
( B% {0 n& L0 B. e* ISubs.......: English
* \: l  J! n+ h1 O" S, FSize.......: 12.7 GB( K) x" I7 w6 C' u- J* P
Notes......: Enjoy!

; u# p. m; b8 ~7 \& z6 T) k- i
游客,查看本帖隐藏内容请回复 | 加入VIP贵宾组可免积分免回复下载 了解详情 | 还不是会员:点击获取邀请码 Invitation Code

0

主题

506

帖子

2316

积分

Sponsor

金币
10 枚
体力
1326 点
QQ
七喜 发表于 2020-9-12 14:23:10 | 显示全部楼层
每天都来蓝光论坛看看,我爱蓝光电影。5 s4 }9 A, v# u3 K3 w" q# _
至少是现在,我一天没有访问蓝光电影论坛就不爽!At least now, my day did not visit the Blu-ray Film Forum on unhappy!
7 ]( c3 ^" O5 r7 _' e! c

本版积分规则

小黑屋|Archiver|蓝光电影资源网

GMT+8, 2020-10-29 03:23

快速回复 返回顶部 返回列表