BluRayCD Forum

 找回密码
 立即注册【分享大片】

QQ登录

只需一步,快速开始

查看: 28|回复: 1
收起左侧

[蓝光原盘] 两性之争 [REMUX无损版] The Battle of the Sexes 1960 1080p BluRaycd REMUX AVC LPCM 2.0-FGT 22.37GB

[复制链接]

4491

主题

4663

帖子

6万

积分

Post Share

金币
8525 枚
体力
16644 点

卓越贡献勋章

黄金嫖客 发表于 2020-9-13 22:18:16 | 显示全部楼层 |阅读模式
Angela Barrows, an accomplished business analyst from the US, attempts to contemporise the late MacPherson's tweed factory, shaking the very foundation of a men-only company.
6 _  g' O. R0 p9 b. Q! Z, f7 V6 u
6 k8 @" Y4 c2 w 01.jpg
" {: y1 m0 n. J* _& A# {$ i4 P$ E" Z  @
◎译  名 两性之争
' z# o: A$ p1 [& k  d5 @) i◎片  名 The Battle of the Sexes
$ d) u7 X6 \) ]6 g, J. F" L◎年  代 1960
5 l$ ]& ~$ D! F! {' _. a◎产  地 英国% Q- ~- E9 W' u9 Q- n, o
◎类  别 喜剧
  _% D- I" U. o, r0 A$ [◎语  言 英语% J9 d: k3 |3 S( Q. J
◎上映日期 1960-02-25(英国)1 A: y  t2 T" D2 h( a# ~& x. m% ~
◎IMDb评分  6.7/10 from 1,191 users: }3 {8 V+ s. `& A
◎IMDb链接  https://www.imdb.com/title/tt0052607/5 Y0 F& ?) z0 n# s0 P: w
◎豆瓣评分 0/10 from 0 users
& `; [  @( `' Z6 R. N◎豆瓣链接 https://movie.douban.com/subject/5060377/
( l% p0 N, }& c5 m/ ]. J" W- b◎文件格式 x264 + LPCM
& X( f+ K& r7 m: P◎视频尺寸 1920 x 10800 e/ ], i9 a8 I( g& S+ l/ N
◎文件大小 1DVD 22.37 GiB
( p& E& d" n! e" A7 p1 ~, U◎片  长 1 h 24 min
# e$ e3 s6 {4 B; r, L◎导  演 查尔斯·克莱顿 Charles Crichton
) {$ h7 X( H" P+ z: r, @% f' x$ g◎编  剧 詹姆斯·瑟伯 James Thurber
" N6 N8 n8 T8 D% O& X       蒙哈·达尼切夫斯基 Monja Danischewsky* Q) m7 B3 H+ ~! r, p0 y
◎主  演 彼得·塞勒斯 Peter Sellers
% l, o( C- Y; @. ]: n- N" O       罗伯特·莫利 Robert Morley( p0 x* n# Z' M* C- V# k
       康斯坦茨·卡明斯 Constance Cummings
7 p! T( g, ^% `, L5 L       Jameson Clark
+ k/ t$ C! ~! k. w5 b. D# F       欧内斯特·塞西杰 Ernest Thesiger
' n" {9 n: v. G$ v8 m4 {       唐纳德·普利森斯 Donald Pleasence
8 g' O* [* k; d% L: ~       穆特里·凯尔索尔 Moultrie Kelsall
) [1 x' g! f- I& X0 N+ z       麦肯锡·葛雷 Mackenzie Gray! y$ m; q& z/ ?1 y" U
       Roddy McMillan
7 m; l( {9 q7 X: y% V# Z       迈克尔·古德利菲 Michael Goodliffe  @/ V' F6 }2 T; i- ~) I$ P
       弗雷德·格里菲思 Fred Griffiths
6 \* [5 @; F$ s' p" y       William Mervyn
% \' o# n' D( z& T- n$ M: A       Norman Macowan( i7 P- a7 `9 j. r* I. y3 X7 T; r4 B6 b
4 q" o2 f; d9 P- E/ V. y4 y
◎标  签 英国电影 | Peter_Sellers | CharlesCrichton | comedy | UK | RobertMorley | PeterSellers | P-Mar-del-PlataA入围主竞赛5 ?! a3 S& R2 g/ {# Z

5 x& z& P# a# z3 {& [◎简  介  
# ~9 ]" ^" a1 ]" \% `! u" K  p! k, S8 C; P# ]3 ~
  安吉拉·巴罗斯(Angela Barrow)是一位来自美国的颇有成就的商业分析师,她试图将已故麦克弗森(MacFherson)的花呢工厂与之同步,动摇了一家仅限男性的公司的基础。5 v( D1 p1 ~/ Z3 ^2 N8 d  V0 w

8 w+ R: V* D4 e' ^" _3 a% A8 c3 Q  Man-eating businesswoman, Angela Barrows is sent by her US company to Edinburgh to investigate export opportunities. She meets businessman Robert MacPherson en route and he persuades her to help bring his company into the 20th century. The staff, lead by Mr. Martin, have other ideas and a battle between the old and new business methods breaks out.
! V- o- D2 g' D( a: V# O+ ?  c% c6 p+ v: m) w% j  J) E
Video9 \) _) S0 n! K
ID                                       : 1
7 f1 M8 @+ I# s% pID in the original source medium         : 4113 (0x1011)
# l! L6 x7 t) y1 [" U9 e! WFormat                                   : AVC
' E+ U- u2 i' o& @! KFormat/Info                              : Advanced Video Codec
+ ?9 D; f& n" m6 N4 k& [* [Format profile                           : High@L4.1  U, o4 c3 @/ N* J
Format settings                          : CABAC / 4 Ref Frames
/ M1 o+ g% t4 f+ [6 ~, M: D1 mFormat settings, CABAC                   : Yes
% S+ t, R. f2 VFormat settings, Reference frames        : 4 frames
! @5 Q+ i3 L" S2 ?Codec ID                                 : V_MPEG4/ISO/AVC/ z9 f( F+ K3 D4 H. M5 L* t
Duration                                 : 1 h 24 min1 b% ?) A+ u$ X5 ~6 L. _
Bit rate mode                            : Variable$ e* d+ }; M5 ~9 Y$ ?( S( Q
Bit rate                                 : 35.8 Mb/s
" K; C) D: p5 J' u" b0 I7 QMaximum bit rate                         : 38.0 Mb/s
0 s% r' @" B" AWidth                                    : 1 920 pixels2 R  d/ d- p0 T8 k; `0 d. G0 p, I
Height                                   : 1 080 pixels
' A; j6 ]' E& ZDisplay aspect ratio                     : 16:9
0 H. U0 j$ ]3 ]$ j6 G( ~- @& iFrame rate mode                          : Constant
" c7 V; W% N! s9 R+ a: C' ZFrame rate                               : 24.000 FPS
( N8 x+ j' H" O6 g4 p! ZColor space                              : YUV# c: l/ r# _# [2 V# E
Chroma subsampling                       : 4:2:0
& S. B5 I( y- w! S2 rBit depth                                : 8 bits
5 R8 z  K" G: YScan type                                : Progressive
, J5 A& e6 Q5 M* C& t5 ~. wBits/(Pixel*Frame)                       : 0.7192 T' V  K- x( T# R+ H2 I, g
Stream size                              : 21.0 GiB (94%)
& Z- F5 C9 j7 t8 iTitle                                    : The.Battle.of.the.Sexes.1960.1080p.BluRayCD.REMUX.AVC.LPCM.2.0-FGT: {+ u! i4 F  J
Language                                 : English6 T1 `8 H# y. T. t  p$ m+ A5 w
Default                                  : No( f, Q! c. A8 K
Forced                                   : No
! b& k5 {. h0 r! K( G8 M0 Q; cOriginal source medium                   : Blu-ray# g, t! m! F$ C# I4 H% Z
9 U3 h0 x+ F6 P  S9 d% P
Audio8 C2 o# D( n5 [2 R
ID                                       : 2
- X. A0 A! a6 T+ n9 xID in the original source medium         : 4352 (0x1100)- y) S- r& M( J& p8 i  P
Format                                   : PCM/ X; U) w; d2 J
Format settings                          : Little / Signed$ i' q, H; K5 ~/ f& i/ Q9 ^
Codec ID                                 : A_PCM/INT/LIT* ?: s9 s% N0 k9 m+ j
Duration                                 : 1 h 24 min
7 t& m( ^* M: E+ M1 pBit rate mode                            : Constant4 Q" e( d3 P5 K" Z, W. `; ?+ d
Bit rate                                 : 2 304 kb/s
% m& P+ b% q7 g" ]3 C% p5 p! KChannel(s)                               : 2 channels
, H' ?  m, K; }8 aSampling rate                            : 48.0 kHz
" y! H# F! d& _" WFrame rate                               : 30.000 FPS (1600 SPF)- q& f2 `6 f) i) v. j
Bit depth                                : 24 bits
4 Z0 d5 z6 l% F9 i8 `Stream size                              : 1.35 GiB (6%)8 F; x' f0 k: ?% p
Title                                    : The.Battle.of.the.Sexes.1960.1080p.BluRaycd.REMUX.AVC.LPCM.2.0-FGT
" s; d. z, ^% m7 H; ]# y3 U$ ]Language                                 : English
, f  G' i/ Q$ e( H9 D3 ?  q$ F9 E7 XDefault                                  : Yes* p1 t; u0 M8 [& v  I! ?7 ?/ l
Forced                                   : No
8 R8 ?/ L: Y: I( Y! a1 {Original source medium                   : Blu-ray
; m+ J2 y) A9 u  j% I8 j" A4 ?: t* N3 ^
Text #16 m) O; a  E/ [) ]+ ^' K) h7 R
ID                                       : 3- a$ e1 B, W, d: H
Format                                   : UTF-87 W/ o4 B; X- |; j" ]; T3 ~/ w
Codec ID                                 : S_TEXT/UTF8
  C! _5 t5 _' Y( S; Y( D% e# nCodec ID/Info                            : UTF-8 Plain Text6 j) N2 B# k, \  q
Duration                                 : 1 h 22 min
/ z: v. b1 B# n+ F% L1 F  _8 V) nBit rate                                 : 84 b/s
6 o- c# s6 D  M4 s$ c7 tCount of elements                        : 13588 ~% B9 f3 r+ O! y
Stream size                              : 51.0 KiB (0%)2 a4 O/ D1 D8 h
Title                                    : English-SRT0 T. I* o  b2 e! H: m
Language                                 : English
1 @9 P8 @- s, P( u6 g; DDefault                                  : Yes
8 {# r7 d/ F' B0 l/ XForced                                   : No
1 P0 x/ z: f9 f; t
" ^0 p3 v+ ^0 y) PText #2
! t& E% P+ p& P( y' h% S/ TID                                       : 4
1 `8 r, D  r1 W9 ?& SID in the original source medium         : 4608 (0x1200), M  y! t* U- g0 y
Format                                   : PGS
2 L0 u) G9 [4 i* WMuxing mode                              : zlib+ a% e( c. L% C
Codec ID                                 : S_HDMV/PGS
$ |8 n) N' L; i, v% q& [Codec ID/Info                            : Picture based subtitle format used on BDs/HD-DVDs; R5 r8 I4 v# J( [, I
Duration                                 : 1 h 22 min- [6 ~1 r/ [1 {) S  U6 x9 a* F
Bit rate                                 : 53.9 kb/s: k+ z) d! `3 U* g$ ]
Count of elements                        : 28929 M8 o8 \, Q" M# N4 z' p( P
Stream size                              : 31.9 MiB (0%)' b0 ^* j9 v/ \- ~4 ?9 n5 W
Title                                    : English-PGS
8 l  g8 e+ V! x& h0 GLanguage                                 : English' H3 A7 s# \1 Y" ?
Default                                  : No
+ Y( B% e; p+ T$ h/ U' q1 h0 G4 v# iForced                                   : No
8 M7 x$ ]8 }; T8 z, ?) }& hOriginal source medium                   : Blu-ray
! o0 \. q4 u1 T+ _2 ?2 G2 {2 q* A2 @1 @) U. ~1 n
Menu- C, B8 X6 o+ D
00:00:00.000                             : en:Chapter 01
3 o. h9 Y% i" D' z5 y6 o00:06:18.000                             : en:Chapter 02: S1 Q3 D  ?7 Q/ ~5 t" B
00:14:28.000                             : en:Chapter 03
7 G7 W! s' h' {) _6 H4 E; [00:20:02.208                             : en:Chapter 04
: }. Y& }% c, D1 w" F( ?: d00:25:26.666                             : en:Chapter 05$ a2 o% k) Y3 J: A: Q8 r3 U& i
00:33:59.416                             : en:Chapter 06
4 w; b8 N6 p7 B7 q00:39:09.583                             : en:Chapter 07
1 q+ `/ D9 F4 l# ]* C00:47:42.000                             : en:Chapter 08% K$ v" G+ ~8 F5 \
00:57:06.666                             : en:Chapter 09  U( ?: a( T5 E5 m) L1 H" J. \
01:02:01.583                             : en:Chapter 10
  D. D, S% S$ }01:09:17.208                             : en:Chapter 11
/ ^* q! D, ]) y& z9 x$ W01:15:17.750                             : en:Chapter 12
The Battle of the Sexes Blu-ray, Video Quality   " h3 H  [& n0 d& a! l

) G/ x0 D( `7 B$ z0 `& Q5 a1 N# e( @; m3 Z; V! v- M  S. ~7 P. [6 |
The AVC encoded image (1:67:1 aspect ratio) provides a largely clean, inviting viewing experience. Detail is preserved, surveying fibrous costumes and headwear, while make-up particulars on the cast are easily inspected. Cinematographic balance is preserved, supplying secure delineation. Grain is fine and filmic. Source is mostly in good shape, but mild chemical damage is detected, along with speckling and light scratches. Posturization is evident during the end credits.* ^7 U) x5 N' L5 X2 r3 u
( s; U+ s0 R" q" d5 O5 b6 u2 G
The Battle of the Sexes Blu-ray, Audio Quality   + q4 D# D6 s- `. ]( |4 E

# [0 U3 }; J9 e) \; t6 [' B6 d. L& ~
- p8 Y; d$ t, zThe 2.0 DTS-HD HD sound mix maintains the basics of the "Battle of the Sexes," though scoring selections come through with pleasing power and instrumentation, supporting the strange tonality of the picture. Dialogue exchanges are clear, managing accents and comedic interests without distortion. Atmospherics are pronounced and sharp.2 ^9 }; o  J8 H2 v% h/ F. K3 c9 `9 E5 W
游客,查看本帖隐藏内容请回复 | 加入VIP贵宾组可免积分免回复下载 了解详情 | 还不是会员:点击获取邀请码 Invitation Code

56

主题

1370

帖子

4931

积分

Sponsor

金币
224 枚
体力
1882 点
lanpanshuma 发表于 5 天前 | 显示全部楼层
楼主发贴辛苦了,I*老*虎*U!- q7 d2 u' F! H( V) D" Y5 I( d
至少是现在,我一天没有访问蓝光电影论坛就不爽!At least now, my day did not visit the Blu-ray Film Forum on unhappy!
5 L+ h! d* [; ^) I. o" ^) \
该会员没有 ...

本版积分规则

小黑屋|Archiver|蓝光电影资源网

GMT+8, 2020-9-22 04:08

快速回复 返回顶部 返回列表