BluRayCD Forum

 找回密码
 立即注册【分享大片】

QQ登录

只需一步,快速开始

查看: 66|回复: 6
收起左侧

[蓝光原盘] 第一头牛/初生之犊 [REMUX无损版] First Cow 2019 1080p BluRaycd REMUX AVC DTS-HD MA 5.1-FGT 32.92GB

[复制链接]

7777

主题

7971

帖子

6万

积分

Forum Moderator

金币
10555 枚
体力
9607 点

卓越贡献勋章

24小时 发表于 2020-9-12 21:06:23 | 显示全部楼层 |阅读模式
01.jpg
- ~) d4 J& e( t4 E( c! V2 [8 y9 [5 Y+ P, C$ Z: _, p
◎译  名 第一头牛/初生之犊(台)6 R; l' n) p7 j" e
◎片  名 First Cow' a9 s# d) S* M
◎年  代 20199 D. _9 o9 @2 T, h0 w# s
◎产  地 美国
% B* m* E! h/ `$ w" R◎类  别 剧情
3 j0 n: R  M1 r1 t% |) d7 H◎语  言 英语) _4 O8 E; z& w3 {2 M( ]; f2 L
◎上映日期 2019-08-30(特柳赖德电影节)/2020-07-10(美国)8 h$ e/ N% v* v: K1 f. S; |
◎IMDb评分  7.1/10 from 3,543 users
8 k$ B( L2 i0 r/ e◎IMDb链接  https://www.imdb.com/title/tt9231040/* G$ ?5 P& u- x+ o/ w
◎豆瓣评分 7.6/10 from 6,103 users
  c; v# l, V" _% ~◎豆瓣链接 https://movie.douban.com/subject/30368608/
. k) c" F: |2 ~6 Y  }; o0 q◎文件格式 x264 + DTS
5 r' l+ B/ Z' y: @$ w; _5 Y% t◎视频尺寸 1920 x 1080
- U5 T7 t7 U5 q2 ]6 U8 }1 y◎文件大小 1DVD 32.92 GiB$ R3 [# \. K4 q+ u
◎片  长 2 h 1 min
. e2 q4 @& i. G◎导  演 凯莉·雷查德 Kelly Reichardt
' x8 P9 X( {; _, [, X; a# j◎编  剧 乔纳森·雷蒙德 Jonathan Raymond
5 ?. p& `% c8 v. I       凯莉·雷查德 Kelly Reichardt
: t1 g/ @& w9 p  ?: J◎主  演 约翰·马加罗 John Magaro
) q! j9 g( D4 V+ K, P       奥瑞恩·李 Orion Lee
' J+ L! m* {" H* ^0 {+ V9 s* l% |       雷内·奥博诺伊斯 Rene Auberjonois
, d, k/ M5 A! u0 R8 [* p       托比·琼斯 Toby Jones5 c! X, z' Q6 i, z
       艾文·布莱纳 Ewen Bremner0 X! y* d- G: }
       斯科特· 谢泼德 Scott Shepherd+ F* a8 O$ ~' p
       加利·法梅尔 Gary Farmer
# p6 F% r6 q% _       莉莉·格莱斯顿 Lily Gladstone
, d: g' O- p8 V6 E& S       阿莉雅·肖卡特 Alia Shawkat6 \4 y! o3 T9 Y7 Y- |5 P
       John Keating
7 r" b  F2 y: `' \1 x" s$ w# a       戴兰·史密斯 Dylan Smith
% v' C/ L' N4 P7 Z9 R1 X* r       Manuel Rodriguez
* U  ^0 F$ X# B+ Q+ E2 z- u% J       克雷顿·尼姆罗 Clayton Nemrow
9 y; S: J8 M. m4 o& A' q6 |+ y3 Z       Jared Kasowski
( u+ x8 C4 u' k  U$ A       杰布·贝里耶 Jeb Berrier$ J. s7 P5 ^0 y7 l7 X: c2 P8 m, |
       托德·罗宾森 Todd Robinson  }  b1 U# X+ N( R( b! \* @
       特德·鲁尼 Ted Rooney
1 [9 v; |- `" a) e
' D/ Z3 k9 ~/ f8 Q8 i◎简  介  2 ~# o% z+ c7 M5 N

  N; ^! u( F8 N  A skilled cook has traveled west and joined a group of fur trappers in Oregon, though he only finds true connection with a Chinese immigrant also seeking his fortune. Soon the two collaborate on a successful business./ h9 v9 W8 a. Q$ ]5 D, U& F. i! N

# s7 i% I6 c" J- I' L% n8 `  故事改编自乔纳森·雷蒙德的小说《半条命》,雷蒙德和导演雷查德共同改编,设定在十九世纪二十年代(即1820s)的俄勒冈,一个西方厨子Cookie(约翰·马加罗饰演)来到荒蛮的西部碰运气,遇到了同样前来寻找机会的中国移民King Lu( 奥瑞恩·李饰演),两人一见如故,并借着一头奶牛合伙做起了生 意。
4 F" K( d( \: }5 C6 I" Q; g
$ v% \7 b' J$ B% |1 t9 K  A loner and cook (John Magaro) has traveled west and joined a group of fur trappers in Oregon Territory, though he only finds connection with a Chinese immigrant (Orion Lee). The men collaborate on a business, although its longevity is reliant upon the participation of a wealthy landowner's prized milking cow.) j  r2 ~6 B! Q- t5 d

0 v  s& x/ B( @3 \9 K7 y◎获奖情况  
/ S+ W6 I% S  w, |  z: F/ `) y
- {8 D8 }; E! }6 j: w0 R. d  第70届柏林国际电影节(2020)
- F, L, r+ u2 R2 m- e; E+ i0 f# |  金熊奖(提名) 凯莉·雷查德7 y' W1 r' k: g! N
Video  m, y/ h* b  B6 `& _
ID                                       : 1% \  ^* U/ c; H7 }
ID in the original source medium         : 4113 (0x1011)5 S4 g8 u% u" h$ Z1 b" S
Format                                   : AVC+ O* o- Z. S; C" ]2 z3 M+ D9 [. b
Format/Info                              : Advanced Video Codec
* @4 a7 u# g. b7 sFormat profile                           : High@L4.1! c2 h' e  v6 H
Format settings                          : CABAC / 4 Ref Frames
& s+ F3 p( \, f0 nFormat settings, CABAC                   : Yes3 r5 g, ^" B# B+ Z. u( v
Format settings, Reference frames        : 4 frames
0 b  n+ S" I$ t/ Z2 m# w1 WCodec ID                                 : V_MPEG4/ISO/AVC
0 b5 S3 ?4 Y0 M, h: BDuration                                 : 2 h 1 min! W# P9 ~2 n# i7 ^! Y  c
Bit rate mode                            : Variable; f1 b$ L& g  ^, D* R# g
Bit rate                                 : 35.3 Mb/s
- }. c- A# w9 G3 @: |3 C5 RMaximum bit rate                         : 37.0 Mb/s! {( o% K( a2 x! m( f
Width                                    : 1 920 pixels! U5 A% q& V* a% Q" Q
Height                                   : 1 080 pixels8 V% c, r: D2 k+ b* J3 j
Display aspect ratio                     : 16:9: L* M, G2 N8 a% k! g4 {! ~$ n
Frame rate mode                          : Constant  l' W+ U% v; `6 z$ j: \
Frame rate                               : 23.976 (24000/1001/37687) FPS( i. Y8 k$ K/ |  Y8 J/ ]% R
Color space                              : YUV
6 M! M# O: [( \, j8 H+ J, JChroma subsampling                       : 4:2:08 o0 q3 [3 W/ ^, ?' z
Bit depth                                : 8 bits  a  u. D6 ?! N- }0 p; v
Scan type                                : Progressive
8 U3 M' F7 N( [- k$ b  m& JBits/(Pixel*Frame)                       : 0.711" Z. S' o0 B( ]
Stream size                              : 30.1 GiB (91%)2 N9 A  h$ x# a
Title                                    : First.Cow.2019.1080p.BluRayCD.REMUX.AVC.DTS-HD.MA.5.1-FGT
5 U. @$ B: a. W* V0 ^* m: R' TLanguage                                 : English
4 {- K& M4 T2 G; DDefault                                  : No5 ^9 k# f3 c8 k1 S, X- y  }
Forced                                   : No
/ w5 i" m5 p6 ~: cOriginal source medium                   : Blu-ray! d2 m1 }' J7 F6 E1 l7 m

- q4 m$ U5 [0 ~2 BAudio4 P: x! U* S" }3 F" C' T9 F* H
ID                                       : 2% u6 F% b0 i9 b9 [
ID in the original source medium         : 4352 (0x1100)/ n8 C. U: t) f9 j- @( H9 o$ \! ^$ I
Format                                   : DTS XLL
. ^' B; P% T8 h+ _/ T9 b: bFormat/Info                              : Digital Theater Systems! H: l0 ~  U8 P
Commercial name                          : DTS-HD Master Audio
3 J: L. H% t0 a  MCodec ID                                 : A_DTS
/ v2 p9 M2 R% u/ P. S& O6 B: C7 ?) VDuration                                 : 2 h 1 min6 G# I# @! f4 @
Bit rate mode                            : Variable, `. D8 C6 v) U
Bit rate                                 : 3 333 kb/s
3 x: M: g5 c8 u9 FChannel(s)                               : 6 channels
+ f4 x$ p2 }+ S4 ]  J( g4 DChannel layout                           : C L R Ls Rs LFE2 y2 g. @' d; ~" C* ~
Sampling rate                            : 48.0 kHz1 U! U4 z/ n9 ^6 ~0 f* b$ g! K
Frame rate                               : 93.750 FPS (512 SPF)
* b& p! V) n$ FBit depth                                : 24 bits
3 @" f) `" l: iCompression mode                         : Lossless
+ r0 Y, v4 f, _& e  C& YStream size                              : 2.84 GiB (9%)5 w5 c0 K% z& I5 w
Title                                    : First.Cow.2019.1080p.BluRaycd.REMUX.AVC.DTS-HD.MA.5.1-FGT
- {9 j% |% N3 PLanguage                                 : English
" ]; @! W! C7 t' pDefault                                  : Yes
! i) A+ k8 X" N* u+ w8 cForced                                   : No0 l, S, z8 J  L5 `: D  l1 k
Original source medium                   : Blu-ray8 P" b2 y0 V& @0 e) y. l2 B
0 y; M, S; z1 v$ u5 {
Text #1
& x) c! d; w4 I( c6 z. m2 `4 PID                                       : 3
$ c5 K) N/ x2 K2 \- L  K* o8 NFormat                                   : UTF-8, a+ x* _: r5 {, P( G
Codec ID                                 : S_TEXT/UTF8$ a6 Q  k+ |/ u) c+ Q
Codec ID/Info                            : UTF-8 Plain Text
( X; M2 u! K; r! pDuration                                 : 1 h 57 min
$ r- N* h* Z/ Z# k) RBit rate                                 : 22 b/s# p% V9 `4 o8 A
Count of elements                        : 644; u3 R6 W" T- S. H
Stream size                              : 19.5 KiB (0%)
$ F/ I# [$ B8 qTitle                                    : English-SRT  _* }! Y" v9 C5 g% a
Language                                 : English
) r6 s$ Z/ n5 S0 I9 z; |/ aDefault                                  : Yes
# g& A2 u: k$ O. {$ A# ?& UForced                                   : No( V4 V6 R: ^- Z! S
# o2 T4 ~2 b% U
Text #23 }0 N, l4 O' L+ ~
ID                                       : 4
* Y# `" G8 O8 n$ a" C* \ID in the original source medium         : 4608 (0x1200)& p# f0 J+ Y5 c0 n/ o
Format                                   : PGS- Q$ z" u% {; z, a
Muxing mode                              : zlib
$ n7 m, E+ t2 k5 d1 U- BCodec ID                                 : S_HDMV/PGS) D8 @, S: w. p! [: \; A( r1 P6 L
Codec ID/Info                            : Picture based subtitle format used on BDs/HD-DVDs
8 n, @2 k5 R+ B/ O" L3 b! Q+ NDuration                                 : 1 h 57 min
0 o8 \7 ~2 W6 L5 Y$ s8 Z6 FBit rate                                 : 17.9 kb/s
" n  B, T4 o! J# T3 ]  g) WCount of elements                        : 1662
) @; F; Y* f' Z6 M# n% {Stream size                              : 15.1 MiB (0%)8 M. w. o, R9 G3 K% t3 `
Title                                    : English-PGS-PGS9 w8 S$ Z2 m% ^. b
Language                                 : English
" R0 A) F7 L9 f9 |% YDefault                                  : No
; L4 u$ N* `# ~) W1 A, jForced                                   : No8 B8 `: w7 ^, O! {% @5 M. D
Original source medium                   : Blu-ray
9 ?8 ?8 r- {6 C. e
- {) W9 A3 M& n6 q  n6 a( a" x7 @Text #3) {. X; x0 b3 {$ j7 `# R
ID                                       : 5/ H. V2 ?+ B. k5 d: [
ID in the original source medium         : 4609 (0x1201)
3 q2 M* @/ H. f" {  bFormat                                   : PGS1 H9 e* r/ T1 k3 D
Muxing mode                              : zlib
2 h' `2 [7 n0 U, j: XCodec ID                                 : S_HDMV/PGS- O3 o* n6 Q8 d& H8 Z8 ~
Codec ID/Info                            : Picture based subtitle format used on BDs/HD-DVDs
* N3 n! K1 B4 q4 X) W$ eDuration                                 : 2 h 0 min
% v8 E0 A! f2 u' gBit rate                                 : 13.6 kb/s
' c: C2 Z  N: X' |4 kCount of elements                        : 1224
5 B6 P5 q/ M, f. a2 Q* MStream size                              : 11.7 MiB (0%), w+ P: R3 d0 u8 r
Title                                    : Spanish-PGS( i1 A' a3 E( f, V  I8 N+ r
Language                                 : Spanish( J4 |2 }5 Q' K/ M( ~& s% [% G3 u
Default                                  : No
- ]# v. ^% b; N2 W. \/ q, CForced                                   : No
9 `7 g9 [& z, L5 U7 Q/ w9 {4 @* v- POriginal source medium                   : Blu-ray7 }; c( X% O/ u6 S- s1 O

' W7 u# [7 {( x+ h$ `& OMenu, u& @/ G- h- `; l; Z
00:00:00.000                             : en:Chapter 01, I: K) r# f; e4 r; p
00:07:32.827                             : en:Chapter 02+ q8 P6 _& N; L- B- b- d
00:12:15.234                             : en:Chapter 03
) n) X& e4 f) s7 m00:22:05.240                             : en:Chapter 04
7 H' k9 B# w% |  W: g" H; U" T00:27:21.389                             : en:Chapter 05, A2 [2 L2 E& J8 t3 y% H) p
00:36:41.073                             : en:Chapter 06
3 A, W4 B! c, T& n9 {00:44:40.219                             : en:Chapter 07; m8 g$ O- o! e8 {% ?% @0 @6 H
00:50:10.424                             : en:Chapter 08& C% ?) v. a: p
00:56:47.028                             : en:Chapter 09) ~# ]& y4 ~3 e  L
01:02:24.782                             : en:Chapter 10( l, f% `' \7 w  x2 @3 ?4 l- N
01:07:04.687                             : en:Chapter 11" c  \  l& f, }3 _, t
01:15:38.617                             : en:Chapter 12& v4 o  T; h7 O1 B' G
01:24:03.955                             : en:Chapter 13
& S2 F6 A8 S: L, {  c01:36:30.117                             : en:Chapter 14
# r4 H9 U% e( q- H01:44:24.049                             : en:Chapter 155 o' _1 n9 j: q
01:52:41.546                             : en:Chapter 16

( z% x! L$ |9 S
游客,查看本帖隐藏内容请回复 | 加入VIP贵宾组可免积分免回复下载 了解详情 | 还不是会员:点击获取邀请码 Invitation Code

600

主题

1989

帖子

1万

积分

VIP advanced

金币
1737 枚
体力
4529 点

公主勋章卓越贡献勋章

21cn 发表于 2020-9-12 23:46:56 | 显示全部楼层
楼主发贴辛苦了,I*老*虎*U!
& @4 ^, F3 q7 s$ B+ o: O9 ]; A' j5 ?After reading the posts have nothing to do I Amoy posts!- E( E$ R+ E4 B8 b1 X; H( I  G

64

主题

1486

帖子

5413

积分

Sponsor

金币
292 枚
体力
2056 点
lanpanshuma 发表于 2020-9-15 05:35:28 | 显示全部楼层
楼主发贴辛苦了,I*老*虎*U!4 _2 h- K- E4 e3 n: L' d
Bluraycd.com movie updates really fast, also did not release issued, whether you believe it or not, anyway, I believed!
该会员没有 ...

0

主题

186

帖子

993

积分

Sponsor

金币
152 枚
体力
482 点
2475017 发表于 2020-9-19 18:49:27 | 显示全部楼层
* v* l# F2 y  D  t/ S) A: w. L* B& }
楼主发贴辛苦了
该会员没有 ...

0

主题

227

帖子

1256

积分

Sponsor

金币
7 枚
体力
678 点
QQ
yinger_0909 发表于 2020-9-19 21:14:13 | 显示全部楼层
0 ^$ S; o$ I( D. Z' J
每天都来蓝光论坛看看,我爱蓝光电影。. }& s# m- `3 i/ G- n
I love your Blu-ray movies Forum!

0

主题

186

帖子

993

积分

Sponsor

金币
152 枚
体力
482 点
2475017 发表于 2020-9-19 23:51:54 | 显示全部楼层

5 l! I; B7 [) |) j, O1 D; c3 Q楼主发贴辛苦了
该会员没有 ...

19

主题

1314

帖子

7046

积分

Sponsor

金币
937 枚
体力
3500 点
QQ
shiji1973 发表于 2020-10-5 09:36:37 | 显示全部楼层
感谢分享精彩电影

本版积分规则

小黑屋|Archiver|蓝光电影资源网

GMT+8, 2020-10-23 01:55

快速回复 返回顶部 返回列表