BluRayCD Forum

 找回密码
 立即注册【分享大片】

QQ登录

只需一步,快速开始

查看: 33|回复: 2
收起左侧

[蓝光原盘] 艾娃/追杀艾娃/头号杀姬Ava [REMUX无损版] Ava 2020 1080p BluRaycd REMUX AVC DTS-HD MA 5.1-FGT 19.85GB

[复制链接]

7777

主题

7971

帖子

6万

积分

Forum Moderator

金币
10563 枚
体力
9607 点

卓越贡献勋章

24小时 发表于 2020-9-12 21:24:30 | 显示全部楼层 |阅读模式
01.jpg
! Q$ ?9 z6 v/ r9 I7 N
5 N- F3 e5 W& G* w+ Y, U◎译  名 艾娃/追杀艾娃(台)/头号杀姬Ava(港)/伊芙1 K2 E1 ?8 N, ]& Z  n
◎片  名 Ava / Eve" a- w/ X) Q" r+ d% j
◎年  代 2020% o* B2 U! P8 R4 v; W  n
◎产  地 美国% `  n2 J- p9 Z" C0 U
◎类  别 动作/惊悚/犯罪
; ]( A% N7 y9 R0 w" e◎语  言 英语  a3 o, c% c7 \4 ?" g0 H" c
◎上映日期 2020-07-02(匈牙利)/2020-08-25(加拿大网络)/2020-09-25(美国)
7 S3 ^# m  {# t: S5 j) M◎IMDb评分  5.3/10 from 8,965 users
: l; N" ]1 c8 P$ }◎IMDb链接  https://www.imdb.com/title/tt8784956/
$ ?0 _: |  b+ Q6 K◎豆瓣评分 4.9/10 from 3,085 users
, U5 R1 [8 z% y  b◎豆瓣链接 https://movie.douban.com/subject/30289869/
* }+ `4 D/ u3 X! P7 e- I◎文件格式 x264 + DTS* k% E1 K' R! y( q& h* l4 j
◎视频尺寸 1920 x 1080' n4 C# A. L% i: ~) L5 |; J
◎文件大小 1DVD 19.85 GiB
6 R# z, U! s' [◎片  长 1 h 36 min
2 P$ X8 T0 g- b* x4 _5 e0 Q7 {◎导  演 泰特·泰勒 Tate Taylor2 `  |6 \6 ]+ z5 z3 X  O+ G* n
◎编  剧 马修·纽顿 Matthew Newton3 K* J8 [# _7 W* B% c" I
◎主  演 杰西卡·查斯坦 Jessica Chastain, @! d: W* l: V) T& v4 z
       科林·法瑞尔 Colin Farrell$ S& n! a: g7 L  O( }
       约翰·马尔科维奇 John Malkovich
8 z9 q+ B, `1 V5 h7 [) H       吉娜·戴维斯 Geena Davis- ^2 F9 H5 [# n+ e
       陈冲 Joan Chen
9 V3 C, B& j9 N; i! S       戴安娜·西尔弗斯 Diana Silvers; P* V6 h8 o1 M3 p  K- H
       科曼 Common
0 L$ ?$ C& b1 C9 c       艾恩·格拉法德 Ioan Gruffudd0 T) C0 k7 Z, U: O2 R* ~" N  L- i
       杰丝·威克斯勒 Jess Weixler( W: s( G" K7 @" ]7 e8 ~
       埃夫卡·科瓦拉西尤斯 Efka Kvaraciejus
! H- y8 D, X6 H1 |       安妮·比萨比亚 Annie Pisapia
; y0 Y, J& q' R7 ]       克里斯托弗·J·多米格 Christopher J. Domig
3 w+ F7 _- [7 `, y4 H: q4 Y3 e: W# b+ l. E) J
◎简  介  
2 I- R3 m5 e; ?5 ^8 b4 @! e. l7 x3 ]. E! F
  顶尖杀手艾娃效忠于一个神祕组织,在全球各地执行高价值目标的暗杀行动。然而,一次出了差错的行动,让艾娃身陷生死危机。面对各路杀手铺天盖地的追杀,无路可退的艾娃唯有杀出血路,才有活下去的机会…& [0 N+ b. E& \. h% N5 K

+ p* `. ^& g# e' \( @. U  Ava is a deadly assassin who works for a black ops organization, traveling the globe specializing in high profile hits. When a job goes dangerously wrong she is forced to fight for her own survival.
! ^- n/ R5 a" O4 t9 C
Video
  X6 l! [" S7 e+ \- {8 @& H2 HID                                       : 1+ g+ p$ ^9 q9 J* }) B' @; Z1 C
ID in the original source medium         : 4113 (0x1011)  w$ |# A* x" W( M  v* ]3 O2 Y
Format                                   : AVC# z, w0 ^) I) S7 q/ ^% }$ t
Format/Info                              : Advanced Video Codec
7 P' f) {' g1 S0 H1 uFormat profile                           : High@L4.13 D( J0 ~/ u7 o
Format settings                          : CABAC / 4 Ref Frames
9 s# m  a- A! A: L  _4 lFormat settings, CABAC                   : Yes) {; a1 y5 m3 `$ |) k
Format settings, Reference frames        : 4 frames
8 @% O; V9 o$ |$ GFormat settings, GOP                     : M=3, N=23
1 s3 M7 ^9 v, t2 A6 R/ t* f/ @Codec ID                                 : V_MPEG4/ISO/AVC
9 L% a: Y4 n! H4 C6 kDuration                                 : 1 h 36 min
) U* w. [, [6 g6 WBit rate mode                            : Variable
( l- q: I! P. ?Bit rate                                 : 23.3 Mb/s0 f4 b. r4 R3 I# @5 L- I# k* r
Maximum bit rate                         : 28.0 Mb/s
5 E, C) f  R6 q! e; NWidth                                    : 1 920 pixels
5 C% h: _( a, y6 C' ?* \1 RHeight                                   : 1 080 pixels
3 }, U6 o) N4 {+ x6 E( h4 DDisplay aspect ratio                     : 16:90 F+ @% F- }5 O; l
Frame rate mode                          : Constant( U9 S* x+ c$ r6 O! b6 H; ^
Frame rate                               : 23.976 (24000/1001/37687) FPS
, X1 O8 E* G$ ~! \) W  f1 wColor space                              : YUV) a$ o: R3 w3 d  z7 r+ s
Chroma subsampling                       : 4:2:0
% ?& p: U2 L; y; y8 ~+ L" fBit depth                                : 8 bits
; M3 }) e* X$ X& g1 K7 Q% wScan type                                : Progressive
+ b$ z  T  }/ d7 t$ f/ X7 Y. v* s0 DBits/(Pixel*Frame)                       : 0.468
/ z  |' |! a4 b) }Stream size                              : 15.7 GiB (79%)0 B$ n* x7 F! {
Title                                    : Ava.2020.1080p.BluRayCD.REMUX.AVC.DTS-HD.MA.5.1-FGT  @' J  j- e1 K9 O9 C: c7 L% o
Language                                 : English8 M* k; r9 D  @* E& f8 j
Default                                  : No
0 s6 G- ~" B3 V% yForced                                   : No; X+ i1 c% u) Y, d  c  ^: m
Color range                              : Limited7 `4 A( ?+ Y% j4 e# A
Color primaries                          : BT.709
  ?) V6 s) D+ Q$ f& S: g; LTransfer characteristics                 : BT.709
* r, E" r/ q8 N5 IMatrix coefficients                      : BT.709
5 m) M) m+ C* Z  m; z( `1 pOriginal source medium                   : Blu-ray8 b7 c( p0 y$ U$ y

+ j$ r/ s  C% }. i( d; L; hAudio #1
( o% g) q7 F' D5 m5 nID                                       : 21 T3 [$ V) z- g9 m" X3 B
ID in the original source medium         : 4352 (0x1100)' z, F, `5 h7 U
Format                                   : DTS XLL
! i5 d# _! F! O& N' N: EFormat/Info                              : Digital Theater Systems
9 r/ |0 V5 g) A- E' B# ~# l: SCommercial name                          : DTS-HD Master Audio5 I. w3 R% }4 W
Codec ID                                 : A_DTS
3 s3 _6 d. I0 P& I4 _Duration                                 : 1 h 36 min
% v8 r" l6 b4 E6 w$ I2 a& Y. \Bit rate mode                            : Variable* ^) Z) V+ F+ u' E
Bit rate                                 : 3 753 kb/s7 @$ ?1 D8 y+ M
Channel(s)                               : 6 channels; p$ S" N! F( B6 T* M- d
Channel layout                           : C L R Ls Rs LFE- V! |7 [( e, S
Sampling rate                            : 48.0 kHz
: o2 V  s; x" I1 B, AFrame rate                               : 93.750 FPS (512 SPF)
0 M+ Q0 s7 l) }# U- w- T9 g# qBit depth                                : 24 bits8 J% \3 h& ~9 k
Compression mode                         : Lossless
: u9 B" B2 d( w. r) \7 P  \Stream size                              : 2.54 GiB (13%)2 o1 N" o# R! f$ D
Title                                    : Ava.2020.1080p.BluRaycd.REMUX.AVC.DTS-HD.MA.5.1-FGT+ p9 a+ |7 _" c
Language                                 : English
0 D  \7 e; q! Y2 QDefault                                  : Yes
7 h2 V" s4 W/ ^* ^$ i# IForced                                   : No
1 \6 n; R* Z/ K) e# GOriginal source medium                   : Blu-ray/ S  s5 ~2 A6 P$ P4 J3 V0 |9 Q

% u9 {; g% O; g; C; jAudio #2
0 J% n. O8 X9 ]* [" f# }ID                                       : 38 b# ?4 s: Q$ \" g# g) B# G6 C
ID in the original source medium         : 4353 (0x1101)$ M& \& R! `' s- h3 ~6 v: k
Format                                   : PCM
1 v: @& D$ P4 a7 }4 v' r7 SFormat settings                          : Little / Signed
2 H: B$ H+ h- T4 z2 V" uCodec ID                                 : A_PCM/INT/LIT
. m4 p& L8 O  ^2 W' ?0 D0 O* F8 ~: pDuration                                 : 1 h 36 min& l2 v9 q1 V* D$ f1 g" }" M$ u
Bit rate mode                            : Constant
! G2 w9 F6 j, n4 o) t5 n. nBit rate                                 : 2 304 kb/s
/ B) f% {& k2 ~" I! a7 TChannel(s)                               : 2 channels% J. |* J$ h) m
Sampling rate                            : 48.0 kHz1 m5 Q) e; c4 D3 H- h' b2 s5 Z
Frame rate                               : 30.000 FPS (1600 SPF)
+ @. X5 Q/ \1 y7 T, C- A& yBit depth                                : 24 bits
( P! @( j5 D9 vStream size                              : 1.56 GiB (8%), n+ I# p6 t% C0 A
Title                                    : Ava.2020.1080p.BluRaycd.REMUX.AVC.DTS-HD.MA.5.1-FGT* ?7 ~" C9 ^* X" f: V
Language                                 : English+ ]/ R. B, k; B, L# j) K/ d
Default                                  : No
& ^* `( C2 z9 T+ {Forced                                   : No: d; i) F8 [. F+ b! R' s7 {
Original source medium                   : Blu-ray
4 H  I- l* x# ~; G) y9 D1 Q1 K! B! m% m
Text #1/ a, h% m6 [  a8 I4 |
ID                                       : 4$ }# g0 l& Q6 Q' ]' H* Y# J
Format                                   : UTF-86 C8 Z" v7 y  |
Codec ID                                 : S_TEXT/UTF8
8 k& J+ M/ L  G5 Y  SCodec ID/Info                            : UTF-8 Plain Text1 E) a$ S9 {4 q1 r4 k: ?3 E( `
Duration                                 : 1 h 30 min
2 @. r. S* k3 V3 LBit rate                                 : 45 b/s
6 H5 [( r5 {$ H( D' fCount of elements                        : 9098 w  w# v& M4 D
Stream size                              : 30.5 KiB (0%)  @0 P! w  {* ?# J/ G
Title                                    : English-SRT, f7 Z* V" @4 N9 J
Language                                 : English
2 \/ r. t; a- Q( vDefault                                  : Yes
! w9 ~1 Y+ V2 r  `% X& e5 UForced                                   : No
5 x- b5 @* _6 c$ d0 Q6 y% n: o
9 N, A: v" `) }6 }/ w! ~( s8 lText #20 C; g9 W8 n5 A; P0 R" i; N
ID                                       : 59 [* ~9 q, `1 Q- m' c/ G8 b
ID in the original source medium         : 4608 (0x1200). q& U5 T( F8 a! y( j! x+ O* B1 a- V
Format                                   : PGS
+ y' R% N5 G, T: E6 ^/ OMuxing mode                              : zlib
% o6 r) A4 d8 I6 L$ l" w, GCodec ID                                 : S_HDMV/PGS; q2 u- V1 u! x
Codec ID/Info                            : Picture based subtitle format used on BDs/HD-DVDs9 t# c: u/ Y8 A" q5 a
Duration                                 : 1 h 31 min; {# o6 L) u5 D5 m! T/ z, I' F% ]
Bit rate                                 : 24.5 kb/s
+ d' Y/ O1 e) u, G7 ^1 OCount of elements                        : 1810
0 B. U& ~( o/ ?/ g. |6 K8 QStream size                              : 16.0 MiB (0%)
; q2 A# W8 o) y9 Q, ^9 M) eTitle                                    : English-PGS
6 d9 k; a2 R' k6 v' N( V, r5 ?Language                                 : English
2 ?7 C% b2 s, I* F) y3 ^Default                                  : No) t- Y6 D. I1 m/ t
Forced                                   : No
4 F9 i5 r7 c2 M2 L1 @7 G: m$ TOriginal source medium                   : Blu-ray
$ B7 k7 ~! P. g/ K9 ^
5 |6 B+ x4 r- g/ i' d8 wMenu6 ^6 M' e/ d- e8 R, r! u! Z
00:00:00.000                             : en:Chapter 01
' h+ ~3 _3 _3 X+ ^) R- Q00:11:07.708                             : en:Chapter 02+ b# g/ {! V! L) n( F" ^% t: D, R
00:21:53.395                             : en:Chapter 03
& Q2 j7 s! {9 ]& k9 J! Q8 H7 H00:32:22.899                             : en:Chapter 04% W/ J: c! T6 N2 k9 C
00:44:26.330                             : en:Chapter 05. H2 K, x3 i' E7 ?
00:58:33.426                             : en:Chapter 06) U7 ]2 Y. X, I
01:10:38.192                             : en:Chapter 07
# p' b; t( L  q; i: e# [01:18:23.949                             : en:Chapter 08
1 h/ \4 o" \9 m2 B* o% W& l* O: h3 v01:32:28.751                             : en:Chapter 09

$ o# O! s4 c. ?3 U  D( n7 |0 N0 H
游客,查看本帖隐藏内容请回复 | 加入VIP贵宾组可免积分免回复下载 了解详情 | 还不是会员:点击获取邀请码 Invitation Code

611

主题

2010

帖子

1万

积分

VIP advanced

金币
1774 枚
体力
4576 点

公主勋章卓越贡献勋章

21cn 发表于 2020-9-12 23:48:05 | 显示全部楼层
楼主发贴辛苦了,I*老*虎*U!
  k% [; s  U2 c# a6 q5 ~  XIn fact, I have always felt that the landlord of good taste! Ha ha!% P: v& D1 @' p, [' I6 R! P  M* e

64

主题

1506

帖子

5493

积分

Sponsor

金币
308 枚
体力
2082 点
lanpanshuma 发表于 2020-9-13 08:24:54 | 显示全部楼层
Bluraycd又有新电影发布了,激动中……!1 [" V. B3 n' i$ y" H! h, [
In fact, I have always felt that the landlord of good taste! Ha ha!, I" _3 z7 q. y2 ~7 w3 T
该会员没有 ...

本版积分规则

小黑屋|Archiver|蓝光电影资源网

GMT+8, 2020-10-29 13:05

快速回复 返回顶部 返回列表