BluRayCD Forum

 找回密码
 立即注册【分享大片】

QQ登录

只需一步,快速开始

查看: 19|回复: 0
收起左侧

[动作战争] 艾娃/追杀艾娃/头号杀姬Ava/伊芙 Ava 2020 1080p BluRaycd x264 DTS-HD MA 5.1-FGT 10.33GB & 8.80GB

[复制链接]

3897

主题

4271

帖子

3万

积分

Post Share

金币
7316 枚
体力
6584 点

卓越贡献勋章

mvods 发表于 2020-9-19 20:52:50 | 显示全部楼层 |阅读模式
7 M  ]: y* |  z! p1 ?$ u0 K

0 G6 |* [& E" u% G6 K◎译  名 艾娃/追杀艾娃(台)/头号杀姬Ava(港)/伊芙. S  {1 k& c/ r; h
◎片  名 Ava / Eve
) Z5 L7 L' g# U0 _8 A& ~# `( z◎年  代 2020
, N! C+ G1 o& A, U: D' Y9 I◎产  地 美国9 B# z& A3 M9 K5 c5 G0 H, P
◎类  别 动作/惊悚/犯罪6 r; ?1 k$ @6 x, E7 ~& g; T
◎语  言 英语. H: G8 n1 P  C2 F
◎上映日期 2020-07-02(匈牙利)/2020-08-25(加拿大网络)/2020-09-25(美国)
/ j* i6 q& w9 g◎IMDb评分  5.3/10 from 10,519 users
; h. @0 j# ^( F9 U" I# W$ b4 x6 S◎IMDb链接  https://www.imdb.com/title/tt8784956/( _1 h7 @& w5 t4 l3 @( r- j
◎豆瓣评分 4.9/10 from 3,505 users
1 I. j. W1 y- h& [3 A: w! w! `7 y◎豆瓣链接 https://movie.douban.com/subject/30289869/
# W& K+ f6 U! Y( K◎片  长 1 h 36 min2 D  J; l7 M2 _6 f  R' |
◎导  演 泰特·泰勒 Tate Taylor; a$ {' `' S1 w; l
◎编  剧 马修·纽顿 Matthew Newton
" @5 u# |' R& ]1 W# K◎主  演 杰西卡·查斯坦 Jessica Chastain
/ _/ a, D* i% A) K4 Y       科林·法瑞尔 Colin Farrell
. q- S( f3 b* ]: s       约翰·马尔科维奇 John Malkovich
7 N$ m+ l  b7 M# K/ H* Y       吉娜·戴维斯 Geena Davis
# i8 d6 |: n7 w4 X: _       陈冲 Joan Chen
. U8 {) F) |& W8 ?2 N! n       戴安娜·西尔弗斯 Diana Silvers
  O' ^/ m! J1 G! q9 M# J  [       科曼 Common; q5 M* m- K9 F
       艾恩·格拉法德 Ioan Gruffudd9 ?: R; h! N3 h# |* B
       杰丝·威克斯勒 Jess Weixler8 e7 w6 f% C4 C- d( _  f
       埃夫卡·科瓦拉西尤斯 Efka Kvaraciejus
: s3 c% L+ P! `) q! h) _       安妮·比萨比亚 Annie Pisapia4 E" |  V! r2 j+ x
       克里斯托弗·J·多米格 Christopher J. Domig
0 p% `$ |. {: X9 _/ [. C) u) p5 C% a' z2 A1 e% n3 E0 |
◎标  签 动作 | 杰西卡·查斯坦 | 美国 | 美国电影 | 2020 | 电影 | Jessica·Chastain | 剧情
4 x; {7 }/ K- h' J: l4 c! ^
0 A: c; D0 B) C7 S+ L/ F9 Y( M◎简  介  0 H1 C7 `  c7 Q: F/ G2 S
: [2 T& Y  }9 ^$ w# Z
  顶尖杀手艾娃效忠于一个神祕组织,在全球各地执行高价值目标的暗杀行动。然而,一次出了差错的行动,让艾娃身陷生死危机。面对各路杀手铺天盖地的追杀,无路可退的艾娃唯有杀出血路,才有活下去的机会…
1 j3 b- V' w1 e* N! S0 a- t; d2 M" M! h. B1 a) L
  Ava is a deadly assassin who works for a black ops organization, traveling the globe specializing in high profile hits. When a job goes dangerously wrong she is forced to fight for her own survival.
; E# ~: K8 K1 L# \! G" ]
Video, b! r' E7 E8 s2 z' ]1 P' i
ID                                       : 1- Z& t) j% |  K6 d% V6 n+ ^% E
Format                                   : AVC
- w+ D* d+ x! fFormat/Info                              : Advanced Video Codec( o  U3 E% d% ]) z' {/ {8 Q
Format profile                           : High@L4.1+ A6 M3 Y( ^$ i" H
Format settings                          : CABAC / 4 Ref Frames- `* x* K  Y8 S2 _5 P3 U# s% x
Format settings, CABAC                   : Yes
7 O+ i, O- i' g, O' m# KFormat settings, Reference frames        : 4 frames1 i" }1 V& e" i7 r, E8 I5 O3 t8 K* x
Codec ID                                 : V_MPEG4/ISO/AVC
( h, q4 B# x! J; O6 Q+ o$ Y. _# LDuration                                 : 1 h 36 min# }, R* o7 X0 O# N; A9 }% }2 ?
Bit rate                                 : 11.5 Mb/s
. I. n# p1 q5 e4 l9 \. \Width                                    : 1 920 pixels+ P% \, _4 p% T3 r
Height                                   : 800 pixels" {: I* D1 @/ @2 n% [
Display aspect ratio                     : 2.40:1: ]! y7 |; J, o
Frame rate mode                          : Constant+ J7 u' @+ P- ?  i! F& V  N
Frame rate                               : 23.976 (24000/1001/37687) FPS1 K' n6 Y9 \- p/ n) j
Color space                              : YUV
  R# g% V- z+ B" P7 bChroma subsampling                       : 4:2:0' w& |" X/ ?0 U! x! t6 i
Bit depth                                : 8 bits
9 D& m. }6 p' g# \8 N0 I+ a# KScan type                                : Progressive
- k% X4 q" f# t) @Bits/(Pixel*Frame)                       : 0.312  j: L6 k. s7 ?% x
Stream size                              : 7.78 GiB (75%)2 _, N" \+ E/ M3 d0 I
Title                                    : Ava.2020.1080p.BluRayCD.x264.DTS-HD.MA.5.1-FGT
9 [/ D8 D3 V3 Q! {: H, TWriting library                          : x264 core 148 r2795M aaa9aa8
/ g: S- u$ L' N- f( REncoding settings                        : cabac=1 / ref=4 / deblock=1:-2:-2 / analyse=0x3:0x113 / me=umh / subme=9 / psy=1 / psy_rd=1.00:0.15 / mixed_ref=1 / me_range=16 / chroma_me=1 / trellis=2 / 8x8dct=1 / cqm=0 / deadzone=21,11 / fast_pskip=1 / chroma_qp_offset=-3 / threads=72 / lookahead_threads=3 / sliced_threads=0 / nr=0 / decimate=1 / interlaced=0 / bluray_compat=0 / constrained_intra=0 / bframes=3 / b_pyramid=2 / b_adapt=1 / b_bias=0 / direct=3 / weightb=1 / open_gop=0 / weightp=2 / keyint=250 / keyint_min=25 / scenecut=40 / intra_refresh=0 / rc_lookahead=50 / rc=2pass / mbtree=1 / bitrate=11500 / ratetol=1.0 / qcomp=0.60 / qpmin=0 / qpmax=69 / qpstep=4 / cplxblur=20.0 / qblur=0.5 / vbv_maxrate=31250 / vbv_bufsize=31250 / nal_hrd=none / filler=0 / ip_ratio=1.40 / aq=1:1.00
0 @- k. g7 q7 F) e- m# Z4 }Language                                 : English% i" S: x4 ]) U9 d3 }! h
Default                                  : Yes; R2 f' s% p+ v3 y& \% `
Forced                                   : No& G- m9 P  q1 {+ Q

5 A) G  e0 g* I, g+ r& a+ nAudio
; o$ p2 g% F) j8 E! M# p2 D6 ]ID                                       : 23 i7 ?' d5 t$ w9 {' X4 T4 i- U
Format                                   : DTS XLL9 Y5 d& N* Z1 k+ W
Format/Info                              : Digital Theater Systems
8 o. e9 ?- h4 C5 G* sCommercial name                          : DTS-HD Master Audio
. n6 x: k( b& {Codec ID                                 : A_DTS
! C0 E- h) w( x: v; }8 HDuration                                 : 1 h 36 min
: F/ @8 C& F5 T% ]- OBit rate mode                            : Variable
8 c  u' ^& E. v3 Y4 o' dBit rate                                 : 3 753 kb/s" b7 n& M, `. s" N/ p
Channel(s)                               : 6 channels
" u/ G8 r9 W& h2 e6 X, ?2 D; }Channel layout                           : C L R Ls Rs LFE
5 E% P# l& L$ H7 u! V8 HSampling rate                            : 48.0 kHz
* G& ]) @" t' k! B9 ]" XFrame rate                               : 93.750 FPS (512 SPF)
- S2 J3 g* D; b. ^. JBit depth                                : 24 bits: J& U- H0 T) m* \* P
Compression mode                         : Lossless$ `" j" ?2 x; M6 A0 A/ \
Stream size                              : 2.54 GiB (25%)/ Z- r8 a1 N: j, l% p9 z7 J
Title                                    : Ava.2020.1080p.BluRaycd.x264.DTS-HD.MA.5.1-FGT- G9 ^" K- d7 N3 T5 w! j3 W% Q6 r7 T
Language                                 : English
' O) O9 E  ]7 H' D1 O& y  |Default                                  : Yes: O! M7 j2 [5 ?9 T! F; Q
Forced                                   : No7 V% _$ k4 ]3 ^2 d. f* s; i! }

# c- X( a" P+ p2 F8 e+ n+ a. _Text #1% D% J3 i. {. j$ e/ `0 x
ID                                       : 38 X+ s; I3 I. O6 x
Format                                   : UTF-8
9 T: L" x6 n* @6 y0 T2 pCodec ID                                 : S_TEXT/UTF80 [$ D* p$ c$ G$ A) I% \
Codec ID/Info                            : UTF-8 Plain Text8 ~% J: n: [' D: C9 D" w
Duration                                 : 1 h 30 min2 S4 @8 q& P4 }: A' o
Bit rate                                 : 45 b/s# w, H# s% ~+ k0 N
Count of elements                        : 909
) u* d- @$ a; F* L0 S  s6 s4 KStream size                              : 30.5 KiB (0%)
- i& E' F* v" cTitle                                    : English-SRT, [; x2 d9 z0 z6 a2 U( x( L
Language                                 : English
2 x& a$ x6 M4 |  e) i, F/ |4 eDefault                                  : Yes9 v8 z0 m1 |; A4 g. C1 K
Forced                                   : No
; e, _8 ~- i0 @" u" k4 H% Z8 v
9 v8 L! Y: b, E4 w- PText #2
5 O- }" y1 Z: c, L8 G6 c* S5 qID                                       : 4
9 ~: ]1 ]% e& g% t! ?, ^Format                                   : PGS, f, I" I- ^. l) n
Muxing mode                              : zlib8 o4 }# C4 S* [( M/ ^5 `$ R
Codec ID                                 : S_HDMV/PGS
/ q9 z1 `& h* i: JCodec ID/Info                            : Picture based subtitle format used on BDs/HD-DVDs
% }/ p% v0 ?* LDuration                                 : 1 h 31 min
6 g) w* D# Y) o- b; t. cBit rate                                 : 24.5 kb/s
) p; U& ]( @9 \4 rCount of elements                        : 1810+ t  O* b) v4 G3 T
Stream size                              : 16.0 MiB (0%)' S& j* }0 E; R; A+ z3 e- |1 ?1 c
Title                                    : English-PGS
& g1 k- k0 Q( ~8 ?Language                                 : English2 _7 E0 F5 v$ a; C- S" h  j
Default                                  : No
6 k+ T0 k: z/ p- fForced                                   : No
6 g) T( [! \# P5 O4 c8 B8 t) o  W( P- T) d1 G, \  ]8 {; M
Menu$ f& ~" n% a$ v, U9 J$ z7 N. N
00:00:00.000                             : en:Chapter 01
  B- g! G2 u3 M: R) z00:11:07.542                             : en:Chapter 02; [8 H2 b* w/ |, H$ C: x
00:21:53.145                             : en:Chapter 03
0 N- A1 Y# J2 V/ S' f" u, e- m  j00:32:22.899                             : en:Chapter 04
1 ?7 {+ r3 _! n# }" ^: c00:44:26.497                             : en:Chapter 05$ H8 ?7 X3 y  P3 @
00:58:33.427                             : en:Chapter 06# ?# A& `# A/ ^/ A7 q
01:10:38.192                             : en:Chapter 07, k( s0 S' R9 i" Y8 Z- {0 v
01:18:23.949                             : en:Chapter 08
5 D% ?* D  u. U( B6 i01:32:28.752                             : en:Chapter 09
$ g: E1 p# j3 y
游客,查看本帖隐藏内容请回复 | 加入VIP贵宾组可免积分免回复下载 了解详情 | 还不是会员:点击获取邀请码 Invitation Code

本版积分规则

小黑屋|Archiver|蓝光电影资源网

GMT+8, 2020-10-25 18:08

快速回复 返回顶部 返回列表