BluRayCD Forum

 找回密码
 立即注册【分享大片】

QQ登录

只需一步,快速开始

查看: 59|回复: 2
收起左侧

[2160P极清] 王朝 [4K HDR高码版 外挂中字] Dynasties UK S01 2160p UHD BluRaycd x265 10bit HDR DTS-HD MA 5.1-SCOTLUHD 39.83GB

[复制链接]

4491

主题

4663

帖子

6万

积分

Post Share

金币
8525 枚
体力
16644 点

卓越贡献勋章

黄金嫖客 发表于 2020-9-14 11:12:17 | 显示全部楼层 |阅读模式

  e. h3 O6 H7 z$ E
- Z0 B4 G2 g! U# l% \◎片  名 Dynasties / The Rise and Fall of Animal Families
1 M2 d) o- v: E! x. o" t# C3 W1 i◎译  名 王朝/动物家庭的兴衰* K( D) o2 G; [  t; W* J# `
◎年  代 2018
. j; T2 `5 {" e1 R' U$ U+ [3 n  o◎产  地 英国
2 S% F  N- B0 B  |- I# s4 f. s5 F◎类  别 纪录片6 L" L5 S* h0 ]' N' U
◎语  言 汉语普通话/英语6 l+ y; L8 z  B, X7 O& z, }
◎上映日期 2018-11-12(中国大陆)" B7 N- D0 l( q' O% B. p
◎IMDb评分  9.2/10 from 3,573 users
: e+ F5 ~" @: m◎IMDb链接  https://www.imdb.com/title/tt9130692/
8 k. Y0 y3 c8 A# A) g) Y" u- C% N◎豆瓣评分 9.5/10 from 33,470 users
1 m  j8 D$ t0 E8 S, E1 r) x◎豆瓣链接 https://movie.douban.com/subject/27182707/5 t& b# e* Y# z8 a3 C9 T* O
◎文件格式 x265 + DTS8 v! N6 r  v' q) O+ |8 M
◎视频尺寸 3840 x 21607 f2 O& |2 F" w3 Q- M) Z( X
◎文件大小 1DVD 39.83 GiB! e5 ?: D( R; x1 F# M. Y
◎集  数 5
1 ^  k' q$ O. D8 S  \. s◎片  长 52 min 31 s
. t9 q7 f, R& O, n: a, K◎导  演 斯蒂芬·莫斯 Stephen Moss1 P, j! C) |. R2 T) e' Y8 L2 N
◎主  演 戴维·阿滕伯勒 David Attenborough
* P0 b/ O3 k+ i3 L+ [2 R( A' S+ r# Q
◎简  介     - {4 J/ k# G# t" ^0 h3 i
9 }* f. T) a. N( K  `9 N# P  K% G
  西非撒哈拉沙漠边境,统治族群长达三年之久的黑猩猩戴维面临其他雄性的挑战,为了守住王权,他开始选择结盟。而当遭到围攻后,这位不死的王者又毅然决然踏上夺回王位的复仇之路。南极大陆,数千只帝企鹅爸爸团聚一起,与极其寒冷的永夜作抗争。他们等待新生命的出生,等待 爱人的归来。肯尼亚草原,雌狮查姆竭尽全力守护族群,在巨大的灾难面前,他必须面临生死存亡的考验。津巴布韦国家公园,垂老的三色狼泰特渐感力不从心,她对家族的控制力逐渐减弱,而她的女儿正在崛起,觊觎着母亲的皇位。印度,雌虎拉杰贝拉靠一己之力捕捉猎物,养育四个孩子,但是大自然从不因此对她慈悲半分。
1 i5 {+ T6 @! z0 Z0 b
" N4 r6 @1 l: u8 d/ f- G4 ]8 B  Follow the true stories of five of the world's most celebrated, yet endangered animals; penguins, chimpanzees, lions, painted wolves and tigers. Each in a heroic struggle against rivals and against the forces of nature, these families fight for their own survival and for the future of their dynasties.
9 W. E" N* ]7 n. [( I* I2 _
0 T/ \( S7 H: \
Video5 ?) }8 H4 E. Q: o
ID : 1
2 }2 }, x; o' ~& LFormat : HEVC) B0 L, m( s/ N, A3 Y1 i' H
Format/Info : High Efficiency Video Coding: h/ M3 q5 D( j$ d
Commercial name : HDR10+ u0 n' Y3 j, w
Format profile : Main 10@L5.1@High
! o2 K* s& X. ~$ cCodec ID : V_MPEGH/ISO/HEVC
0 j8 h9 o  k9 _5 K5 o, N& ~; H: oDuration : 52 min 31 s. b8 `- g' k+ B" \
Bit rate : 25.4 Mb/s. o. u$ P* D3 l4 W( H
Width : 3 840 pixels9 L2 ~. P0 }# d* H$ t" \
Height : 2 160 pixels
& N) L  y2 u& g- @% Q3 x" i, }Display aspect ratio : 16:9$ r) w% Q2 [1 a# D9 M* z7 w8 F
Frame rate mode : Constant
8 l* p9 C8 z8 ^0 TFrame rate : 23.976 (24000/1001) FPS
+ A/ v7 o" E: Z, y. AColor space : YUV
7 H# s2 _5 O& _4 R" V+ EChroma subsampling : 4:2:0 (Type 2). f1 @  {( D$ B- y* p5 j
Bit depth : 10 bits
4 w8 L+ d5 _5 F# ]9 q# t7 J( KBits/(Pixel*Frame) : 0.128
- ^. A4 ]& K8 [Stream size : 9.33 GiB (92%)
# ^0 r7 ^3 I# c( JWriting library : x265 2.927d8424c799d:[Windows][MSVC 1900][64 bit] 10bit
+ P% Q# H/ Z5 p" M& w' [! NEncoding settings : cpuid=1111039 / frame-threads=6 / numa-pools=62 / wpp / no-pmode / no-pme / no-psnr / no-ssim / log-level=2 / input-csp=1 / input-res=3840x2160 / interlace=0 / total-frames=75549 / level-idc=51 / high-tier=1 / uhd-bd=0 / ref=4 / no-allow-non-conformance / repeat-headers / annexb / aud / hrd / info / hash=0 / no-temporal-layers / no-open-gop / min-keyint=24 / keyint=240 / gop-lookahead=0 / bframes=4 / b-adapt=2 / b-pyramid / bframe-bias=0 / rc-lookahead=25 / lookahead-slices=4 / scenecut=40 / radl=0 / no-intra-refresh / ctu=64 / min-cu-size=8 / rect / no-amp / max-tu-size=32 / tu-inter-depth=1 / tu-intra-depth=1 / limit-tu=0 / rdoq-level=2 / dynamic-rd=0.00 / no-ssim-rd / signhide / no-tskip / nr-intra=0 / nr-inter=0 / no-constrained-intra / no-strong-intra-smoothing / max-merge=3 / limit-refs=3 / limit-modes / me=3 / subme=3 / merange=57 / temporal-mvp / weightp / no-weightb / no-analyze-src-pics / deblock=-3:-3 / no-sao / no-sao-non-deblock / rd=4 / no-early-skip / rskip / no-fast-intra / no-tskip-fast / no-cu-lossless / no-b-intra / no-splitrd-skip / rdpenalty=0 / psy-rd=2.00 / psy-rdoq=1.00 / no-rd-refine / no-lossless / cbqpoffs=0 / crqpoffs=0 / rc=crf / crf=17.0 / qcomp=0.60 / qpstep=4 / stats-write=0 / stats-read=0 / vbv-maxrate=160000 / vbv-bufsize=160000 / vbv-init=0.9 / crf-max=0.0 / crf-min=0.0 / ipratio=1.40 / pbratio=1.30 / aq-mode=1 / aq-strength=1.00 / cutree / zone-count=0 / no-strict-cbr / qg-size=32 / no-rc-grain / qpmax=69 / qpmin=0 / no-const-vbv / sar=1 / overscan=0 / videoformat=5 / range=0 / colorprim=9 / transfer=16 / colormatrix=9 / chromaloc=1 / chromaloc-top=2 / chromaloc-bottom=2 / display-window=0 / master-display=G(13250,34500)B(7500,3000)R(34000,16000)WP(15635,16450)L(10000000,50) / max-cll=1024,342 / min-luma=0 / max-luma=1023 / log2-max-poc-lsb=8 / vui-timing-info / vui-hrd-info / slices=1 / no-opt-qp-pps / no-opt-ref-list-length-pps / no-multi-pass-opt-rps / scenecut-bias=0.05 / no-opt-cu-delta-qp / no-aq-motion / hdr / hdr-opt / no-dhdr10-opt / no-idr-recovery-sei / analysis-reuse-level=5 / scale-factor=0 / refine-intra=0 / refine-inter=0 / refine-mv=0 / no-limit-sao / ctu-info=0 / no-lowpass-dct / refine-mv-type=0 / copy-pic=1 / max-ausize-factor=1.0 / no-dynamic-refine / no-single-sei
. l/ H+ x9 L3 M5 t) ^: \Default : Yes' H# ^8 \% q, K! i0 k6 F, d0 X' _
Forced : No: R6 M3 U. w; C0 l. [
Color range : Limited4 r! O. F3 Q* V8 y& q" P
Color primaries : BT.20203 N  h8 d  W9 i/ g7 |9 x% f! L
Transfer characteristics : PQ% V  r4 n; c: k, n. |
Matrix coefficients : BT.2020 non-constant
2 Z, t9 Q2 g" fMastering display color primaries : Display P3& Q1 J1 S  t6 Z
Mastering display luminance : min: 0.0050 cd/m2, max: 1000 cd/m2
# X: z. F  ?3 e2 H+ B- sMaximum Content Light Level : 1024 cd/m2( M; W% Z: f0 r' M2 v
Maximum Frame-Average Light Level : 342 cd/m2
1 k' `9 p1 b# d" s! \% m/ n' }$ J; T1 Z% S% U
Audio- U7 s% N7 s! Z/ P+ X, }
ID : 2
* v: P7 Q$ t7 T* uFormat : DTS XLL9 L5 i$ r3 W% o2 |
Format/Info : Digital Theater Systems5 [7 g3 W9 Y) g; Q; ^( N
Commercial name : DTS-HD Master Audio/ n2 P, ^, t, I1 l" D3 v( x) v  _' i
Codec ID : A_DTS' @+ x4 U  _: z7 ^' s* @  f
Duration : 52 min 31 s
7 k$ ?* P/ ^3 R" O% t( J3 k1 bBit rate mode : Variable
; H  G$ y8 y4 n0 h$ |Bit rate : 2 166 kb/s3 g- G: \0 i7 c
Channel(s) : 6 channels
1 l  L; v1 E% d' O) g- SChannel layout : C L R Ls Rs LFE# a; a* C# Y3 F( O! h! z
Sampling rate : 48.0 kHz
8 s+ t& a. i4 M1 I; w0 l, AFrame rate : 93.750 FPS (512 SPF)
/ o  c8 g  x8 h  M$ d  yBit depth : 16 bits, W7 ?, p( |+ {7 e  {: G9 Y+ l
Compression mode : Lossless
! _7 I/ J0 s  UStream size : 814 MiB (8%)' x' N# O2 f2 x( U% l9 w7 W1 Q
Language : English6 w& K: ~2 l# D5 p7 W
Default : Yes1 Z" B  t3 Y* C, Q; A" _
Forced : No
; w3 {7 c* G) g
( K* l0 Q" Y; m  y4 z# aText #1, E# x6 v! E6 o1 _+ m
ID : 3+ B9 T3 j* g3 j1 v
Format : UTF-81 j2 r6 W) t3 a& i
Codec ID : S_TEXT/UTF8
1 T4 Z& R! e0 U3 lCodec ID/Info : UTF-8 Plain Text" C& [" C: N" A# J7 p. f
Duration : 51 min 24 s) Q7 C( `( p& ]8 D7 B$ Q' C( y
Bit rate : 30 b/s! r+ @8 t  k/ o
Count of elements : 254  l' R' h* ]5 t( i4 y! }, o% `1 \
Stream size : 11.3 KiB (0%)& d/ q3 W" z" `# _$ v
Title : Stripped SRT
+ C; {9 K. y# t6 `  @Language : English, F& r4 t, `* `( L3 R
Default : No
! G3 d, C! [% C5 TForced : No
8 R0 s  _( m3 ?% g# ?1 b, x7 v
0 F, J# U. J2 B, HText #2
5 n/ Z* C$ r) iID : 4
0 U7 A* x4 O/ I& x. GFormat : UTF-8* [: k0 {1 L/ j9 W! D
Codec ID : S_TEXT/UTF8
) B2 i4 n- z7 F9 HCodec ID/Info : UTF-8 Plain Text5 l- T  T7 }8 n* u
Duration : 51 min 56 s+ Z1 w7 N: x8 p! b" x
Bit rate : 32 b/s5 l( V" r4 [" F9 g
Count of elements : 326
" o; \% n; c8 r0 k2 uStream size : 12.4 KiB (0%)
0 v9 H9 b) p) K0 W# }$ W/ BTitle : SDH SRT
* V6 h) v3 m2 d" m0 e6 JLanguage : English/ f+ g4 s/ h4 w
Default : No
6 P4 ~2 e. Z0 Z" R5 T1 f# q. l& nForced : No5 T  B# L4 {$ L( i* ~  t

; H* @8 ^5 j% w% U. pText #3& n4 o" ]7 _# X  |
ID : 5
. D; [6 w! R$ x/ g3 q0 b; l: KFormat : PGS5 y/ _3 ]1 f% [1 r& k
Muxing mode : zlib
, p1 y5 l- k: h6 o1 L/ ~3 ACodec ID : S_HDMV/PGS
* \& e' d) ]) V/ s# J* oCodec ID/Info : Picture based subtitle format used on BDs/HD-DVDs
6 ^( s  Q, Y9 LDuration : 51 min 56 s8 H" K0 r+ a6 @% N' H" e$ b, r
Bit rate : 19.8 kb/s
7 X* L) @  Y; j- }6 KCount of elements : 652
: U/ c. b! k2 L0 I+ ?+ g% T* mStream size : 7.36 MiB (0%)
6 r6 J) P- T0 h; G3 u: S  A# HTitle : SDH
; U1 \0 b/ c& u; R$ {! c. {& SLanguage : English/ ~7 |7 j( ?- O# s8 ?+ T; U- L2 D" s0 A
Default : No) @$ {) g" p+ Y* v- T
Forced : No
' H3 ^# ~7 ]8 f1 L6 O! D
4 J- V5 Y- S8 t% NMenu
: _) R4 N6 v" G8 F4 u* p) W00:00:00.000 : :Chapter 01, A; s6 y8 d8 U2 X: u% Q) i
00:11:12.714 : :Chapter 026 H0 u$ {+ B, [' `6 c: Q8 G
00:20:04.537 : :Chapter 03; X$ w7 j$ p" e6 L4 s
00:29:21.468 : :Chapter 04
2 o* C" b6 T2 X; \& z$ V9 i00:41:45.878 : :Chapter 05# }$ G5 P5 L: L+ B4 P
00:51:27.626 : :Chapter 06

; z( A+ h) h/ T) v+ t& X
游客,查看本帖隐藏内容请回复 | 加入VIP贵宾组可免积分免回复下载 了解详情 | 还不是会员:点击获取邀请码 Invitation Code

0

主题

56

帖子

325

积分

Sponsor

金币
109 枚
体力
97 点
skyewan 发表于 2020-9-15 07:51:14 | 显示全部楼层
啥也不说了,楼主就是给力!* @# ~$ X& _8 E' P6 C0 b7 `
Bluraycd.com movie updates really fast, also did not release issued, whether you believe it or not, anyway, I believed!

0

主题

10

帖子

178

积分

Sponsor

金币
115 枚
体力
38 点
QQ
13096891852 发表于 昨天 08:55 | 显示全部楼层
感激楼主倾情发布,爱你!

本版积分规则

小黑屋|Archiver|蓝光电影资源网

GMT+8, 2020-9-25 17:09

快速回复 返回顶部 返回列表