BluRayCD Forum

 找回密码
 立即注册【分享大片】

QQ登录

只需一步,快速开始

查看: 27|回复: 1
收起左侧

[2160P极清] 王朝/动物家庭的兴衰 [4K SDR高码版] Dynasties UK S01 2160p BluRaycd x265 10bit SDR DTS-HD MA 5.1-SWTYBLZ 86.08GB

[复制链接]

4491

主题

4663

帖子

6万

积分

Post Share

金币
8525 枚
体力
16644 点

卓越贡献勋章

黄金嫖客 发表于 2020-9-14 11:18:32 | 显示全部楼层 |阅读模式
01.jpg
: L" h5 O: o! z! J$ C8 D9 b( r+ l7 r
◎片  名 Dynasties / The Rise and Fall of Animal Families2 H5 {9 _/ U& l# V! c
◎译  名 王朝/动物家庭的兴衰
9 ]' }0 y. a! K% e% M, X8 |◎年  代 2018
6 i" j3 g7 \( w0 Q◎产  地 英国$ R. p3 \. F; {& L; ]
◎类  别 纪录片: _/ |" d* n& ~& U7 V6 c
◎语  言 汉语普通话/英语
, d$ P  h1 F* A$ z3 G◎上映日期 2018-11-12(中国大陆)$ T" j9 U3 z7 Q4 P
◎IMDb评分  9.2/10 from 3,573 users: ~  r( S4 N5 T8 }. U
◎IMDb链接  https://www.imdb.com/title/tt9130692/# U, M+ W6 E: k+ V
◎豆瓣评分 9.5/10 from 33,470 users
3 e: c: D! W% W/ \4 S) q8 g◎豆瓣链接 https://movie.douban.com/subject/27182707/
7 D2 D# z/ {( ^/ O0 ]- J( c0 ^7 F◎文件格式 x265 + DTS
& p2 |1 ]3 ^3 }0 X7 D5 V) o( W: i◎视频尺寸 3840 x 2160
6 W0 G  |. {! L* [9 w. R◎文件大小 1DVD 86.08 GiB  E$ [1 E' K( h) P
◎集  数 55 h6 Q; B" u( I# h; k  D
◎片  长 52 min 31 s* ?3 x( U- ^( y6 V! C
◎导  演 斯蒂芬·莫斯 Stephen Moss- z1 B7 u: S" ~8 A* U3 f5 t' O
◎主  演 戴维·阿滕伯勒 David Attenborough
/ \& Y4 b6 q% s6 F; G- V; P8 h- C5 x' G5 v0 t
◎简  介     
( _3 @( V# n; `" i/ J" z  O! m
+ h8 Z& n6 J# b. w  西非撒哈拉沙漠边境,统治族群长达三年之久的黑猩猩戴维面临其他雄性的挑战,为了守住王权,他开始选择结盟。而当遭到围攻后,这位不死的王者又毅然决然踏上夺回王位的复仇之路。南极大陆,数千只帝企鹅爸爸团聚一起,与极其寒冷的永夜作抗争。他们等待新生命的出生,等待 爱人的归来。肯尼亚草原,雌狮查姆竭尽全力守护族群,在巨大的灾难面前,他必须面临生死存亡的考验。津巴布韦国家公园,垂老的三色狼泰特渐感力不从心,她对家族的控制力逐渐减弱,而她的女儿正在崛起,觊觎着母亲的皇位。印度,雌虎拉杰贝拉靠一己之力捕捉猎物,养育四个孩子,但是大自然从不因此对她慈悲半分。 3 }, Y( d9 e' m. B0 t* a0 l* G* h

/ z7 p4 g6 M( s+ `  Enter a world of dynastic power struggles and family treachery. This intimate landmark series – narrated by David Attenborough – immerses us in the lives of five of the most celebrated and endangered animal families. Witness their incredible determination to protect their family line in the face of challenges to their leadership or from the often harsh environment around them.9 S- y4 n# M9 O  y- E% |5 Y- z

& I& `  q2 o% C$ v% x
SWEATY BALLZ presents
6 X2 N- t" T& ^( [2 ^& E( m9 c: [8 M1 ]! H" {
Dynasties.UK.S01.2160p.BluRayCD.x265.10bit.SDR.DTS-HD.MA.5.1-SWTYBLZ+ \$ h! i4 }  m) |
Converted from 10 bit HDR to 10 bit SDR using tripple mixed Hable-Reinhard-JJ per scene+frame analysis algorithm
% m" k8 j) G4 m5 y6 ?  a1 B
0 x4 m" M* w  M6 u1 h: Z/ A* }Video
( E) z: _( ]2 O$ cID : 1
9 V2 j- a0 R9 l9 mFormat : HEVC+ V6 H1 E& y& ?8 e( a
Format/Info : High Efficiency Video Coding! Y2 W  z, h( q
Format profile : Main 10@L5.1@High
. `8 @+ r/ l9 I; ]Codec ID : V_MPEGH/ISO/HEVC
% Y6 l, b0 h  k6 d, i" cDuration : 52 min 59 s* [$ A- @* H1 N. a" M: ]
Bit rate : 41.7 Mb/s
; Q5 v6 q# y" ]/ i' t4 m5 E+ fWidth : 3 840 pixels6 [' J8 F0 ^  M& B6 P# U
Height : 2 160 pixels/ d* Q* `7 i8 z. g# _
Display aspect ratio : 16:9" ?6 {) t/ Y! {
Frame rate mode : Constant9 p: Q' E6 L) T& g. ~2 p
Frame rate : 23.976 (24000/1001) FPS/ `; _7 |9 a  K0 d% k1 J2 v( h
Color space : YUV* G7 v: ?+ ]) o- D7 Y
Chroma subsampling : 4:2:0
0 v2 t' P  G. |9 `6 IBit depth : 10 bits
+ E; b" I! u2 |$ m( u& iBits/(Pixel*Frame) : 0.210
. n, ^, k1 h$ g3 X* \' `; T( WStream size : 15.4 GiB (94%)9 ]* }' U7 j- x* s" Z/ n" L
Title : Dynasties.UK.S01E01.Chimpanzee.2160p.BluRaycd.x265.10bit.SDR.DTS-HD.MA.5.1-SWTYBLZ
: J$ v7 G# l% d7 F/ q9 @  z) eWriting library : x265 2.927d8424c799d:[Windows][GCC 8.2.0][64 bit] 10bit
; C/ d0 k: f: b, \: O5 |9 w/ NEncoding settings : cpuid=1111039 / frame-threads=16 / numa-pools=16,16 / wpp / no-pmode / no-pme / no-psnr / no-ssim / log-level=2 / input-csp=1 / input-res=3840x2160 / interlace=0 / total-frames=76223 / level-idc=51 / high-tier=1 / uhd-bd=0 / ref=3 / no-allow-non-conformance / repeat-headers / annexb / aud / hrd / info / hash=0 / no-temporal-layers / no-open-gop / min-keyint=1 / keyint=24 / gop-lookahead=0 / bframes=4 / b-adapt=2 / b-pyramid / bframe-bias=0 / rc-lookahead=25 / lookahead-slices=4 / scenecut=40 / radl=0 / no-intra-refresh / ctu=64 / min-cu-size=8 / no-rect / no-amp / max-tu-size=32 / tu-inter-depth=1 / tu-intra-depth=1 / limit-tu=0 / rdoq-level=0 / dynamic-rd=0.00 / no-ssim-rd / signhide / no-tskip / nr-intra=0 / nr-inter=0 / no-constrained-intra / strong-intra-smoothing / max-merge=2 / limit-refs=3 / no-limit-modes / me=1 / subme=2 / merange=57 / temporal-mvp / weightp / no-weightb / no-analyze-src-pics / deblock=0:0 / no-sao / no-sao-non-deblock / rd=3 / no-early-skip / rskip / no-fast-intra / no-tskip-fast / no-cu-lossless / no-b-intra / no-splitrd-skip / rdpenalty=0 / psy-rd=2.00 / psy-rdoq=0.00 / no-rd-refine / no-lossless / cbqpoffs=0 / crqpoffs=0 / rc=crf / crf=16.0 / qcomp=0.60 / qpstep=4 / stats-write=0 / stats-read=0 / vbv-maxrate=160000 / vbv-bufsize=160000 / vbv-init=0.9 / crf-max=0.0 / crf-min=0.0 / ipratio=1.40 / pbratio=1.30 / aq-mode=1 / aq-strength=1.00 / cutree / zone-count=0 / no-strict-cbr / qg-size=32 / no-rc-grain / qpmax=69 / qpmin=0 / no-const-vbv / sar=1 / overscan=0 / videoformat=5 / range=0 / colorprim=2 / transfer=2 / colormatrix=2 / chromaloc=0 / display-window=0 / max-cll=0,0 / min-luma=0 / max-luma=1023 / log2-max-poc-lsb=8 / vui-timing-info / vui-hrd-info / slices=1 / opt-qp-pps / opt-ref-list-length-pps / no-multi-pass-opt-rps / scenecut-bias=0.05 / no-opt-cu-delta-qp / no-aq-motion / no-hdr / no-hdr-opt / no-dhdr10-opt / no-idr-recovery-sei / analysis-reuse-level=5 / scale-factor=0 / refine-intra=0 / refine-inter=0 / refine-mv=0 / no-limit-sao / ctu-info=0 / no-lowpass-dct / refine-mv-type=0 / copy-pic=1 / max-ausize-factor=1.0 / no-dynamic-refine / no-single-sei
6 ~. y3 T& X) ?3 g) ~, c, ~Default : Yes9 L) B5 H) t- C( C2 y
Forced : No
5 G- q5 v; G! g3 k* |7 b9 C1 N" ]8 Q5 S+ n9 T4 ?" F
Audio #1' d/ x: L; }" |$ h2 J
ID : 2# V3 f% |+ y0 `0 m
Format : DTS XLL
1 }: k! I! d0 EFormat/Info : Digital Theater Systems$ |9 d- u% o$ ?  R; z8 @, Q" L
Commercial name : DTS-HD Master Audio+ H( Y5 d* Z( }. n4 ?! ?+ J/ k
Codec ID : A_DTS9 D2 F; m, s1 h
Duration : 52 min 59 s  c. T; S+ {! c4 b( y
Bit rate mode : Variable  Q% F1 Z2 M) R" C& K* l
Bit rate : 2 167 kb/s2 a9 C' q: l0 V2 H
Channel(s) : 6 channels
8 p+ ]- F: t5 E6 j( J* i' Q1 C, ?" e) dChannel layout : C L R Ls Rs LFE4 \, W$ `& u; b. P% h! e
Sampling rate : 48.0 kHz
8 G- ]& E( t: ]/ v2 QFrame rate : 93.750 FPS (512 SPF)
& k/ P& c6 L0 i4 rBit depth : 16 bits/ o' _5 K3 X% r( |# P4 n3 Z- N
Compression mode : Lossless% r+ N+ O8 t* T/ ~# f
Stream size : 821 MiB (5%)
, }# z0 \0 y# @* rTitle : Dynasties.UK.S01E01.Chimpanzee.2160p.BluRaycd.x265.10bit.SDR.DTS-HD.MA.5.1-SWTYBLZ# J6 Q, p2 r6 ^; p* q( x0 Y7 _
Language : English4 q( }0 N/ t8 X4 C' }4 d8 C7 P9 h
Default : Yes
2 j* r# g. T" U* o3 @( }3 e  F0 hForced : No
- Z( t" e7 S9 Y
  t4 c" b+ m4 s5 ^& k, u: ZAudio #27 z2 _! {/ T% |- R9 g( C
ID : 3% n9 U8 ?8 y$ o4 A
Format : AC-31 V' _; V- D8 K2 L9 W0 l
Format/Info : Audio Coding 33 i; [1 \2 S+ a& n3 J
Commercial name : Dolby Digital
7 m! w5 A8 Q7 LCodec ID : A_AC3
2 Z) e: b3 H- d- VDuration : 52 min 59 s2 F2 Y1 n) p2 F  M# f) Z# Z# u  \
Bit rate mode : Constant, n  ?* g5 s1 [( f7 q7 J9 G
Bit rate : 640 kb/s
3 e- y1 ^  w- l( A3 L2 W# ]Channel(s) : 6 channels% e+ ^! G" r$ q, f% S  z
Channel layout : L R C LFE Ls Rs' Z1 c9 ^/ t+ A% @  B
Sampling rate : 48.0 kHz
9 o9 f; q2 N6 h/ rFrame rate : 31.250 FPS (1536 SPF)' |8 ?0 j9 M$ R
Bit depth : 16 bits/ b; Z+ P0 r' Y  B' z4 A
Compression mode : Lossy
5 z, @( c- I6 n* g0 HStream size : 243 MiB (1%)5 Q+ W" f0 `! d+ Y7 g
Title : Dynasties.UK.S01E01.Chimpanzee.2160p.BluRaycd.x265.10bit.SDR.DTS-HD.MA.5.1-SWTYBLZ  ]0 Q1 V' T# j! P5 P' t
Language : English
' V) i7 u+ F% r" w1 Q% h( mService kind : Complete Main
+ L7 |' l' r5 G! _$ V/ NDefault : No/ o: C! O. n8 U# \# S
Forced : No
8 `4 F8 |3 g+ E4 a0 e; d# M! ~6 ~
: p: d8 ?; A3 [Text #1' g0 M- `$ L5 q2 A5 V
ID : 4
/ z# M2 u) x2 ?( U# WFormat : UTF-8
/ C& i$ K7 r. {/ [8 M( o, x" p7 xCodec ID : S_TEXT/UTF8
' e7 D2 K2 ?9 A) r- r0 b% sCodec ID/Info : UTF-8 Plain Text1 c+ H( k) s: b- [9 X
Duration : 52 min 3 s# [$ s5 n9 j* n& L" s7 K  q
Bit rate : 22 b/s
8 H. c& q) S; a) j. jCount of elements : 234
/ d% |5 ]$ I; F% cStream size : 8.49 KiB (0%): q" g1 d6 ^. P/ H( P( f
Title : English-SRT6 t. N! s; l7 S, f5 F. m
Language : English2 b! i1 S, _% U0 e# B" @7 }
Default : Yes
- G7 v3 D3 \  r5 r# CForced : No
8 E% A5 _9 W. t/ j" R& N
2 k3 I! [$ u4 ~- J+ G  OText #2% w, C2 y9 S5 h# i. u: u
ID : 5; Q* z. I4 P! g% f! j
Format : UTF-84 e% h2 X# Y& {0 ]% Q* w) _
Codec ID : S_TEXT/UTF8
" I' l; @1 b9 K9 GCodec ID/Info : UTF-8 Plain Text
2 n! q4 q) E9 T4 {Duration : 52 min 20 s9 W% x( j( j3 E4 c
Bit rate : 24 b/s
' R/ T- c* x& V5 c, b6 V; JCount of elements : 297
* I- U- t* @8 o* b& A. eStream size : 9.39 KiB (0%)8 e: H4 l! H- C8 _3 y
Title : English-SDH-SRT4 G2 O- S3 N$ o. i/ ^& [# Q9 l4 e9 b- O
Language : English
% v; @; d) ~" {8 Z. ?5 w  YDefault : No
0 a% Y# ~/ @3 N% D# }" ~Forced : No
& Y) Z+ i8 j' b8 K
0 f4 _, v# `" h$ Z+ k3 x* YText #3
2 W% O( Q0 D8 n7 |& S' Q- LID : 6" x2 R- G6 e0 e
Format : PGS
/ O' g7 A  K8 E( g/ wMuxing mode : zlib9 w/ z# j5 i7 K! M  s0 s8 v
Codec ID : S_HDMV/PGS3 f* _, r6 H9 j$ @- ?
Codec ID/Info : Picture based subtitle format used on BDs/HD-DVDs
! E) X5 [( N/ T6 F- n: \Duration : 52 min 20 s7 ~4 P9 f' J0 j. f4 S0 M
Bit rate : 17.2 kb/s
: \9 ^. v( B/ f, Q6 P$ {  y2 GCount of elements : 594- h* G5 }! l" E+ k/ v
Stream size : 6.43 MiB (0%)
9 B+ x* l" D$ WTitle : English-PGS- V5 b& t5 k2 E2 j3 R' S1 a8 C
Language : English& ^4 L# G+ }9 {7 E8 J' j. ?6 X
Default : No( \( X, j9 r0 f' {
Forced : No
7 q2 H3 `9 n3 ~" g, `  ?
% [  P4 m6 l( fMenu
& Q# ^7 ?* f) \/ d3 \4 O% \$ @00:00:00.000 : :Chapter 1! p6 Y% n& i  \/ m  }
00:10:34.300 : :Chapter 2
* A: N+ J4 w+ V+ Q5 v00:20:53.961 : :Chapter 3* _+ q! B' ^! ]3 [' \
00:31:33.558 : :Chapter 4+ @4 t. u$ `  Y
00:41:35.451 : :Chapter 5
/ N0 w# k0 q/ p/ V6 b7 C00:51:56.571 : :Chapter 6

8 ]) B! q4 s% n# r8 W" a" E5 s
游客,查看本帖隐藏内容请回复 | 加入VIP贵宾组可免积分免回复下载 了解详情 | 还不是会员:点击获取邀请码 Invitation Code

0

主题

141

帖子

783

积分

Sponsor

金币
110 枚
体力
404 点
2475017 发表于 前天 04:48 | 显示全部楼层
thanks for sharing5 S" }% _- f$ L) S+ w
该会员没有 ...

本版积分规则

小黑屋|Archiver|蓝光电影资源网

GMT+8, 2020-9-22 04:11

快速回复 返回顶部 返回列表